  0
SECTION
  2
HEADER
  9
$ACADVER
  1
AC1014
  9
$ACADMAINTVER
 70
     9
  9
$DWGCODEPAGE
  3
ANSI_932
  9
$INSBASE
 10
0.0
 20
0.0
 30
0.0
  9
$EXTMIN
 10
-66.41484262
 20
-31.71713736
 30
-0.00152582
  9
$EXTMAX
 10
148.00312582
 20
61.02264515
 30
0.00000003
  9
$LIMMIN
 10
0.0
 20
0.0
  9
$LIMMAX
 10
420.0
 20
297.0
  9
$ORTHOMODE
 70
     0
  9
$REGENMODE
 70
     1
  9
$FILLMODE
 70
     1
  9
$QTEXTMODE
 70
     0
  9
$MIRRTEXT
 70
     1
  9
$DRAGMODE
 70
     2
  9
$LTSCALE
 40
10.0
  9
$OSMODE
 70
   549
  9
$ATTMODE
 70
     1
  9
$TEXTSIZE
 40
3.0
  9
$TRACEWID
 40
1.0
  9
$TEXTSTYLE
  7
YOKO
  9
$CLAYER
  8
245
  9
$CELTYPE
  6
BYLAYER
  9
$CECOLOR
 62
   256
  9
$CELTSCALE
 40
1.0
  9
$DELOBJ
 70
     1
  9
$DISPSILH
 70
     0
  9
$DIMSCALE
 40
1.0
  9
$DIMASZ
 40
2.0
  9
$DIMEXO
 40
2.0
  9
$DIMDLI
 40
2.5
  9
$DIMRND
 40
0.0
  9
$DIMDLE
 40
0.0
  9
$DIMEXE
 40
2.0
  9
$DIMTP
 40
0.0
  9
$DIMTM
 40
0.0
  9
$DIMTXT
 40
4.0
  9
$DIMCEN
 40
0.0
  9
$DIMTSZ
 40
0.0
  9
$DIMTOL
 70
     0
  9
$DIMLIM
 70
     0
  9
$DIMTIH
 70
     0
  9
$DIMTOH
 70
     0
  9
$DIMSE1
 70
     0
  9
$DIMSE2
 70
     0
  9
$DIMTAD
 70
     3
  9
$DIMZIN
 70
     8
  9
$DIMBLK
  1

  9
$DIMASO
 70
     1
  9
$DIMSHO
 70
     1
  9
$DIMPOST
  1

  9
$DIMAPOST
  1

  9
$DIMALT
 70
     0
  9
$DIMALTD
 70
     2
  9
$DIMALTF
 40
25.4
  9
$DIMLFAC
 40
1.0
  9
$DIMTOFL
 70
     1
  9
$DIMTVP
 40
0.0
  9
$DIMTIX
 70
     1
  9
$DIMSOXD
 70
     0
  9
$DIMSAH
 70
     1
  9
$DIMBLK1
  1
OPEN
  9
$DIMBLK2
  1
OPEN
  9
$DIMSTYLE
  2
BIGT
  9
$DIMCLRD
 70
   256
  9
$DIMCLRE
 70
   256
  9
$DIMCLRT
 70
    40
  9
$DIMTFAC
 40
1.0
  9
$DIMGAP
 40
1.0
  9
$DIMJUST
 70
     0
  9
$DIMSD1
 70
     0
  9
$DIMSD2
 70
     0
  9
$DIMTOLJ
 70
     1
  9
$DIMTZIN
 70
     8
  9
$DIMALTZ
 70
     0
  9
$DIMALTTZ
 70
     0
  9
$DIMFIT
 70
     3
  9
$DIMUPT
 70
     0
  9
$DIMUNIT
 70
     2
  9
$DIMDEC
 70
     3
  9
$DIMTDEC
 70
     3
  9
$DIMALTU
 70
     2
  9
$DIMALTTD
 70
     2
  9
$DIMTXSTY
  7
STANDARD
  9
$DIMAUNIT
 70
     0
  9
$LUNITS
 70
     2
  9
$LUPREC
 70
     3
  9
$SKETCHINC
 40
1.0
  9
$FILLETRAD
 40
1.6
  9
$AUNITS
 70
     0
  9
$AUPREC
 70
     3
  9
$MENU
  1
.
  9
$ELEVATION
 40
0.0
  9
$PELEVATION
 40
0.0
  9
$THICKNESS
 40
0.0
  9
$LIMCHECK
 70
     0
  9
$BLIPMODE
 70
     0
  9
$CHAMFERA
 40
10.0
  9
$CHAMFERB
 40
10.0
  9
$CHAMFERC
 40
0.0
  9
$CHAMFERD
 40
0.0
  9
$SKPOLY
 70
     0
  9
$TDCREATE
 40
2455141.465409607
  9
$TDUPDATE
 40
2455383.492822986
  9
$TDINDWG
 40
0.0171350463
  9
$TDUSRTIMER
 40
0.0171348611
  9
$USRTIMER
 70
     1
  9
$ANGBASE
 50
0.0
  9
$ANGDIR
 70
     0
  9
$PDMODE
 70
     1
  9
$PDSIZE
 40
-5.0
  9
$PLINEWID
 40
0.0
  9
$COORDS
 70
     1
  9
$SPLFRAME
 70
     0
  9
$SPLINETYPE
 70
     6
  9
$SPLINESEGS
 70
     8
  9
$ATTDIA
 70
     0
  9
$ATTREQ
 70
     1
  9
$HANDLING
 70
-16383
  9
$HANDSEED
  5
1A8D
  9
$SURFTAB1
 70
     6
  9
$SURFTAB2
 70
     6
  9
$SURFTYPE
 70
     6
  9
$SURFU
 70
     6
  9
$SURFV
 70
     6
  9
$UCSNAME
  2

  9
$UCSORG
 10
0.0
 20
0.0
 30
0.0
  9
$UCSXDIR
 10
1.0
 20
0.0
 30
0.0
  9
$UCSYDIR
 10
0.0
 20
1.0
 30
0.0
  9
$PUCSNAME
  2

  9
$PUCSORG
 10
0.0
 20
0.0
 30
0.0
  9
$PUCSXDIR
 10
1.0
 20
0.0
 30
0.0
  9
$PUCSYDIR
 10
0.0
 20
1.0
 30
0.0
  9
$USERI1
 70
     1
  9
$USERI2
 70
     0
  9
$USERI3
 70
     0
  9
$USERI4
 70
     0
  9
$USERI5
 70
     0
  9
$USERR1
 40
0.0
  9
$USERR2
 40
0.0
  9
$USERR3
 40
0.0
  9
$USERR4
 40
0.0
  9
$USERR5
 40
0.0
  9
$WORLDVIEW
 70
     1
  9
$SHADEDGE
 70
     3
  9
$SHADEDIF
 70
    70
  9
$TILEMODE
 70
     1
  9
$MAXACTVP
 70
    16
  9
$PINSBASE
 10
0.0
 20
0.0
 30
0.0
  9
$PLIMCHECK
 70
     0
  9
$PEXTMIN
 10
1.00000000E+20
 20
1.00000000E+20
 30
1.00000000E+20
  9
$PEXTMAX
 10
-1.00000000E+20
 20
-1.00000000E+20
 30
-1.00000000E+20
  9
$PLIMMIN
 10
0.0
 20
0.0
  9
$PLIMMAX
 10
420.0
 20
297.0
  9
$UNITMODE
 70
     0
  9
$VISRETAIN
 70
     0
  9
$PLINEGEN
 70
     0
  9
$PSLTSCALE
 70
     1
  9
$TREEDEPTH
 70
  3020
  9
$PICKSTYLE
 70
     0
  9
$CMLSTYLE
  2
STANDARD
  9
$CMLJUST
 70
     0
  9
$CMLSCALE
 40
1.0
  9
$PROXYGRAPHICS
 70
     1
  9
$MEASUREMENT
 70
     1
  0
ENDSEC
  0
SECTION
  2
CLASSES
  0
CLASS
  1
XRECORD
  2
AcDbXrecord
  3
AutoCAD 2000
 90
        0
280
     0
281
     0
  0
CLASS
  1
ACDBDICTIONARYWDFLT
  2
AcDbDictionaryWithDefault
  3
AutoCAD 2000
 90
        0
280
     0
281
     0
  0
CLASS
  1
ACDBPLACEHOLDER
  2
AcDbPlaceHolder
  3
AutoCAD 2000
 90
        0
280
     0
281
     0
  0
CLASS
  1
LAYOUT
  2
AcDbLayout
  3
AutoCAD 2000
 90
        0
280
     0
281
     0
  0
CLASS
  1
PLOTSETTINGS
  2
AcDbPlotSettings
  3
AutoCAD 2000
 90
        0
280
     0
281
     0
  0
CLASS
  1
LONG_TRANSACTION
  2
AcDbLongTransaction
  3
AutoCAD 2000
 90
        0
280
     0
281
     0
  0
CLASS
  1
LWPOLYLINE
  2
AcDbPolyline
  3
AutoCAD 2000
 90
        0
280
     0
281
     1
  0
CLASS
  1
HATCH
  2
AcDbHatch
  3
AutoCAD 2000
 90
        0
280
     0
281
     1
  0
CLASS
  1
XRECORD
  2
AcDbXrecord
  3
AutoCAD 2000
 90
        0
280
     0
281
     0
  0
CLASS
  1
LONG_TRANSACTION
  2
AcDbLongTransaction
  3
AutoCAD 2000
 90
        0
280
     0
281
     0
  0
CLASS
  1
LWPOLYLINE
  2
AcDbPolyline
  3
AutoCAD 2000
 90
        0
280
     0
281
     1
  0
CLASS
  1
HATCH
  2
AcDbHatch
  3
AutoCAD 2000
 90
        0
280
     0
281
     1
  0
CLASS
  1
XRECORD
  2
AcDbXrecord
  3
AutoCAD 2000
 90
        0
280
     0
281
     0
  0
CLASS
  1
LONG_TRANSACTION
  2
AcDbLongTransaction
  3
AutoCAD 2000
 90
        0
280
     0
281
     0
  0
CLASS
  1
LWPOLYLINE
  2
AcDbPolyline
  3
AutoCAD 2000
 90
        0
280
     0
281
     1
  0
CLASS
  1
HATCH
  2
AcDbHatch
  3
AutoCAD 2000
 90
        0
280
     0
281
     1
  0
CLASS
  1
XRECORD
  2
AcDbXrecord
  3
AutoCAD 2000
 90
        0
280
     0
281
     0
  0
ENDSEC
  0
SECTION
  2
TABLES
  0
TABLE
  2
VPORT
  5
8
330
0
100
AcDbSymbolTable
 70
     2
  0
VPORT
  5
1A68
330
8
100
AcDbSymbolTableRecord
100
AcDbViewportTableRecord
  2
*ACTIVE
 70
     0
 10
0.0
 20
0.0
 11
1.0
 21
1.0
 12
40.7941416
 22
14.65275389
 13
0.0
 23
0.0
 14
7.0
 24
7.0
 15
7.0
 25
7.0
 16
0.0
 26
0.0
 36
1.0
 17
0.0
 27
0.0
 37
0.0
 40
148.05439877
 41
1.45595855
 42
50.0
 43
0.0
 44
0.0
 50
0.0
 51
0.0
 71
     0
 72
  2000
 73
     1
 74
     0
 75
     0
 76
     0
 77
     0
 78
     0
  0
ENDTAB
  0
TABLE
  2
LTYPE
  5
5
330
0
100
AcDbSymbolTable
 70
     4
  0
LTYPE
  5
14
330
5
100
AcDbSymbolTableRecord
100
AcDbLinetypeTableRecord
  2
BYBLOCK
 70
     0
  3

 72
    65
 73
     0
 40
0.0
  0
LTYPE
  5
15
330
5
100
AcDbSymbolTableRecord
100
AcDbLinetypeTableRecord
  2
BYLAYER
 70
     0
  3

 72
    65
 73
     0
 40
0.0
  0
LTYPE
  5
16
330
5
100
AcDbSymbolTableRecord
100
AcDbLinetypeTableRecord
  2
CONTINUOUS
 70
     0
  3
Solid line
 72
    65
 73
     0
 40
0.0
  0
LTYPE
  5
258
330
5
100
AcDbSymbolTableRecord
100
AcDbLinetypeTableRecord
  2
CENTER2
 70
     0
  3
___ _ ___ _ ___ _ ___ _ ___ _ ___ _ ___ _ ___ _
 72
    65
 73
     4
 40
1.125
 49
0.75
 74
     0
 49
-0.125
 74
     0
 49
0.125
 74
     0
 49
-0.125
 74
     0
  0
LTYPE
  5
25C
330
5
100
AcDbSymbolTableRecord
100
AcDbLinetypeTableRecord
  2
HIDDEN2
 70
     0
  3
_ _ _ _ _ _ _ _ _ _ _ _ _ _ _ _ _ _ _ _ _ _ _ _
 72
    65
 73
     2
 40
0.1875
 49
0.125
 74
     0
 49
-0.0625
 74
     0
  0
LTYPE
  5
25D
330
5
100
AcDbSymbolTableRecord
100
AcDbLinetypeTableRecord
  2
PHANTOM2
 70
     0
  3
___ _ _ ___ _ _ ___ _ _ ___ _ _ ___ _ _ ___ _ _
 72
    65
 73
     6
 40
1.25
 49
0.625
 74
     0
 49
-0.125
 74
     0
 49
0.125
 74
     0
 49
-0.125
 74
     0
 49
0.125
 74
     0
 49
-0.125
 74
     0
  0
ENDTAB
  0
TABLE
  2
LAYER
  5
2
330
0
100
AcDbSymbolTable
 70
    11
  0
LAYER
  5
F
330
2
100
AcDbSymbolTableRecord
100
AcDbLayerTableRecord
  2
0
 70
     0
 62
     7
  6
CONTINUOUS
  0
LAYER
  5
1AA
330
2
100
AcDbSymbolTableRecord
100
AcDbLayerTableRecord
  2
240
 70
     0
 62
     4
  6
CONTINUOUS
  0
LAYER
  5
1AB
330
2
100
AcDbSymbolTableRecord
100
AcDbLayerTableRecord
  2
241
 70
     0
 62
   211
  6
CONTINUOUS
  0
LAYER
  5
1AF
330
2
100
AcDbSymbolTableRecord
100
AcDbLayerTableRecord
  2
245
 70
     0
 62
     2
  6
CENTER2
  0
LAYER
  5
21A
330
2
100
AcDbSymbolTableRecord
100
AcDbLayerTableRecord
  2
246
 70
     0
 62
     3
  6
PHANTOM2
  0
LAYER
  5
21E
330
2
100
AcDbSymbolTableRecord
100
AcDbLayerTableRecord
  2
250
 70
     0
 62
     3
  6
CONTINUOUS
  0
LAYER
  5
5C4
330
2
100
AcDbSymbolTableRecord
100
AcDbLayerTableRecord
  2
DEFPOINTS
 70
     0
 62
     7
  6
CONTINUOUS
  0
ENDTAB
  0
TABLE
  2
STYLE
  5
3
330
0
100
AcDbSymbolTable
 70
     2
  0
STYLE
  5
10
330
3
100
AcDbSymbolTableRecord
100
AcDbTextStyleTableRecord
  2
STANDARD
 70
     0
 40
0.0
 41
1.0
 50
0.0
 71
     0
 42
3.0
  3
romans.shx
  4
BIGFONT.SHX
  0
STYLE
  5
339
330
3
100
AcDbSymbolTableRecord
100
AcDbTextStyleTableRecord
  2
YOKO
 70
     0
 40
0.0
 41
1.0
 50
0.0
 71
     0
 42
3.0
  3
romans.shx
  4
extfont.shx
  0
ENDTAB
  0
TABLE
  2
VIEW
  5
6
330
0
100
AcDbSymbolTable
 70
     1
  0
VIEW
  5
15DA
330
6
100
AcDbSymbolTableRecord
100
AcDbViewTableRecord
  2
OLE1
 70
     0
 40
150.54755989
 10
40.7941416
 20
14.65275389
 41
215.56109213
 11
0.0
 21
0.0
 31
1.0
 12
0.0
 22
0.0
 32
0.0
 42
50.0
 43
0.0
 44
0.0
 50
0.0
 71
     0
  0
ENDTAB
  0
TABLE
  2
UCS
  5
7
330
0
100
AcDbSymbolTable
 70
     0
  0
ENDTAB
  0
TABLE
  2
APPID
  5
9
330
0
100
AcDbSymbolTable
 70
    12
  0
APPID
  5
11
330
9
100
AcDbSymbolTableRecord
100
AcDbRegAppTableRecord
  2
ACAD
 70
     0
  0
APPID
  5
1B1
330
9
100
AcDbSymbolTableRecord
100
AcDbRegAppTableRecord
  2
GLOBAL
 70
     0
  0
APPID
  5
2A4
330
9
100
AcDbSymbolTableRecord
100
AcDbRegAppTableRecord
  2
DETAIL
 70
     0
  0
APPID
  5
5FD
330
9
100
AcDbSymbolTableRecord
100
AcDbRegAppTableRecord
  2
GRPNAME
 70
     0
  0
APPID
  5
5FE
330
9
100
AcDbSymbolTableRecord
100
AcDbRegAppTableRecord
  2
GPARA
 70
     0
  0
APPID
  5
6C4
330
9
100
AcDbSymbolTableRecord
100
AcDbRegAppTableRecord
  2
DCO15
 70
     0
  0
APPID
  5
6C5
330
9
100
AcDbSymbolTableRecord
100
AcDbRegAppTableRecord
  2
ITEMNAME
 70
     0
  0
APPID
  5
6C6
330
9
100
AcDbSymbolTableRecord
100
AcDbRegAppTableRecord
  2
GRADE_0
 70
     0
  0
APPID
  5
A62
330
9
100
AcDbSymbolTableRecord
100
AcDbRegAppTableRecord
  2
HATCH_TYPE
 70
     0
  0
APPID
  5
A63
330
9
100
AcDbSymbolTableRecord
100
AcDbRegAppTableRecord
  2
HATCH_DISPLAY
 70
     0
  0
APPID
  5
A64
330
9
100
AcDbSymbolTableRecord
100
AcDbRegAppTableRecord
  2
HATCH_DISTANCE
 70
     0
  0
APPID
  5
10C9
330
9
100
AcDbSymbolTableRecord
100
AcDbRegAppTableRecord
  2
CONTENTBLOCKICON
 70
     0
  0
ENDTAB
  0
TABLE
  2
DIMSTYLE
  5
A
330
0
100
AcDbSymbolTable
 70
     4
  0
DIMSTYLE
105
725
102
{ACAD_REACTORS
330
D81
330
D90
330
D9F
330
DAE
102
}
330
A
100
AcDbSymbolTableRecord
100
AcDbDimStyleTableRecord
  2
BIGT
 70
     0
  3

  4

  5

  6
OPEN
  7
OPEN
 40
1.0
 41
2.23
 42
0.5
 43
2.5
 44
1.0
 45
0.0
 46
0.0
 47
0.0
 48
0.0
140
2.8
141
0.0
142
0.0
143
25.4
144
1.0
145
0.0
146
1.0
147
1.0
 71
     0
 72
     0
 73
     0
 74
     0
 75
     0
 76
     0
 77
     3
 78
     8
170
     0
171
     2
172
     1
173
     1
174
     1
175
     0
176
   256
177
   256
178
    40
270
     2
271
     3
272
     3
273
     2
274
     2
340
10
275
     0
280
     0
281
     0
282
     0
283
     1
284
     8
285
     0
286
     0
287
     3
288
     0
  0
ENDTAB
  0
TABLE
  2
BLOCK_RECORD
  5
1
330
0
100
AcDbSymbolTable
 70
     8
  0
BLOCK_RECORD
  5
1A
102
{ACAD_XDICTIONARY
360
10C7
102
}
330
1
100
AcDbSymbolTableRecord
100
AcDbBlockTableRecord
  2
*MODEL_SPACE
  0
BLOCK_RECORD
  5
17
102
{ACAD_XDICTIONARY
360
10C5
102
}
330
1
100
AcDbSymbolTableRecord
100
AcDbBlockTableRecord
  2
*PAPER_SPACE
  0
BLOCK_RECORD
  5
594
330
1
100
AcDbSymbolTableRecord
100
AcDbBlockTableRecord
  2
_OPEN
  0
BLOCK_RECORD
  5
6E3
330
1
100
AcDbSymbolTableRecord
100
AcDbBlockTableRecord
  2
矢印なし
  0
BLOCK_RECORD
  5
D82
330
1
100
AcDbSymbolTableRecord
100
AcDbBlockTableRecord
  2
*D2
  0
BLOCK_RECORD
  5
D91
330
1
100
AcDbSymbolTableRecord
100
AcDbBlockTableRecord
  2
*D3
  0
BLOCK_RECORD
  5
DA0
330
1
100
AcDbSymbolTableRecord
100
AcDbBlockTableRecord
  2
*D4
  0
BLOCK_RECORD
  5
DAF
330
1
100
AcDbSymbolTableRecord
100
AcDbBlockTableRecord
  2
*D5
  0
BLOCK_RECORD
  5
E0F
330
1
100
AcDbSymbolTableRecord
100
AcDbBlockTableRecord
  2
1
1001
CONTENTBLOCKICON
1071
        0
1004
2800000020000000200000000100080000000000000400000000000000000000000000000000000000000000000080000080000000808000800000008000800080800000C0C0C000C0DCC000F0CAA6000020400000206000002080000020A0000020C0000020E00000400000004020000040400000406000004080000040A0
1004
000040C0000040E00000600000006020000060400000606000006080000060A0000060C0000060E00000800000008020000080400000806000008080000080A0000080C0000080E00000A0000000A0200000A0400000A0600000A0800000A0A00000A0C00000A0E00000C0000000C0200000C0400000C0600000C0800000C0
1004
A00000C0C00000C0E00000E0000000E0200000E0400000E0600000E0800000E0A00000E0C00000E0E00040000000400020004000400040006000400080004000A0004000C0004000E00040200000402020004020400040206000402080004020A0004020C0004020E000404000004040200040404000404060004040800040
1004
40A0004040C0004040E00040600000406020004060400040606000406080004060A0004060C0004060E00040800000408020004080400040806000408080004080A0004080C0004080E00040A0000040A0200040A0400040A0600040A0800040A0A00040A0C00040A0E00040C0000040C0200040C0400040C0600040C08000
1004
40C0A00040C0C00040C0E00040E0000040E0200040E0400040E0600040E0800040E0A00040E0C00040E0E00080000000800020008000400080006000800080008000A0008000C0008000E00080200000802020008020400080206000802080008020A0008020C0008020E00080400000804020008040400080406000804080
1004
008040A0008040C0008040E00080600000806020008060400080606000806080008060A0008060C0008060E00080800000808020008080400080806000808080008080A0008080C0008080E00080A0000080A0200080A0400080A0600080A0800080A0A00080A0C00080A0E00080C0000080C0200080C0400080C0600080C0
1004
800080C0A00080C0C00080C0E00080E0000080E0200080E0400080E0600080E0800080E0A00080E0C00080E0E000C0000000C0002000C0004000C0006000C0008000C000A000C000C000C000E000C0200000C0202000C0204000C0206000C0208000C020A000C020C000C020E000C0400000C0402000C0404000C0406000C0
1004
408000C040A000C040C000C040E000C0600000C0602000C0604000C0606000C0608000C060A000C060C000C060E000C0800000C0802000C0804000C0806000C0808000C080A000C080C000C080E000C0A00000C0A02000C0A04000C0A06000C0A08000C0A0A000C0A0C000C0A0E000C0C00000C0C02000C0C04000C0C06000
1004
C0C08000C0C0A000F0FBFF00A4A0A000808080000000FF0000FF000000FFFF00FF000000FF00FF00FFFF0000FFFFFF0000000000000000000000000000000000000000000000000000000000000000000000000000000000000000000000000000000000000000000000000000000000000000000000000000000000000000
1004
00000000000000000000000000000000000000000000000000000000000000000000000000000000000000000000000000000000000000000000000000000000000000000000000000000000000000000000000000000000000000000000000000000000000000000000000000000000000000000000000000000000000000
1004
00000000000000000000000000000000000000000000000000000000000000000000000000000000000000000000000000000000000000000000000000000000000000000000000000000000000000000000000000000000000000000000000000000000000000000000000000000000000000000000000000000000000000
1004
000000000000000000000000000000000000000000000000000000000000FEFEFBFE0000000000000000000000000000000000000000000000000000FEFEFEE7FEE7FEE70000000000000000000000000000000000000000FEFEFEFE0000E7E7E7E7E7E7FEE7FEFEFEFEFEFEFEFEFEFEFA00000000FEFEFE000000000000E7
1004
E7E7E7E7E700E7000000000000000000E7FE00000000FE0000000000000000E7E7E7E7E7E700E700000000000000E7E700FE000000FBFEFBFBFBFBFBFBFBFBE7E7E7E7E7E7FBE7FBFBFBFBFBFBFBE7E7E7FEFB000000FEFEFE000000000000E7E7E7E7E7E700E7000000000000000000E7E700000000000000FEFEFEFE0000
1004
E7E7E7E7E7E7FEFEFEFEFEFEFEFEFEFEFEFEFA0000000000000000000000FEFEFEE7FEE7FEFE0000000000000000000000000000000000000000000000000000FEFEFBFE0000000000000000000000000000000000000000000000000000000000000000000000000000000000000000000000000000000000000000000000
1004
00000000000000000000000000000000000000000000000000000000000000000000000000000000000000000000000000000000000000000000000000000000000000000000000000000000000000000000000000000000000000000000000000000000000000000000000000000000000000000000000000000000000000
1004
00000000000000000000000000000000000000000000000000000000000000000000000000000000000000000000000000000000000000000000000000000000000000000000000000000000000000000000000000000000000000000000000000000000000000000000000000000000000000000000000000000000000000
1004
0000000000000000000000000000000000000000000000000000000000000000000000000000000000000000000000000000000000000000
  0
ENDTAB
  0
ENDSEC
  0
SECTION
  2
BLOCKS
  0
BLOCK
  5
1B
330
1A
100
AcDbEntity
  8
0
100
AcDbBlockBegin
  2
*MODEL_SPACE
 70
     0
 10
0.0
 20
0.0
 30
0.0
  3
*MODEL_SPACE
  1

  0
ENDBLK
  5
1C
330
1A
100
AcDbEntity
  8
0
100
AcDbBlockEnd
  0
BLOCK
  5
18
330
17
100
AcDbEntity
 67
     1
  8
0
100
AcDbBlockBegin
  2
*PAPER_SPACE
 70
     0
 10
0.0
 20
0.0
 30
0.0
  3
*PAPER_SPACE
  1

  0
ENDBLK
  5
19
330
17
100
AcDbEntity
 67
     1
  8
0
100
AcDbBlockEnd
  0
BLOCK
  5
598
330
594
100
AcDbEntity
  8
0
100
AcDbBlockBegin
  2
_OPEN
 70
     0
 10
0.0
 20
0.0
 30
0.0
  3
_OPEN
  1

  0
LINE
  5
595
330
594
100
AcDbEntity
  8
0
  6
BYBLOCK
 62
     0
100
AcDbLine
 10
-1.0
 20
0.16666667
 30
0.0
 11
0.0
 21
0.0
 31
0.0
  0
LINE
  5
596
330
594
100
AcDbEntity
  8
0
  6
BYBLOCK
 62
     0
100
AcDbLine
 10
-1.0
 20
-0.16666667
 30
0.0
 11
0.0
 21
0.0
 31
0.0
  0
LINE
  5
597
330
594
100
AcDbEntity
  8
0
  6
BYBLOCK
 62
     0
100
AcDbLine
 10
0.0
 20
0.0
 30
0.0
 11
-1.0
 21
0.0
 31
0.0
  0
ENDBLK
  5
599
330
594
100
AcDbEntity
  8
0
100
AcDbBlockEnd
  0
BLOCK
  5
6E4
330
6E3
100
AcDbEntity
  8
0
100
AcDbBlockBegin
  2
矢印なし
 70
     0
 10
0.0
 20
0.0
 30
0.0
  3
矢印なし
  1

  0
ENDBLK
  5
6E5
330
6E3
100
AcDbEntity
  8
0
100
AcDbBlockEnd
  0
BLOCK
  5
D8C
330
D82
100
AcDbEntity
  8
0
100
AcDbBlockBegin
  2
*D2
 70
     1
 10
0.0
 20
0.0
 30
0.0
  3
*D2
  1

  0
LINE
  5
E06
330
D82
100
AcDbEntity
  8
250
  6
CONTINUOUS
100
AcDbLine
 10
135.5
 20
-16.0
 30
0.0
 11
148.0
 21
-16.0
 31
0.0
  0
LINE
  5
E07
330
D82
100
AcDbEntity
  8
250
  6
CONTINUOUS
100
AcDbLine
 10
135.5
 20
16.0
 30
0.0
 11
148.0
 21
16.0
 31
0.0
  0
LINE
  5
E08
330
D82
100
AcDbEntity
  8
250
  6
CONTINUOUS
100
AcDbLine
 10
147.0
 20
-13.77
 30
0.0
 11
147.0
 21
13.77
 31
0.0
  0
INSERT
  5
E09
330
D82
100
AcDbEntity
  8
250
  6
CONTINUOUS
100
AcDbBlockReference
  2
_OPEN
 10
147.0
 20
-16.0
 30
0.0
 41
2.23
 42
2.23
 43
2.23
 50
270.0
  0
INSERT
  5
E0A
330
D82
100
AcDbEntity
  8
250
  6
CONTINUOUS
100
AcDbBlockReference
  2
_OPEN
 10
147.0
 20
16.0
 30
0.0
 41
2.23
 42
2.23
 43
2.23
 50
90.0
  0
MTEXT
  5
E0B
330
D82
100
AcDbEntity
  8
250
  6
CONTINUOUS
 62
    40
100
AcDbMText
 10
144.6
 20
0.0
 30
0.0
 40
2.8
 41
0.0
 71
     5
 72
     1
  1
\A1;{\H2.8;\U+2205}32
 11
0.0
 21
1.0
 31
0.0
1001
ACAD
1000
MTEXTBEGIN
1070
    73
1070
     1
1070
    44
1040
1.0
1070
    74
1070
     0
1000
MTEXTEND
1000
MTEXTBEGIN
1070
    73
1070
     1
1070
    44
1040
1.0
1070
    74
1070
     0
1000
MTEXTEND
1000
MTEXTBEGIN
1070
    73
1070
     1
1070
    44
1040
1.0
1070
    74
1070
     0
1000
MTEXTEND
  0
POINT
  5
E0C
330
D82
100
AcDbEntity
  8
DEFPOINTS
  6
CONTINUOUS
 62
     0
100
AcDbPoint
 10
135.0
 20
-16.0
 30
0.0
  0
POINT
  5
E0D
330
D82
100
AcDbEntity
  8
DEFPOINTS
  6
CONTINUOUS
 62
     0
100
AcDbPoint
 10
135.0
 20
16.0
 30
0.0
  0
POINT
  5
E0E
330
D82
100
AcDbEntity
  8
DEFPOINTS
  6
CONTINUOUS
 62
     0
100
AcDbPoint
 10
147.0
 20
16.0
 30
0.0
  0
ENDBLK
  5
D8D
330
D82
100
AcDbEntity
  8
0
100
AcDbBlockEnd
  0
BLOCK
  5
D9B
330
D91
100
AcDbEntity
  8
0
100
AcDbBlockBegin
  2
*D3
 70
     1
 10
0.0
 20
0.0
 30
0.0
  3
*D3
  1

  0
LINE
  5
DFD
330
D91
100
AcDbEntity
  8
250
  6
CONTINUOUS
100
AcDbLine
 10
125.0
 20
16.5
 30
0.0
 11
125.0
 21
29.0
 31
0.0
  0
LINE
  5
DFE
330
D91
100
AcDbEntity
  8
250
  6
CONTINUOUS
100
AcDbLine
 10
135.0
 20
16.5
 30
0.0
 11
135.0
 21
29.0
 31
0.0
  0
LINE
  5
DFF
330
D91
100
AcDbEntity
  8
250
  6
CONTINUOUS
100
AcDbLine
 10
127.23
 20
28.0
 30
0.0
 11
132.77
 21
28.0
 31
0.0
  0
INSERT
  5
E00
330
D91
100
AcDbEntity
  8
250
  6
CONTINUOUS
100
AcDbBlockReference
  2
_OPEN
 10
125.0
 20
28.0
 30
0.0
 41
2.23
 42
2.23
 43
2.23
 50
180.0
  0
INSERT
  5
E01
330
D91
100
AcDbEntity
  8
250
  6
CONTINUOUS
100
AcDbBlockReference
  2
_OPEN
 10
135.0
 20
28.0
 30
0.0
 41
2.23
 42
2.23
 43
2.23
  0
MTEXT
  5
E02
330
D91
100
AcDbEntity
  8
250
  6
CONTINUOUS
 62
    40
100
AcDbMText
 10
130.0
 20
30.4
 30
0.0
 40
2.8
 41
0.0
 71
     5
 72
     1
  1
\A1;10
1001
ACAD
1000
MTEXTBEGIN
1070
    73
1070
     1
1070
    44
1040
1.0
1070
    74
1070
     0
1000
MTEXTEND
1000
MTEXTBEGIN
1070
    73
1070
     1
1070
    44
1040
1.0
1070
    74
1070
     0
1000
MTEXTEND
1000
MTEXTBEGIN
1070
    73
1070
     1
1070
    44
1040
1.0
1070
    74
1070
     0
1000
MTEXTEND
  0
POINT
  5
E03
330
D91
100
AcDbEntity
  8
DEFPOINTS
  6
CONTINUOUS
 62
     0
100
AcDbPoint
 10
125.0
 20
16.0
 30
0.0
  0
POINT
  5
E04
330
D91
100
AcDbEntity
  8
DEFPOINTS
  6
CONTINUOUS
 62
     0
100
AcDbPoint
 10
135.0
 20
16.0
 30
0.0
  0
POINT
  5
E05
330
D91
100
AcDbEntity
  8
DEFPOINTS
  6
CONTINUOUS
 62
     0
100
AcDbPoint
 10
135.0
 20
28.0
 30
0.0
  0
ENDBLK
  5
D9C
330
D91
100
AcDbEntity
  8
0
100
AcDbBlockEnd
  0
BLOCK
  5
DAA
330
DA0
100
AcDbEntity
  8
0
100
AcDbBlockBegin
  2
*D4
 70
     1
 10
0.0
 20
0.0
 30
0.0
  3
*D4
  1

  0
LINE
  5
1342
330
DA0
100
AcDbEntity
  8
250
  6
CONTINUOUS
100
AcDbLine
 10
55.0
 20
15.9570758
 30
0.0
 11
55.0
 21
36.0
 31
0.0
  0
LINE
  5
1343
330
DA0
100
AcDbEntity
  8
250
  6
CONTINUOUS
100
AcDbLine
 10
135.0
 20
16.5
 30
0.0
 11
135.0
 21
36.0
 31
0.0
  0
LINE
  5
1344
330
DA0
100
AcDbEntity
  8
250
  6
CONTINUOUS
100
AcDbLine
 10
57.23
 20
35.0
 30
0.0
 11
132.77
 21
35.0
 31
0.0
  0
INSERT
  5
1345
330
DA0
100
AcDbEntity
  8
250
  6
CONTINUOUS
100
AcDbBlockReference
  2
_OPEN
 10
55.0
 20
35.0
 30
0.0
 41
2.23
 42
2.23
 43
2.23
 50
180.0
  0
INSERT
  5
1346
330
DA0
100
AcDbEntity
  8
250
  6
CONTINUOUS
100
AcDbBlockReference
  2
_OPEN
 10
135.0
 20
35.0
 30
0.0
 41
2.23
 42
2.23
 43
2.23
  0
MTEXT
  5
1347
330
DA0
100
AcDbEntity
  8
250
  6
CONTINUOUS
 62
    40
100
AcDbMText
 10
95.0
 20
37.4
 30
0.0
 40
2.8
 41
0.0
 71
     5
 72
     1
  1
\A1;80
1001
ACAD
1000
MTEXTBEGIN
1070
    73
1070
     1
1070
    44
1040
1.0
1070
    74
1070
     0
1000
MTEXTEND
1000
MTEXTBEGIN
1070
    73
1070
     1
1070
    44
1040
1.0
1070
    74
1070
     0
1000
MTEXTEND
  0
POINT
  5
1348
330
DA0
100
AcDbEntity
  8
DEFPOINTS
  6
CONTINUOUS
 62
     0
100
AcDbPoint
 10
55.0
 20
15.4570758
 30
0.0
  0
POINT
  5
1349
330
DA0
100
AcDbEntity
  8
DEFPOINTS
  6
CONTINUOUS
 62
     0
100
AcDbPoint
 10
135.0
 20
16.0
 30
0.0
  0
POINT
  5
134A
330
DA0
100
AcDbEntity
  8
DEFPOINTS
  6
CONTINUOUS
 62
     0
100
AcDbPoint
 10
135.0
 20
35.0
 30
0.0
  0
ENDBLK
  5
DAB
330
DA0
100
AcDbEntity
  8
0
100
AcDbBlockEnd
  0
BLOCK
  5
DB9
330
DAF
100
AcDbEntity
  8
0
100
AcDbBlockBegin
  2
*D5
 70
     1
 10
0.0
 20
0.0
 30
0.0
  3
*D5
  1

  0
LINE
  5
DEB
330
DAF
100
AcDbEntity
  8
250
  6
CONTINUOUS
100
AcDbLine
 10
0.0
 20
22.725
 30
0.0
 11
0.0
 21
43.0
 31
0.0
  0
LINE
  5
DEC
330
DAF
100
AcDbEntity
  8
250
  6
CONTINUOUS
100
AcDbLine
 10
135.0
 20
16.5
 30
0.0
 11
135.0
 21
43.0
 31
0.0
  0
LINE
  5
DED
330
DAF
100
AcDbEntity
  8
250
  6
CONTINUOUS
100
AcDbLine
 10
2.23
 20
42.0
 30
0.0
 11
132.77
 21
42.0
 31
0.0
  0
INSERT
  5
DEE
330
DAF
100
AcDbEntity
  8
250
  6
CONTINUOUS
100
AcDbBlockReference
  2
_OPEN
 10
0.0
 20
42.0
 30
0.0
 41
2.23
 42
2.23
 43
2.23
 50
180.0
  0
INSERT
  5
DEF
330
DAF
100
AcDbEntity
  8
250
  6
CONTINUOUS
100
AcDbBlockReference
  2
_OPEN
 10
135.0
 20
42.0
 30
0.0
 41
2.23
 42
2.23
 43
2.23
  0
MTEXT
  5
DF0
330
DAF
100
AcDbEntity
  8
250
  6
CONTINUOUS
 62
    40
100
AcDbMText
 10
67.5
 20
44.4
 30
0.0
 40
2.8
 41
0.0
 71
     5
 72
     1
  1
\A1;135
1001
ACAD
1000
MTEXTBEGIN
1070
    73
1070
     1
1070
    44
1040
1.0
1070
    74
1070
     0
1000
MTEXTEND
1000
MTEXTBEGIN
1070
    73
1070
     1
1070
    44
1040
1.0
1070
    74
1070
     0
1000
MTEXTEND
1000
MTEXTBEGIN
1070
    73
1070
     1
1070
    44
1040
1.0
1070
    74
1070
     0
1000
MTEXTEND
  0
POINT
  5
DF1
330
DAF
100
AcDbEntity
  8
DEFPOINTS
  6
CONTINUOUS
 62
     0
100
AcDbPoint
 10
0.0
 20
22.225
 30
0.0
  0
POINT
  5
DF2
330
DAF
100
AcDbEntity
  8
DEFPOINTS
  6
CONTINUOUS
 62
     0
100
AcDbPoint
 10
135.0
 20
16.0
 30
0.0
  0
POINT
  5
DF3
330
DAF
100
AcDbEntity
  8
DEFPOINTS
  6
CONTINUOUS
 62
     0
100
AcDbPoint
 10
135.0
 20
42.0
 30
0.0
  0
ENDBLK
  5
DBA
330
DAF
100
AcDbEntity
  8
0
100
AcDbBlockEnd
  0
BLOCK
  5
E10
330
E0F
100
AcDbEntity
  8
0
100
AcDbBlockBegin
  2
1
 70
     0
 10
0.0
 20
0.0
 30
0.0
  3
1
  1

  0
LINE
  5
190F
330
E0F
100
AcDbEntity
  8
240
  6
CONTINUOUS
100
AcDbLine
 10
21.6
 20
31.5
 30
0.0
 11
26.0
 21
31.5
 31
0.0
  0
LINE
  5
1910
330
E0F
100
AcDbEntity
  8
240
  6
CONTINUOUS
100
AcDbLine
 10
21.6
 20
-31.5
 30
0.0
 11
26.0
 21
-31.5
 31
0.0
  0
LINE
  5
1911
330
E0F
100
AcDbEntity
  8
245
100
AcDbLine
 10
-66.4
 20
0.0
 30
0.0
 11
136.0
 21
0.0
 31
0.0
  0
LINE
  5
1912
330
E0F
100
AcDbEntity
  8
241
  6
HIDDEN2
100
AcDbLine
 10
23.0
 20
22.5
 30
0.0
 11
23.0
 21
31.5
 31
0.0
  0
LINE
  5
1913
330
E0F
100
AcDbEntity
  8
240
  6
CONTINUOUS
100
AcDbLine
 10
21.6
 20
31.5
 30
0.0
 11
18.71324865
 21
26.5
 31
0.0
  0
LINE
  5
1914
330
E0F
100
AcDbEntity
  8
240
  6
CONTINUOUS
100
AcDbLine
 10
1.0
 20
22.225
 30
0.0
 11
1.0
 21
30.5
 31
0.0
  0
LINE
  5
1915
330
E0F
100
AcDbEntity
  8
240
  6
CONTINUOUS
100
AcDbLine
 10
11.6
 20
31.5
 30
0.0
 11
14.48675135
 21
26.5
 31
0.0
  0
LINE
  5
1916
330
E0F
100
AcDbEntity
  8
241
  6
CONTINUOUS
100
AcDbLine
 10
11.6
 20
31.5
 30
0.0
 11
11.6
 21
0.0
 31
0.0
  0
LINE
  5
1917
330
E0F
100
AcDbEntity
  8
241
  6
CONTINUOUS
100
AcDbLine
 10
21.6
 20
0.0
 30
0.0
 11
21.6
 21
31.5
 31
0.0
  0
LINE
  5
1918
330
E0F
100
AcDbEntity
  8
245
  6
CENTER2
100
AcDbLine
 10
16.6
 20
-31.5
 30
0.0
 11
16.6
 21
31.5
 31
0.0
  0
LINE
  5
1919
330
E0F
100
AcDbEntity
  8
240
  6
CONTINUOUS
100
AcDbLine
 10
0.0
 20
-22.225
 30
0.0
 11
-64.03089103
 21
-12.88716173
 31
0.0
  0
LINE
  5
191A
330
E0F
100
AcDbEntity
  8
240
  6
CONTINUOUS
100
AcDbLine
 10
0.0
 20
22.225
 30
0.0
 11
-64.03089103
 21
12.88716173
 31
0.0
  0
LINE
  5
191B
330
E0F
100
AcDbEntity
  8
240
  6
CONTINUOUS
100
AcDbLine
 10
-65.4
 20
11.30390896
 30
0.0
 11
-65.4
 21
0.0
 31
0.0
  0
LINE
  5
191C
330
E0F
100
AcDbEntity
  8
240
  6
CONTINUOUS
100
AcDbLine
 10
-65.4
 20
-11.30390896
 30
0.0
 11
-65.4
 21
0.0
 31
0.0
  0
ARC
  5
191D
330
E0F
100
AcDbEntity
  8
240
  6
CONTINUOUS
100
AcDbCircle
 10
-63.8
 20
-11.30390896
 30
0.0
 40
1.6
100
AcDbArc
 50
180.0
 51
261.70285503
  0
ARC
  5
191E
330
E0F
100
AcDbEntity
  8
240
  6
CONTINUOUS
100
AcDbCircle
 10
-63.8
 20
11.30390896
 30
0.0
 40
1.6
100
AcDbArc
 50
98.29714497
 51
180.0
  0
LINE
  5
191F
330
E0F
100
AcDbEntity
  8
241
  6
CONTINUOUS
100
AcDbLine
 10
0.0
 20
-22.225
 30
0.0
 11
0.0
 21
0.0
 31
0.0
  0
LINE
  5
1920
330
E0F
100
AcDbEntity
  8
241
100
AcDbLine
 10
1.0
 20
0.0
 30
0.0
 11
1.0
 21
-22.225
 31
0.0
  0
LINE
  5
1921
330
E0F
100
AcDbEntity
  8
241
  6
CONTINUOUS
100
AcDbLine
 10
11.6
 20
-31.5
 30
0.0
 11
11.6
 21
0.0
 31
0.0
  0
LINE
  5
1922
330
E0F
100
AcDbEntity
  8
241
  6
CONTINUOUS
100
AcDbLine
 10
21.6
 20
0.0
 30
0.0
 11
21.6
 21
-31.5
 31
0.0
  0
LINE
  5
1923
330
E0F
100
AcDbEntity
  8
241
  6
CONTINUOUS
100
AcDbLine
 10
18.71324865
 20
-26.5
 30
0.0
 11
18.71324865
 21
0.0
 31
0.0
  0
LINE
  5
1924
330
E0F
100
AcDbEntity
  8
241
  6
CONTINUOUS
100
AcDbLine
 10
14.48675135
 20
-26.5
 30
0.0
 11
14.48675135
 21
0.0
 31
0.0
  0
LINE
  5
1925
330
E0F
100
AcDbEntity
  8
241
  6
HIDDEN2
100
AcDbLine
 10
23.0
 20
-22.5
 30
0.0
 11
1.0
 21
-22.5
 31
0.0
  0
LINE
  5
1926
330
E0F
100
AcDbEntity
  8
240
  6
CONTINUOUS
100
AcDbLine
 10
2.0
 20
-31.5
 30
0.0
 11
11.6
 21
-31.5
 31
0.0
  0
LINE
  5
1927
330
E0F
100
AcDbEntity
  8
240
  6
CONTINUOUS
100
AcDbLine
 10
1.0
 20
-22.225
 30
0.0
 11
1.0
 21
-30.5
 31
0.0
  0
ARC
  5
1928
330
E0F
100
AcDbEntity
  8
240
  6
CONTINUOUS
100
AcDbCircle
 10
2.0
 20
-30.5
 30
0.0
 40
1.0
100
AcDbArc
 50
180.0
 51
270.0
  0
LINE
  5
1929
330
E0F
100
AcDbEntity
  8
240
100
AcDbLine
 10
0.0
 20
-22.225
 30
0.0
 11
1.0
 21
-22.225
 31
0.0
  0
LINE
  5
192A
330
E0F
100
AcDbEntity
  8
240
  6
CONTINUOUS
100
AcDbLine
 10
18.71324865
 20
-26.5
 30
0.0
 11
14.48675135
 21
-26.5
 31
0.0
  0
LINE
  5
192B
330
E0F
100
AcDbEntity
  8
240
  6
CONTINUOUS
100
AcDbLine
 10
14.48675135
 20
-26.5
 30
0.0
 11
11.6
 21
-31.5
 31
0.0
  0
LINE
  5
192C
330
E0F
100
AcDbEntity
  8
240
  6
CONTINUOUS
100
AcDbLine
 10
18.71324865
 20
-26.5
 30
0.0
 11
21.6
 21
-31.5
 31
0.0
  0
LINE
  5
192D
330
E0F
100
AcDbEntity
  8
241
  6
HIDDEN2
100
AcDbLine
 10
23.0
 20
-22.5
 30
0.0
 11
23.0
 21
-31.5
 31
0.0
  0
LINE
  5
192E
330
E0F
100
AcDbEntity
  8
241
  6
CONTINUOUS
100
AcDbLine
 10
14.48675135
 20
26.5
 30
0.0
 11
14.48675135
 21
0.0
 31
0.0
  0
LINE
  5
192F
330
E0F
100
AcDbEntity
  8
241
  6
CONTINUOUS
100
AcDbLine
 10
18.71324865
 20
26.5
 30
0.0
 11
18.71324865
 21
0.0
 31
0.0
  0
LINE
  5
1930
330
E0F
100
AcDbEntity
  8
241
  6
CONTINUOUS
100
AcDbLine
 10
0.0
 20
22.225
 30
0.0
 11
0.0
 21
0.0
 31
0.0
  0
LINE
  5
1931
330
E0F
100
AcDbEntity
  8
241
100
AcDbLine
 10
1.0
 20
0.0
 30
0.0
 11
1.0
 21
22.225
 31
0.0
  0
LINE
  5
1932
330
E0F
100
AcDbEntity
  8
241
  6
HIDDEN2
100
AcDbLine
 10
23.0
 20
22.5
 30
0.0
 11
1.0
 21
22.5
 31
0.0
  0
LINE
  5
1933
330
E0F
100
AcDbEntity
  8
240
100
AcDbLine
 10
0.0
 20
22.225
 30
0.0
 11
1.0
 21
22.225
 31
0.0
  0
LINE
  5
1934
330
E0F
100
AcDbEntity
  8
240
  6
CONTINUOUS
100
AcDbLine
 10
18.71324865
 20
26.5
 30
0.0
 11
14.48675135
 21
26.5
 31
0.0
  0
LINE
  5
1935
330
E0F
100
AcDbEntity
  8
240
  6
CONTINUOUS
100
AcDbLine
 10
2.0
 20
31.5
 30
0.0
 11
11.6
 21
31.5
 31
0.0
  0
ARC
  5
1936
330
E0F
100
AcDbEntity
  8
240
  6
CONTINUOUS
100
AcDbCircle
 10
2.0
 20
30.5
 30
0.0
 40
1.0
100
AcDbArc
 50
90.0
 51
180.0
  0
LINE
  5
1937
330
E0F
100
AcDbEntity
  8
241
  6
CONTINUOUS
100
AcDbLine
 10
27.0
 20
0.0
 30
0.0
 11
27.0
 21
30.0
 31
0.0
  0
ARC
  5
1938
330
E0F
100
AcDbEntity
  8
240
  6
CONTINUOUS
100
AcDbCircle
 10
29.0
 20
30.0
 30
0.0
 40
2.0
100
AcDbArc
 50
180.0
 51
239.89210121
  0
LINE
  5
1939
330
E0F
100
AcDbEntity
  8
240
100
AcDbLine
 10
122.46698728
 20
-15.25
 30
0.0
 11
58.51875936
 21
-15.25
 31
0.0
  0
LINE
  5
193A
330
E0F
100
AcDbEntity
  8
240
100
AcDbLine
 10
122.46698728
 20
15.25
 30
0.0
 11
58.51875936
 21
15.25
 31
0.0
  0
LINE
  5
193B
330
E0F
100
AcDbEntity
  8
240
  6
CONTINUOUS
100
AcDbLine
 10
43.4698593
 20
-19.29753178
 30
0.0
 11
27.99673999
 21
-28.26983544
 31
0.0
  0
LINE
  5
193C
330
E0F
100
AcDbEntity
  8
241
  6
CONTINUOUS
100
AcDbLine
 10
36.11774536
 20
-23.56075741
 30
0.0
 11
36.11774536
 21
0.0
 31
0.0
1001
GRPNAME
1000
PASTMD01
  0
LINE
  5
193D
330
E0F
100
AcDbEntity
  8
241
  6
CONTINUOUS
100
AcDbLine
 10
35.07964663
 20
-24.16271342
 30
0.0
 11
35.07964663
 21
0.0
 31
0.0
1001
GRPNAME
1000
PASTMD01
  0
LINE
  5
193E
330
E0F
100
AcDbEntity
  8
241
  6
CONTINUOUS
100
AcDbLine
 10
32.11774536
 20
-25.88021311
 30
0.0
 11
32.11774536
 21
0.0
 31
0.0
1001
GRPNAME
1000
PASTMD01
  0
LINE
  5
193F
330
E0F
100
AcDbEntity
  8
241
  6
CONTINUOUS
100
AcDbLine
 10
31.07964663
 20
-26.48216911
 30
0.0
 11
31.07964663
 21
0.0
 31
0.0
1001
GRPNAME
1000
PASTMD01
  0
LINE
  5
1940
330
E0F
100
AcDbEntity
  8
241
  6
CONTINUOUS
100
AcDbLine
 10
27.0
 20
0.0
 30
0.0
 11
27.0
 21
-30.0
 31
0.0
  0
ARC
  5
1941
330
E0F
100
AcDbEntity
  8
240
  6
CONTINUOUS
100
AcDbCircle
 10
29.0
 20
-30.0
 30
0.0
 40
2.0
100
AcDbArc
 50
120.10789879
 51
180.0
  0
LINE
  5
1942
330
E0F
100
AcDbEntity
  8
240
  6
CONTINUOUS
100
AcDbLine
 10
27.0
 20
-30.5
 30
0.0
 11
27.0
 21
-30.0
 31
0.0
  0
ARC
  5
1943
330
E0F
100
AcDbEntity
  8
240
  6
CONTINUOUS
100
AcDbCircle
 10
26.0
 20
-30.5
 30
0.0
 40
1.0
100
AcDbArc
 50
270.0
 51
0.0
  0
LINE
  5
1944
330
E0F
100
AcDbEntity
  8
241
100
AcDbLine
 10
50.45
 20
15.25
 30
0.0
 11
50.45
 21
0.0
 31
0.0
  0
LINE
  5
1945
330
E0F
100
AcDbEntity
  8
241
  6
CONTINUOUS
100
AcDbLine
 10
31.07964663
 20
26.48216911
 30
0.0
 11
31.07964663
 21
0.0
 31
0.0
1001
GRPNAME
1000
PASTMD01
  0
LINE
  5
1946
330
E0F
100
AcDbEntity
  8
241
  6
CONTINUOUS
100
AcDbLine
 10
32.11774536
 20
25.88021311
 30
0.0
 11
32.11774536
 21
0.0
 31
0.0
1001
GRPNAME
1000
PASTMD01
  0
LINE
  5
1947
330
E0F
100
AcDbEntity
  8
241
  6
CONTINUOUS
100
AcDbLine
 10
35.07964663
 20
24.16271342
 30
0.0
 11
35.07964663
 21
0.0
 31
0.0
1001
GRPNAME
1000
PASTMD01
  0
LINE
  5
1948
330
E0F
100
AcDbEntity
  8
241
  6
CONTINUOUS
100
AcDbLine
 10
36.11774536
 20
23.56075741
 30
0.0
 11
36.11774536
 21
0.0
 31
0.0
1001
GRPNAME
1000
PASTMD01
  0
ARC
  5
1949
330
E0F
100
AcDbEntity
  8
240
  6
CONTINUOUS
100
AcDbCircle
 10
58.51875936
 20
-45.25
 30
0.0
 40
30.0
100
AcDbArc
 50
90.0
 51
120.10789879
  0
LINE
  5
194A
330
E0F
100
AcDbEntity
  8
241
100
AcDbLine
 10
50.45
 20
-15.25
 30
0.0
 11
50.45
 21
0.0
 31
0.0
  0
ARC
  5
194B
330
E0F
100
AcDbEntity
  8
240
  6
CONTINUOUS
100
AcDbCircle
 10
58.51875936
 20
45.25
 30
0.0
 40
30.0
100
AcDbArc
 50
239.89210121
 51
270.0
  0
LINE
  5
194C
330
E0F
100
AcDbEntity
  8
240
  6
CONTINUOUS
100
AcDbLine
 10
43.4698593
 20
19.29753178
 30
0.0
 11
27.99673999
 21
28.26983544
 31
0.0
  0
LINE
  5
194D
330
E0F
100
AcDbEntity
  8
240
100
AcDbLine
 10
133.95
 20
15.24880953
 30
0.0
 11
133.95
 21
1.50353782
 31
0.0
  0
LINE
  5
194E
330
E0F
100
AcDbEntity
  8
246
100
AcDbLine
 10
135.0
 20
16.0
 30
0.0
 11
135.0
 21
-16.0
 31
0.0
  0
LINE
  5
194F
330
E0F
100
AcDbEntity
  8
241
100
AcDbLine
 10
111.09160134
 20
-6.92344036
 30
0.0
 11
133.95
 21
-14.22639403
 31
0.0
  0
LINE
  5
1950
330
E0F
100
AcDbEntity
  8
241
100
AcDbLine
 10
121.65944668
 20
0.3428544
 30
0.0
 11
113.25013655
 21
1.82564266
 31
0.0
  0
ARC
  5
1951
330
E0F
100
AcDbEntity
  8
241
100
AcDbCircle
 10
112.46595005
 20
-2.62169996
 30
0.0
 40
4.51595005154467
100
AcDbArc
 50
79.9999824
 51
252.2819944
  0
LINE
  5
1952
330
E0F
100
AcDbEntity
  8
240
100
AcDbLine
 10
133.95
 20
-4.11783125
 30
0.0
 11
133.95
 21
-15.24880953
 31
0.0
  0
LINE
  5
1953
330
E0F
100
AcDbEntity
  8
240
100
AcDbLine
 10
133.95
 20
-15.24880953
 30
0.0
 11
123.40000002
 21
-15.5
 31
0.0
  0
LINE
  5
1954
330
E0F
100
AcDbEntity
  8
246
100
AcDbLine
 10
125.0
 20
-16.0
 30
0.0
 11
135.0
 21
-16.0
 31
0.0
  0
LINE
  5
1955
330
E0F
100
AcDbEntity
  8
240
100
AcDbLine
 10
122.46698728
 20
-15.25
 30
0.0
 11
123.40000002
 21
-15.5
 31
0.0
  0
LINE
  5
1956
330
E0F
100
AcDbEntity
  8
241
100
AcDbLine
 10
121.66551051
 20
0.35335726
 30
0.0
 11
133.95
 21
-4.11783125
 31
0.0
  0
LINE
  5
1957
330
E0F
100
AcDbEntity
  8
241
100
AcDbLine
 10
123.40325213
 20
3.36321402
 30
0.0
 11
133.9411388
 21
1.50510029
 31
0.0
  0
LINE
  5
1958
330
E0F
100
AcDbEntity
  8
241
100
AcDbLine
 10
123.40325213
 20
3.36321402
 30
0.0
 11
121.65944668
 21
0.3428544
 31
0.0
  0
LINE
  5
1959
330
E0F
100
AcDbEntity
  8
240
100
AcDbLine
 10
133.9411388
 20
1.50510028
 30
0.0
 11
135.0
 21
-4.5
 31
0.0
  0
LINE
  5
195A
330
E0F
100
AcDbEntity
  8
240
100
AcDbLine
 10
135.0
 20
-4.5
 30
0.0
 11
133.95
 21
-4.11783125
 31
0.0
  0
LINE
  5
195B
330
E0F
100
AcDbEntity
  8
240
100
AcDbLine
 10
133.95
 20
1.50353782
 30
0.0
 11
133.9411388
 21
1.50510029
 31
0.0
  0
LINE
  5
195C
330
E0F
100
AcDbEntity
  8
240
100
AcDbLine
 10
133.95
 20
15.24880953
 30
0.0
 11
123.40000002
 21
15.5
 31
0.0
  0
LINE
  5
195D
330
E0F
100
AcDbEntity
  8
246
100
AcDbLine
 10
125.0
 20
16.0
 30
0.0
 11
135.0
 21
16.0
 31
0.0
  0
POLYLINE
  5
195E
330
E0F
100
AcDbEntity
  8
241
100
AcDb3dPolyline
 66
     1
 10
0.0
 20
0.0
 30
0.0
 70
     8
  0
VERTEX
  5
195F
330
195E
100
AcDbEntity
  8
241
100
AcDbVertex
100
AcDb3dPolylineVertex
 10
127.473
 20
10.8354
 30
0.0
 70
    32
  0
VERTEX
  5
1960
330
195E
100
AcDbEntity
  8
241
100
AcDbVertex
100
AcDb3dPolylineVertex
 10
127.464
 20
10.7813
 30
0.0
 70
    32
  0
VERTEX
  5
1961
330
195E
100
AcDbEntity
  8
241
100
AcDbVertex
100
AcDb3dPolylineVertex
 10
127.456
 20
10.7271
 30
0.0
 70
    32
  0
VERTEX
  5
1962
330
195E
100
AcDbEntity
  8
241
100
AcDbVertex
100
AcDb3dPolylineVertex
 10
127.449
 20
10.6727
 30
0.0
 70
    32
  0
VERTEX
  5
1963
330
195E
100
AcDbEntity
  8
241
100
AcDbVertex
100
AcDb3dPolylineVertex
 10
127.443
 20
10.6183
 30
0.0
 70
    32
  0
VERTEX
  5
1964
330
195E
100
AcDbEntity
  8
241
100
AcDbVertex
100
AcDb3dPolylineVertex
 10
127.439
 20
10.5638
 30
0.0
 70
    32
  0
VERTEX
  5
1965
330
195E
100
AcDbEntity
  8
241
100
AcDbVertex
100
AcDb3dPolylineVertex
 10
127.435
 20
10.5093
 30
0.0
 70
    32
  0
VERTEX
  5
1966
330
195E
100
AcDbEntity
  8
241
100
AcDbVertex
100
AcDb3dPolylineVertex
 10
127.433
 20
10.4547
 30
0.0
 70
    32
  0
VERTEX
  5
1967
330
195E
100
AcDbEntity
  8
241
100
AcDbVertex
100
AcDb3dPolylineVertex
 10
127.432
 20
10.4002
 30
0.0
 70
    32
  0
VERTEX
  5
1968
330
195E
100
AcDbEntity
  8
241
100
AcDbVertex
100
AcDb3dPolylineVertex
 10
127.432
 20
10.3458
 30
0.0
 70
    32
  0
VERTEX
  5
1969
330
195E
100
AcDbEntity
  8
241
100
AcDbVertex
100
AcDb3dPolylineVertex
 10
127.433
 20
10.2915
 30
0.0
 70
    32
  0
VERTEX
  5
196A
330
195E
100
AcDbEntity
  8
241
100
AcDbVertex
100
AcDb3dPolylineVertex
 10
127.435
 20
10.2373
 30
0.0
 70
    32
  0
VERTEX
  5
196B
330
195E
100
AcDbEntity
  8
241
100
AcDbVertex
100
AcDb3dPolylineVertex
 10
127.439
 20
10.1833
 30
0.0
 70
    32
  0
VERTEX
  5
196C
330
195E
100
AcDbEntity
  8
241
100
AcDbVertex
100
AcDb3dPolylineVertex
 10
127.443
 20
10.1294
 30
0.0
 70
    32
  0
VERTEX
  5
196D
330
195E
100
AcDbEntity
  8
241
100
AcDbVertex
100
AcDb3dPolylineVertex
 10
127.448
 20
10.0758
 30
0.0
 70
    32
  0
VERTEX
  5
196E
330
195E
100
AcDbEntity
  8
241
100
AcDbVertex
100
AcDb3dPolylineVertex
 10
127.455
 20
10.0225
 30
0.0
 70
    32
  0
VERTEX
  5
196F
330
195E
100
AcDbEntity
  8
241
100
AcDbVertex
100
AcDb3dPolylineVertex
 10
127.463
 20
9.96948
 30
0.0
 70
    32
  0
VERTEX
  5
1970
330
195E
100
AcDbEntity
  8
241
100
AcDbVertex
100
AcDb3dPolylineVertex
 10
127.472
 20
9.91677
 30
0.0
 70
    32
  0
VERTEX
  5
1971
330
195E
100
AcDbEntity
  8
241
100
AcDbVertex
100
AcDb3dPolylineVertex
 10
127.482
 20
9.86442
 30
0.0
 70
    32
  0
VERTEX
  5
1972
330
195E
100
AcDbEntity
  8
241
100
AcDbVertex
100
AcDb3dPolylineVertex
 10
127.493
 20
9.81247
 30
0.0
 70
    32
  0
VERTEX
  5
1973
330
195E
100
AcDbEntity
  8
241
100
AcDbVertex
100
AcDb3dPolylineVertex
 10
127.505
 20
9.76094
 30
0.0
 70
    32
  0
VERTEX
  5
1974
330
195E
100
AcDbEntity
  8
241
100
AcDbVertex
100
AcDb3dPolylineVertex
 10
127.518
 20
9.70986
 30
0.0
 70
    32
  0
VERTEX
  5
1975
330
195E
100
AcDbEntity
  8
241
100
AcDbVertex
100
AcDb3dPolylineVertex
 10
127.532
 20
9.65926
 30
0.0
 70
    32
  0
VERTEX
  5
1976
330
195E
100
AcDbEntity
  8
241
100
AcDbVertex
100
AcDb3dPolylineVertex
 10
127.548
 20
9.60918
 30
0.0
 70
    32
  0
VERTEX
  5
1977
330
195E
100
AcDbEntity
  8
241
100
AcDbVertex
100
AcDb3dPolylineVertex
 10
127.564
 20
9.55965
 30
0.0
 70
    32
  0
VERTEX
  5
1978
330
195E
100
AcDbEntity
  8
241
100
AcDbVertex
100
AcDb3dPolylineVertex
 10
127.582
 20
9.51069
 30
0.0
 70
    32
  0
VERTEX
  5
1979
330
195E
100
AcDbEntity
  8
241
100
AcDbVertex
100
AcDb3dPolylineVertex
 10
127.6
 20
9.46233
 30
0.0
 70
    32
  0
VERTEX
  5
197A
330
195E
100
AcDbEntity
  8
241
100
AcDbVertex
100
AcDb3dPolylineVertex
 10
127.62
 20
9.41461
 30
0.0
 70
    32
  0
VERTEX
  5
197B
330
195E
100
AcDbEntity
  8
241
100
AcDbVertex
100
AcDb3dPolylineVertex
 10
127.64
 20
9.36755
 30
0.0
 70
    32
  0
VERTEX
  5
197C
330
195E
100
AcDbEntity
  8
241
100
AcDbVertex
100
AcDb3dPolylineVertex
 10
127.662
 20
9.32118
 30
0.0
 70
    32
  0
VERTEX
  5
197D
330
195E
100
AcDbEntity
  8
241
100
AcDbVertex
100
AcDb3dPolylineVertex
 10
127.684
 20
9.27553
 30
0.0
 70
    32
  0
VERTEX
  5
197E
330
195E
100
AcDbEntity
  8
241
100
AcDbVertex
100
AcDb3dPolylineVertex
 10
127.708
 20
9.23063
 30
0.0
 70
    32
  0
VERTEX
  5
197F
330
195E
100
AcDbEntity
  8
241
100
AcDbVertex
100
AcDb3dPolylineVertex
 10
127.732
 20
9.1865
 30
0.0
 70
    32
  0
VERTEX
  5
1980
330
195E
100
AcDbEntity
  8
241
100
AcDbVertex
100
AcDb3dPolylineVertex
 10
127.757
 20
9.14317
 30
0.0
 70
    32
  0
VERTEX
  5
1981
330
195E
100
AcDbEntity
  8
241
100
AcDbVertex
100
AcDb3dPolylineVertex
 10
127.784
 20
9.10066
 30
0.0
 70
    32
  0
VERTEX
  5
1982
330
195E
100
AcDbEntity
  8
241
100
AcDbVertex
100
AcDb3dPolylineVertex
 10
127.811
 20
9.05901
 30
0.0
 70
    32
  0
VERTEX
  5
1983
330
195E
100
AcDbEntity
  8
241
100
AcDbVertex
100
AcDb3dPolylineVertex
 10
127.839
 20
9.01823
 30
0.0
 70
    32
  0
VERTEX
  5
1984
330
195E
100
AcDbEntity
  8
241
100
AcDbVertex
100
AcDb3dPolylineVertex
 10
127.868
 20
8.97836
 30
0.0
 70
    32
  0
VERTEX
  5
1985
330
195E
100
AcDbEntity
  8
241
100
AcDbVertex
100
AcDb3dPolylineVertex
 10
127.898
 20
8.9394
 30
0.0
 70
    32
  0
VERTEX
  5
1986
330
195E
100
AcDbEntity
  8
241
100
AcDbVertex
100
AcDb3dPolylineVertex
 10
127.928
 20
8.9014
 30
0.0
 70
    32
  0
VERTEX
  5
1987
330
195E
100
AcDbEntity
  8
241
100
AcDbVertex
100
AcDb3dPolylineVertex
 10
127.96
 20
8.86437
 30
0.0
 70
    32
  0
VERTEX
  5
1988
330
195E
100
AcDbEntity
  8
241
100
AcDbVertex
100
AcDb3dPolylineVertex
 10
127.992
 20
8.82833
 30
0.0
 70
    32
  0
VERTEX
  5
1989
330
195E
100
AcDbEntity
  8
241
100
AcDbVertex
100
AcDb3dPolylineVertex
 10
128.025
 20
8.79331
 30
0.0
 70
    32
  0
VERTEX
  5
198A
330
195E
100
AcDbEntity
  8
241
100
AcDbVertex
100
AcDb3dPolylineVertex
 10
128.059
 20
8.75933
 30
0.0
 70
    32
  0
VERTEX
  5
198B
330
195E
100
AcDbEntity
  8
241
100
AcDbVertex
100
AcDb3dPolylineVertex
 10
128.094
 20
8.7264
 30
0.0
 70
    32
  0
VERTEX
  5
198C
330
195E
100
AcDbEntity
  8
241
100
AcDbVertex
100
AcDb3dPolylineVertex
 10
128.129
 20
8.69455
 30
0.0
 70
    32
  0
VERTEX
  5
198D
330
195E
100
AcDbEntity
  8
241
100
AcDbVertex
100
AcDb3dPolylineVertex
 10
128.165
 20
8.66379
 30
0.0
 70
    32
  0
VERTEX
  5
198E
330
195E
100
AcDbEntity
  8
241
100
AcDbVertex
100
AcDb3dPolylineVertex
 10
128.202
 20
8.63415
 30
0.0
 70
    32
  0
VERTEX
  5
198F
330
195E
100
AcDbEntity
  8
241
100
AcDbVertex
100
AcDb3dPolylineVertex
 10
128.239
 20
8.60564
 30
0.0
 70
    32
  0
VERTEX
  5
1990
330
195E
100
AcDbEntity
  8
241
100
AcDbVertex
100
AcDb3dPolylineVertex
 10
128.277
 20
8.57828
 30
0.0
 70
    32
  0
VERTEX
  5
1991
330
195E
100
AcDbEntity
  8
241
100
AcDbVertex
100
AcDb3dPolylineVertex
 10
128.316
 20
8.55209
 30
0.0
 70
    32
  0
VERTEX
  5
1992
330
195E
100
AcDbEntity
  8
241
100
AcDbVertex
100
AcDb3dPolylineVertex
 10
128.355
 20
8.52708
 30
0.0
 70
    32
  0
VERTEX
  5
1993
330
195E
100
AcDbEntity
  8
241
100
AcDbVertex
100
AcDb3dPolylineVertex
 10
128.395
 20
8.50326
 30
0.0
 70
    32
  0
VERTEX
  5
1994
330
195E
100
AcDbEntity
  8
241
100
AcDbVertex
100
AcDb3dPolylineVertex
 10
128.435
 20
8.48066
 30
0.0
 70
    32
  0
VERTEX
  5
1995
330
195E
100
AcDbEntity
  8
241
100
AcDbVertex
100
AcDb3dPolylineVertex
 10
128.476
 20
8.45928
 30
0.0
 70
    32
  0
VERTEX
  5
1996
330
195E
100
AcDbEntity
  8
241
100
AcDbVertex
100
AcDb3dPolylineVertex
 10
128.517
 20
8.43914
 30
0.0
 70
    32
  0
VERTEX
  5
1997
330
195E
100
AcDbEntity
  8
241
100
AcDbVertex
100
AcDb3dPolylineVertex
 10
128.559
 20
8.42025
 30
0.0
 70
    32
  0
VERTEX
  5
1998
330
195E
100
AcDbEntity
  8
241
100
AcDbVertex
100
AcDb3dPolylineVertex
 10
128.601
 20
8.40262
 30
0.0
 70
    32
  0
VERTEX
  5
1999
330
195E
100
AcDbEntity
  8
241
100
AcDbVertex
100
AcDb3dPolylineVertex
 10
128.644
 20
8.38627
 30
0.0
 70
    32
  0
VERTEX
  5
199A
330
195E
100
AcDbEntity
  8
241
100
AcDbVertex
100
AcDb3dPolylineVertex
 10
128.687
 20
8.37119
 30
0.0
 70
    32
  0
VERTEX
  5
199B
330
195E
100
AcDbEntity
  8
241
100
AcDbVertex
100
AcDb3dPolylineVertex
 10
128.73
 20
8.35741
 30
0.0
 70
    32
  0
VERTEX
  5
199C
330
195E
100
AcDbEntity
  8
241
100
AcDbVertex
100
AcDb3dPolylineVertex
 10
128.774
 20
8.34492
 30
0.0
 70
    32
  0
VERTEX
  5
199D
330
195E
100
AcDbEntity
  8
241
100
AcDbVertex
100
AcDb3dPolylineVertex
 10
128.818
 20
8.33374
 30
0.0
 70
    32
  0
VERTEX
  5
199E
330
195E
100
AcDbEntity
  8
241
100
AcDbVertex
100
AcDb3dPolylineVertex
 10
128.862
 20
8.32388
 30
0.0
 70
    32
  0
VERTEX
  5
199F
330
195E
100
AcDbEntity
  8
241
100
AcDbVertex
100
AcDb3dPolylineVertex
 10
128.907
 20
8.31533
 30
0.0
 70
    32
  0
VERTEX
  5
19A0
330
195E
100
AcDbEntity
  8
241
100
AcDbVertex
100
AcDb3dPolylineVertex
 10
128.952
 20
8.30811
 30
0.0
 70
    32
  0
VERTEX
  5
19A1
330
195E
100
AcDbEntity
  8
241
100
AcDbVertex
100
AcDb3dPolylineVertex
 10
128.997
 20
8.30222
 30
0.0
 70
    32
  0
VERTEX
  5
19A2
330
195E
100
AcDbEntity
  8
241
100
AcDbVertex
100
AcDb3dPolylineVertex
 10
129.042
 20
8.29766
 30
0.0
 70
    32
  0
VERTEX
  5
19A3
330
195E
100
AcDbEntity
  8
241
100
AcDbVertex
100
AcDb3dPolylineVertex
 10
129.087
 20
8.29443
 30
0.0
 70
    32
  0
VERTEX
  5
19A4
330
195E
100
AcDbEntity
  8
241
100
AcDbVertex
100
AcDb3dPolylineVertex
 10
129.133
 20
8.29254
 30
0.0
 70
    32
  0
VERTEX
  5
19A5
330
195E
100
AcDbEntity
  8
241
100
AcDbVertex
100
AcDb3dPolylineVertex
 10
129.178
 20
8.29199
 30
0.0
 70
    32
  0
VERTEX
  5
19A6
330
195E
100
AcDbEntity
  8
241
100
AcDbVertex
100
AcDb3dPolylineVertex
 10
129.224
 20
8.29278
 30
0.0
 70
    32
  0
VERTEX
  5
19A7
330
195E
100
AcDbEntity
  8
241
100
AcDbVertex
100
AcDb3dPolylineVertex
 10
129.27
 20
8.29491
 30
0.0
 70
    32
  0
VERTEX
  5
19A8
330
195E
100
AcDbEntity
  8
241
100
AcDbVertex
100
AcDb3dPolylineVertex
 10
129.315
 20
8.29837
 30
0.0
 70
    32
  0
VERTEX
  5
19A9
330
195E
100
AcDbEntity
  8
241
100
AcDbVertex
100
AcDb3dPolylineVertex
 10
129.361
 20
8.30317
 30
0.0
 70
    32
  0
VERTEX
  5
19AA
330
195E
100
AcDbEntity
  8
241
100
AcDbVertex
100
AcDb3dPolylineVertex
 10
129.407
 20
8.3093
 30
0.0
 70
    32
  0
VERTEX
  5
19AB
330
195E
100
AcDbEntity
  8
241
100
AcDbVertex
100
AcDb3dPolylineVertex
 10
129.452
 20
8.31676
 30
0.0
 70
    32
  0
VERTEX
  5
19AC
330
195E
100
AcDbEntity
  8
241
100
AcDbVertex
100
AcDb3dPolylineVertex
 10
129.498
 20
8.32554
 30
0.0
 70
    32
  0
VERTEX
  5
19AD
330
195E
100
AcDbEntity
  8
241
100
AcDbVertex
100
AcDb3dPolylineVertex
 10
129.543
 20
8.33564
 30
0.0
 70
    32
  0
VERTEX
  5
19AE
330
195E
100
AcDbEntity
  8
241
100
AcDbVertex
100
AcDb3dPolylineVertex
 10
129.588
 20
8.34705
 30
0.0
 70
    32
  0
VERTEX
  5
19AF
330
195E
100
AcDbEntity
  8
241
100
AcDbVertex
100
AcDb3dPolylineVertex
 10
129.634
 20
8.35977
 30
0.0
 70
    32
  0
VERTEX
  5
19B0
330
195E
100
AcDbEntity
  8
241
100
AcDbVertex
100
AcDb3dPolylineVertex
 10
129.678
 20
8.37378
 30
0.0
 70
    32
  0
VERTEX
  5
19B1
330
195E
100
AcDbEntity
  8
241
100
AcDbVertex
100
AcDb3dPolylineVertex
 10
129.723
 20
8.38909
 30
0.0
 70
    32
  0
VERTEX
  5
19B2
330
195E
100
AcDbEntity
  8
241
100
AcDbVertex
100
AcDb3dPolylineVertex
 10
129.767
 20
8.40567
 30
0.0
 70
    32
  0
VERTEX
  5
19B3
330
195E
100
AcDbEntity
  8
241
100
AcDbVertex
100
AcDb3dPolylineVertex
 10
129.811
 20
8.42353
 30
0.0
 70
    32
  0
VERTEX
  5
19B4
330
195E
100
AcDbEntity
  8
241
100
AcDbVertex
100
AcDb3dPolylineVertex
 10
129.855
 20
8.44264
 30
0.0
 70
    32
  0
VERTEX
  5
19B5
330
195E
100
AcDbEntity
  8
241
100
AcDbVertex
100
AcDb3dPolylineVertex
 10
129.899
 20
8.463
 30
0.0
 70
    32
  0
VERTEX
  5
19B6
330
195E
100
AcDbEntity
  8
241
100
AcDbVertex
100
AcDb3dPolylineVertex
 10
129.942
 20
8.4846
 30
0.0
 70
    32
  0
VERTEX
  5
19B7
330
195E
100
AcDbEntity
  8
241
100
AcDbVertex
100
AcDb3dPolylineVertex
 10
129.984
 20
8.50742
 30
0.0
 70
    32
  0
VERTEX
  5
19B8
330
195E
100
AcDbEntity
  8
241
100
AcDbVertex
100
AcDb3dPolylineVertex
 10
130.027
 20
8.53145
 30
0.0
 70
    32
  0
VERTEX
  5
19B9
330
195E
100
AcDbEntity
  8
241
100
AcDbVertex
100
AcDb3dPolylineVertex
 10
130.068
 20
8.55667
 30
0.0
 70
    32
  0
VERTEX
  5
19BA
330
195E
100
AcDbEntity
  8
241
100
AcDbVertex
100
AcDb3dPolylineVertex
 10
130.11
 20
8.58307
 30
0.0
 70
    32
  0
VERTEX
  5
19BB
330
195E
100
AcDbEntity
  8
241
100
AcDbVertex
100
AcDb3dPolylineVertex
 10
130.151
 20
8.61064
 30
0.0
 70
    32
  0
VERTEX
  5
19BC
330
195E
100
AcDbEntity
  8
241
100
AcDbVertex
100
AcDb3dPolylineVertex
 10
130.191
 20
8.63935
 30
0.0
 70
    32
  0
VERTEX
  5
19BD
330
195E
100
AcDbEntity
  8
241
100
AcDbVertex
100
AcDb3dPolylineVertex
 10
130.231
 20
8.66919
 30
0.0
 70
    32
  0
VERTEX
  5
19BE
330
195E
100
AcDbEntity
  8
241
100
AcDbVertex
100
AcDb3dPolylineVertex
 10
130.27
 20
8.70014
 30
0.0
 70
    32
  0
VERTEX
  5
19BF
330
195E
100
AcDbEntity
  8
241
100
AcDbVertex
100
AcDb3dPolylineVertex
 10
130.309
 20
8.73218
 30
0.0
 70
    32
  0
VERTEX
  5
19C0
330
195E
100
AcDbEntity
  8
241
100
AcDbVertex
100
AcDb3dPolylineVertex
 10
130.347
 20
8.7653
 30
0.0
 70
    32
  0
VERTEX
  5
19C1
330
195E
100
AcDbEntity
  8
241
100
AcDbVertex
100
AcDb3dPolylineVertex
 10
130.384
 20
8.79947
 30
0.0
 70
    32
  0
VERTEX
  5
19C2
330
195E
100
AcDbEntity
  8
241
100
AcDbVertex
100
AcDb3dPolylineVertex
 10
130.421
 20
8.83468
 30
0.0
 70
    32
  0
VERTEX
  5
19C3
330
195E
100
AcDbEntity
  8
241
100
AcDbVertex
100
AcDb3dPolylineVertex
 10
130.457
 20
8.8709
 30
0.0
 70
    32
  0
VERTEX
  5
19C4
330
195E
100
AcDbEntity
  8
241
100
AcDbVertex
100
AcDb3dPolylineVertex
 10
130.492
 20
8.9081
 30
0.0
 70
    32
  0
VERTEX
  5
19C5
330
195E
100
AcDbEntity
  8
241
100
AcDbVertex
100
AcDb3dPolylineVertex
 10
130.527
 20
8.94627
 30
0.0
 70
    32
  0
VERTEX
  5
19C6
330
195E
100
AcDbEntity
  8
241
100
AcDbVertex
100
AcDb3dPolylineVertex
 10
130.561
 20
8.98539
 30
0.0
 70
    32
  0
VERTEX
  5
19C7
330
195E
100
AcDbEntity
  8
241
100
AcDbVertex
100
AcDb3dPolylineVertex
 10
130.594
 20
9.02543
 30
0.0
 70
    32
  0
VERTEX
  5
19C8
330
195E
100
AcDbEntity
  8
241
100
AcDbVertex
100
AcDb3dPolylineVertex
 10
130.626
 20
9.06637
 30
0.0
 70
    32
  0
VERTEX
  5
19C9
330
195E
100
AcDbEntity
  8
241
100
AcDbVertex
100
AcDb3dPolylineVertex
 10
130.658
 20
9.10817
 30
0.0
 70
    32
  0
VERTEX
  5
19CA
330
195E
100
AcDbEntity
  8
241
100
AcDbVertex
100
AcDb3dPolylineVertex
 10
130.689
 20
9.15083
 30
0.0
 70
    32
  0
VERTEX
  5
19CB
330
195E
100
AcDbEntity
  8
241
100
AcDbVertex
100
AcDb3dPolylineVertex
 10
130.718
 20
9.1943
 30
0.0
 70
    32
  0
VERTEX
  5
19CC
330
195E
100
AcDbEntity
  8
241
100
AcDbVertex
100
AcDb3dPolylineVertex
 10
130.748
 20
9.23857
 30
0.0
 70
    32
  0
VERTEX
  5
19CD
330
195E
100
AcDbEntity
  8
241
100
AcDbVertex
100
AcDb3dPolylineVertex
 10
130.776
 20
9.28361
 30
0.0
 70
    32
  0
VERTEX
  5
19CE
330
195E
100
AcDbEntity
  8
241
100
AcDbVertex
100
AcDb3dPolylineVertex
 10
130.803
 20
9.32939
 30
0.0
 70
    32
  0
VERTEX
  5
19CF
330
195E
100
AcDbEntity
  8
241
100
AcDbVertex
100
AcDb3dPolylineVertex
 10
130.829
 20
9.37589
 30
0.0
 70
    32
  0
VERTEX
  5
19D0
330
195E
100
AcDbEntity
  8
241
100
AcDbVertex
100
AcDb3dPolylineVertex
 10
130.855
 20
9.42307
 30
0.0
 70
    32
  0
VERTEX
  5
19D1
330
195E
100
AcDbEntity
  8
241
100
AcDbVertex
100
AcDb3dPolylineVertex
 10
130.879
 20
9.4709
 30
0.0
 70
    32
  0
VERTEX
  5
19D2
330
195E
100
AcDbEntity
  8
241
100
AcDbVertex
100
AcDb3dPolylineVertex
 10
130.903
 20
9.51937
 30
0.0
 70
    32
  0
VERTEX
  5
19D3
330
195E
100
AcDbEntity
  8
241
100
AcDbVertex
100
AcDb3dPolylineVertex
 10
130.925
 20
9.56843
 30
0.0
 70
    32
  0
VERTEX
  5
19D4
330
195E
100
AcDbEntity
  8
241
100
AcDbVertex
100
AcDb3dPolylineVertex
 10
130.947
 20
9.61806
 30
0.0
 70
    32
  0
VERTEX
  5
19D5
330
195E
100
AcDbEntity
  8
241
100
AcDbVertex
100
AcDb3dPolylineVertex
 10
130.968
 20
9.66824
 30
0.0
 70
    32
  0
VERTEX
  5
19D6
330
195E
100
AcDbEntity
  8
241
100
AcDbVertex
100
AcDb3dPolylineVertex
 10
130.987
 20
9.71892
 30
0.0
 70
    32
  0
VERTEX
  5
19D7
330
195E
100
AcDbEntity
  8
241
100
AcDbVertex
100
AcDb3dPolylineVertex
 10
131.006
 20
9.77008
 30
0.0
 70
    32
  0
VERTEX
  5
19D8
330
195E
100
AcDbEntity
  8
241
100
AcDbVertex
100
AcDb3dPolylineVertex
 10
131.023
 20
9.82169
 30
0.0
 70
    32
  0
VERTEX
  5
19D9
330
195E
100
AcDbEntity
  8
241
100
AcDbVertex
100
AcDb3dPolylineVertex
 10
131.04
 20
9.87372
 30
0.0
 70
    32
  0
VERTEX
  5
19DA
330
195E
100
AcDbEntity
  8
241
100
AcDbVertex
100
AcDb3dPolylineVertex
 10
131.055
 20
9.92613
 30
0.0
 70
    32
  0
VERTEX
  5
19DB
330
195E
100
AcDbEntity
  8
241
100
AcDbVertex
100
AcDb3dPolylineVertex
 10
131.07
 20
9.9789
 30
0.0
 70
    32
  0
VERTEX
  5
19DC
330
195E
100
AcDbEntity
  8
241
100
AcDbVertex
100
AcDb3dPolylineVertex
 10
131.083
 20
10.032
 30
0.0
 70
    32
  0
VERTEX
  5
19DD
330
195E
100
AcDbEntity
  8
241
100
AcDbVertex
100
AcDb3dPolylineVertex
 10
131.095
 20
10.0854
 30
0.0
 70
    32
  0
VERTEX
  5
19DE
330
195E
100
AcDbEntity
  8
241
100
AcDbVertex
100
AcDb3dPolylineVertex
 10
131.106
 20
10.139
 30
0.0
 70
    32
  0
VERTEX
  5
19DF
330
195E
100
AcDbEntity
  8
241
100
AcDbVertex
100
AcDb3dPolylineVertex
 10
131.116
 20
10.1929
 30
0.0
 70
    32
  0
SEQEND
  5
19E0
330
195E
100
AcDbEntity
  8
241
  0
POLYLINE
  5
19E1
330
E0F
100
AcDbEntity
  8
241
100
AcDb3dPolyline
 66
     1
 10
0.0
 20
0.0
 30
0.0
 70
     8
  0
VERTEX
  5
19E2
330
19E1
100
AcDbEntity
  8
241
100
AcDbVertex
100
AcDb3dPolylineVertex
 10
131.116
 20
10.1929
 30
0.0
 70
    32
  0
VERTEX
  5
19E3
330
19E1
100
AcDbEntity
  8
241
100
AcDbVertex
100
AcDb3dPolylineVertex
 10
131.123
 20
10.2331
 30
0.0
 70
    32
  0
VERTEX
  5
19E4
330
19E1
100
AcDbEntity
  8
241
100
AcDbVertex
100
AcDb3dPolylineVertex
 10
131.128
 20
10.2736
 30
0.0
 70
    32
  0
VERTEX
  5
19E5
330
19E1
100
AcDbEntity
  8
241
100
AcDbVertex
100
AcDb3dPolylineVertex
 10
131.133
 20
10.3141
 30
0.0
 70
    32
  0
VERTEX
  5
19E6
330
19E1
100
AcDbEntity
  8
241
100
AcDbVertex
100
AcDb3dPolylineVertex
 10
131.136
 20
10.3548
 30
0.0
 70
    32
  0
VERTEX
  5
19E7
330
19E1
100
AcDbEntity
  8
241
100
AcDbVertex
100
AcDb3dPolylineVertex
 10
131.138
 20
10.3956
 30
0.0
 70
    32
  0
VERTEX
  5
19E8
330
19E1
100
AcDbEntity
  8
241
100
AcDbVertex
100
AcDb3dPolylineVertex
 10
131.139
 20
10.4365
 30
0.0
 70
    32
  0
VERTEX
  5
19E9
330
19E1
100
AcDbEntity
  8
241
100
AcDbVertex
100
AcDb3dPolylineVertex
 10
131.139
 20
10.4774
 30
0.0
 70
    32
  0
VERTEX
  5
19EA
330
19E1
100
AcDbEntity
  8
241
100
AcDbVertex
100
AcDb3dPolylineVertex
 10
131.138
 20
10.5183
 30
0.0
 70
    32
  0
VERTEX
  5
19EB
330
19E1
100
AcDbEntity
  8
241
100
AcDbVertex
100
AcDb3dPolylineVertex
 10
131.135
 20
10.5592
 30
0.0
 70
    32
  0
VERTEX
  5
19EC
330
19E1
100
AcDbEntity
  8
241
100
AcDbVertex
100
AcDb3dPolylineVertex
 10
131.132
 20
10.6001
 30
0.0
 70
    32
  0
VERTEX
  5
19ED
330
19E1
100
AcDbEntity
  8
241
100
AcDbVertex
100
AcDb3dPolylineVertex
 10
131.127
 20
10.641
 30
0.0
 70
    32
  0
VERTEX
  5
19EE
330
19E1
100
AcDbEntity
  8
241
100
AcDbVertex
100
AcDb3dPolylineVertex
 10
131.122
 20
10.6817
 30
0.0
 70
    32
  0
VERTEX
  5
19EF
330
19E1
100
AcDbEntity
  8
241
100
AcDbVertex
100
AcDb3dPolylineVertex
 10
131.115
 20
10.7224
 30
0.0
 70
    32
  0
VERTEX
  5
19F0
330
19E1
100
AcDbEntity
  8
241
100
AcDbVertex
100
AcDb3dPolylineVertex
 10
131.107
 20
10.7629
 30
0.0
 70
    32
  0
VERTEX
  5
19F1
330
19E1
100
AcDbEntity
  8
241
100
AcDbVertex
100
AcDb3dPolylineVertex
 10
131.098
 20
10.8033
 30
0.0
 70
    32
  0
VERTEX
  5
19F2
330
19E1
100
AcDbEntity
  8
241
100
AcDbVertex
100
AcDb3dPolylineVertex
 10
131.088
 20
10.8436
 30
0.0
 70
    32
  0
VERTEX
  5
19F3
330
19E1
100
AcDbEntity
  8
241
100
AcDbVertex
100
AcDb3dPolylineVertex
 10
131.077
 20
10.8836
 30
0.0
 70
    32
  0
VERTEX
  5
19F4
330
19E1
100
AcDbEntity
  8
241
100
AcDbVertex
100
AcDb3dPolylineVertex
 10
131.065
 20
10.9234
 30
0.0
 70
    32
  0
VERTEX
  5
19F5
330
19E1
100
AcDbEntity
  8
241
100
AcDbVertex
100
AcDb3dPolylineVertex
 10
131.052
 20
10.9629
 30
0.0
 70
    32
  0
VERTEX
  5
19F6
330
19E1
100
AcDbEntity
  8
241
100
AcDbVertex
100
AcDb3dPolylineVertex
 10
131.037
 20
11.0022
 30
0.0
 70
    32
  0
VERTEX
  5
19F7
330
19E1
100
AcDbEntity
  8
241
100
AcDbVertex
100
AcDb3dPolylineVertex
 10
131.022
 20
11.0412
 30
0.0
 70
    32
  0
VERTEX
  5
19F8
330
19E1
100
AcDbEntity
  8
241
100
AcDbVertex
100
AcDb3dPolylineVertex
 10
131.006
 20
11.0799
 30
0.0
 70
    32
  0
VERTEX
  5
19F9
330
19E1
100
AcDbEntity
  8
241
100
AcDbVertex
100
AcDb3dPolylineVertex
 10
130.988
 20
11.1182
 30
0.0
 70
    32
  0
VERTEX
  5
19FA
330
19E1
100
AcDbEntity
  8
241
100
AcDbVertex
100
AcDb3dPolylineVertex
 10
130.97
 20
11.1562
 30
0.0
 70
    32
  0
VERTEX
  5
19FB
330
19E1
100
AcDbEntity
  8
241
100
AcDbVertex
100
AcDb3dPolylineVertex
 10
130.95
 20
11.1937
 30
0.0
 70
    32
  0
VERTEX
  5
19FC
330
19E1
100
AcDbEntity
  8
241
100
AcDbVertex
100
AcDb3dPolylineVertex
 10
130.93
 20
11.2309
 30
0.0
 70
    32
  0
VERTEX
  5
19FD
330
19E1
100
AcDbEntity
  8
241
100
AcDbVertex
100
AcDb3dPolylineVertex
 10
130.908
 20
11.2676
 30
0.0
 70
    32
  0
VERTEX
  5
19FE
330
19E1
100
AcDbEntity
  8
241
100
AcDbVertex
100
AcDb3dPolylineVertex
 10
130.886
 20
11.3039
 30
0.0
 70
    32
  0
VERTEX
  5
19FF
330
19E1
100
AcDbEntity
  8
241
100
AcDbVertex
100
AcDb3dPolylineVertex
 10
130.863
 20
11.3397
 30
0.0
 70
    32
  0
VERTEX
  5
1A00
330
19E1
100
AcDbEntity
  8
241
100
AcDbVertex
100
AcDb3dPolylineVertex
 10
130.838
 20
11.375
 30
0.0
 70
    32
  0
VERTEX
  5
1A01
330
19E1
100
AcDbEntity
  8
241
100
AcDbVertex
100
AcDb3dPolylineVertex
 10
130.813
 20
11.4098
 30
0.0
 70
    32
  0
VERTEX
  5
1A02
330
19E1
100
AcDbEntity
  8
241
100
AcDbVertex
100
AcDb3dPolylineVertex
 10
130.787
 20
11.4441
 30
0.0
 70
    32
  0
VERTEX
  5
1A03
330
19E1
100
AcDbEntity
  8
241
100
AcDbVertex
100
AcDb3dPolylineVertex
 10
130.76
 20
11.4778
 30
0.0
 70
    32
  0
VERTEX
  5
1A04
330
19E1
100
AcDbEntity
  8
241
100
AcDbVertex
100
AcDb3dPolylineVertex
 10
130.732
 20
11.5109
 30
0.0
 70
    32
  0
VERTEX
  5
1A05
330
19E1
100
AcDbEntity
  8
241
100
AcDbVertex
100
AcDb3dPolylineVertex
 10
130.703
 20
11.5434
 30
0.0
 70
    32
  0
VERTEX
  5
1A06
330
19E1
100
AcDbEntity
  8
241
100
AcDbVertex
100
AcDb3dPolylineVertex
 10
130.673
 20
11.5753
 30
0.0
 70
    32
  0
VERTEX
  5
1A07
330
19E1
100
AcDbEntity
  8
241
100
AcDbVertex
100
AcDb3dPolylineVertex
 10
130.643
 20
11.6065
 30
0.0
 70
    32
  0
VERTEX
  5
1A08
330
19E1
100
AcDbEntity
  8
241
100
AcDbVertex
100
AcDb3dPolylineVertex
 10
130.612
 20
11.6371
 30
0.0
 70
    32
  0
VERTEX
  5
1A09
330
19E1
100
AcDbEntity
  8
241
100
AcDbVertex
100
AcDb3dPolylineVertex
 10
130.579
 20
11.6671
 30
0.0
 70
    32
  0
VERTEX
  5
1A0A
330
19E1
100
AcDbEntity
  8
241
100
AcDbVertex
100
AcDb3dPolylineVertex
 10
130.547
 20
11.6963
 30
0.0
 70
    32
  0
VERTEX
  5
1A0B
330
19E1
100
AcDbEntity
  8
241
100
AcDbVertex
100
AcDb3dPolylineVertex
 10
130.513
 20
11.7248
 30
0.0
 70
    32
  0
VERTEX
  5
1A0C
330
19E1
100
AcDbEntity
  8
241
100
AcDbVertex
100
AcDb3dPolylineVertex
 10
130.479
 20
11.7526
 30
0.0
 70
    32
  0
VERTEX
  5
1A0D
330
19E1
100
AcDbEntity
  8
241
100
AcDbVertex
100
AcDb3dPolylineVertex
 10
130.444
 20
11.7796
 30
0.0
 70
    32
  0
VERTEX
  5
1A0E
330
19E1
100
AcDbEntity
  8
241
100
AcDbVertex
100
AcDb3dPolylineVertex
 10
130.408
 20
11.8059
 30
0.0
 70
    32
  0
VERTEX
  5
1A0F
330
19E1
100
AcDbEntity
  8
241
100
AcDbVertex
100
AcDb3dPolylineVertex
 10
130.371
 20
11.8314
 30
0.0
 70
    32
  0
VERTEX
  5
1A10
330
19E1
100
AcDbEntity
  8
241
100
AcDbVertex
100
AcDb3dPolylineVertex
 10
130.334
 20
11.8561
 30
0.0
 70
    32
  0
VERTEX
  5
1A11
330
19E1
100
AcDbEntity
  8
241
100
AcDbVertex
100
AcDb3dPolylineVertex
 10
130.297
 20
11.88
 30
0.0
 70
    32
  0
VERTEX
  5
1A12
330
19E1
100
AcDbEntity
  8
241
100
AcDbVertex
100
AcDb3dPolylineVertex
 10
130.258
 20
11.903
 30
0.0
 70
    32
  0
VERTEX
  5
1A13
330
19E1
100
AcDbEntity
  8
241
100
AcDbVertex
100
AcDb3dPolylineVertex
 10
130.219
 20
11.9253
 30
0.0
 70
    32
  0
VERTEX
  5
1A14
330
19E1
100
AcDbEntity
  8
241
100
AcDbVertex
100
AcDb3dPolylineVertex
 10
130.18
 20
11.9467
 30
0.0
 70
    32
  0
VERTEX
  5
1A15
330
19E1
100
AcDbEntity
  8
241
100
AcDbVertex
100
AcDb3dPolylineVertex
 10
130.14
 20
11.9672
 30
0.0
 70
    32
  0
VERTEX
  5
1A16
330
19E1
100
AcDbEntity
  8
241
100
AcDbVertex
100
AcDb3dPolylineVertex
 10
130.099
 20
11.9868
 30
0.0
 70
    32
  0
VERTEX
  5
1A17
330
19E1
100
AcDbEntity
  8
241
100
AcDbVertex
100
AcDb3dPolylineVertex
 10
130.059
 20
12.0056
 30
0.0
 70
    32
  0
VERTEX
  5
1A18
330
19E1
100
AcDbEntity
  8
241
100
AcDbVertex
100
AcDb3dPolylineVertex
 10
130.017
 20
12.0234
 30
0.0
 70
    32
  0
VERTEX
  5
1A19
330
19E1
100
AcDbEntity
  8
241
100
AcDbVertex
100
AcDb3dPolylineVertex
 10
129.975
 20
12.0404
 30
0.0
 70
    32
  0
VERTEX
  5
1A1A
330
19E1
100
AcDbEntity
  8
241
100
AcDbVertex
100
AcDb3dPolylineVertex
 10
129.933
 20
12.0564
 30
0.0
 70
    32
  0
VERTEX
  5
1A1B
330
19E1
100
AcDbEntity
  8
241
100
AcDbVertex
100
AcDb3dPolylineVertex
 10
129.89
 20
12.0715
 30
0.0
 70
    32
  0
VERTEX
  5
1A1C
330
19E1
100
AcDbEntity
  8
241
100
AcDbVertex
100
AcDb3dPolylineVertex
 10
129.847
 20
12.0857
 30
0.0
 70
    32
  0
VERTEX
  5
1A1D
330
19E1
100
AcDbEntity
  8
241
100
AcDbVertex
100
AcDb3dPolylineVertex
 10
129.804
 20
12.0989
 30
0.0
 70
    32
  0
VERTEX
  5
1A1E
330
19E1
100
AcDbEntity
  8
241
100
AcDbVertex
100
AcDb3dPolylineVertex
 10
129.76
 20
12.1112
 30
0.0
 70
    32
  0
VERTEX
  5
1A1F
330
19E1
100
AcDbEntity
  8
241
100
AcDbVertex
100
AcDb3dPolylineVertex
 10
129.716
 20
12.1225
 30
0.0
 70
    32
  0
VERTEX
  5
1A20
330
19E1
100
AcDbEntity
  8
241
100
AcDbVertex
100
AcDb3dPolylineVertex
 10
129.672
 20
12.1328
 30
0.0
 70
    32
  0
VERTEX
  5
1A21
330
19E1
100
AcDbEntity
  8
241
100
AcDbVertex
100
AcDb3dPolylineVertex
 10
129.628
 20
12.1422
 30
0.0
 70
    32
  0
VERTEX
  5
1A22
330
19E1
100
AcDbEntity
  8
241
100
AcDbVertex
100
AcDb3dPolylineVertex
 10
129.583
 20
12.1505
 30
0.0
 70
    32
  0
VERTEX
  5
1A23
330
19E1
100
AcDbEntity
  8
241
100
AcDbVertex
100
AcDb3dPolylineVertex
 10
129.538
 20
12.1579
 30
0.0
 70
    32
  0
VERTEX
  5
1A24
330
19E1
100
AcDbEntity
  8
241
100
AcDbVertex
100
AcDb3dPolylineVertex
 10
129.493
 20
12.1643
 30
0.0
 70
    32
  0
VERTEX
  5
1A25
330
19E1
100
AcDbEntity
  8
241
100
AcDbVertex
100
AcDb3dPolylineVertex
 10
129.448
 20
12.1697
 30
0.0
 70
    32
  0
VERTEX
  5
1A26
330
19E1
100
AcDbEntity
  8
241
100
AcDbVertex
100
AcDb3dPolylineVertex
 10
129.403
 20
12.1742
 30
0.0
 70
    32
  0
VERTEX
  5
1A27
330
19E1
100
AcDbEntity
  8
241
100
AcDbVertex
100
AcDb3dPolylineVertex
 10
129.358
 20
12.1776
 30
0.0
 70
    32
  0
VERTEX
  5
1A28
330
19E1
100
AcDbEntity
  8
241
100
AcDbVertex
100
AcDb3dPolylineVertex
 10
129.313
 20
12.18
 30
0.0
 70
    32
  0
VERTEX
  5
1A29
330
19E1
100
AcDbEntity
  8
241
100
AcDbVertex
100
AcDb3dPolylineVertex
 10
129.267
 20
12.1814
 30
0.0
 70
    32
  0
VERTEX
  5
1A2A
330
19E1
100
AcDbEntity
  8
241
100
AcDbVertex
100
AcDb3dPolylineVertex
 10
129.222
 20
12.1818
 30
0.0
 70
    32
  0
VERTEX
  5
1A2B
330
19E1
100
AcDbEntity
  8
241
100
AcDbVertex
100
AcDb3dPolylineVertex
 10
129.177
 20
12.1812
 30
0.0
 70
    32
  0
VERTEX
  5
1A2C
330
19E1
100
AcDbEntity
  8
241
100
AcDbVertex
100
AcDb3dPolylineVertex
 10
129.132
 20
12.1796
 30
0.0
 70
    32
  0
VERTEX
  5
1A2D
330
19E1
100
AcDbEntity
  8
241
100
AcDbVertex
100
AcDb3dPolylineVertex
 10
129.087
 20
12.1769
 30
0.0
 70
    32
  0
VERTEX
  5
1A2E
330
19E1
100
AcDbEntity
  8
241
100
AcDbVertex
100
AcDb3dPolylineVertex
 10
129.042
 20
12.1733
 30
0.0
 70
    32
  0
VERTEX
  5
1A2F
330
19E1
100
AcDbEntity
  8
241
100
AcDbVertex
100
AcDb3dPolylineVertex
 10
128.997
 20
12.1687
 30
0.0
 70
    32
  0
VERTEX
  5
1A30
330
19E1
100
AcDbEntity
  8
241
100
AcDbVertex
100
AcDb3dPolylineVertex
 10
128.952
 20
12.1631
 30
0.0
 70
    32
  0
VERTEX
  5
1A31
330
19E1
100
AcDbEntity
  8
241
100
AcDbVertex
100
AcDb3dPolylineVertex
 10
128.908
 20
12.1565
 30
0.0
 70
    32
  0
VERTEX
  5
1A32
330
19E1
100
AcDbEntity
  8
241
100
AcDbVertex
100
AcDb3dPolylineVertex
 10
128.864
 20
12.1489
 30
0.0
 70
    32
  0
VERTEX
  5
1A33
330
19E1
100
AcDbEntity
  8
241
100
AcDbVertex
100
AcDb3dPolylineVertex
 10
128.82
 20
12.1403
 30
0.0
 70
    32
  0
VERTEX
  5
1A34
330
19E1
100
AcDbEntity
  8
241
100
AcDbVertex
100
AcDb3dPolylineVertex
 10
128.776
 20
12.1308
 30
0.0
 70
    32
  0
VERTEX
  5
1A35
330
19E1
100
AcDbEntity
  8
241
100
AcDbVertex
100
AcDb3dPolylineVertex
 10
128.733
 20
12.1202
 30
0.0
 70
    32
  0
VERTEX
  5
1A36
330
19E1
100
AcDbEntity
  8
241
100
AcDbVertex
100
AcDb3dPolylineVertex
 10
128.69
 20
12.1088
 30
0.0
 70
    32
  0
VERTEX
  5
1A37
330
19E1
100
AcDbEntity
  8
241
100
AcDbVertex
100
AcDb3dPolylineVertex
 10
128.648
 20
12.0963
 30
0.0
 70
    32
  0
VERTEX
  5
1A38
330
19E1
100
AcDbEntity
  8
241
100
AcDbVertex
100
AcDb3dPolylineVertex
 10
128.605
 20
12.0829
 30
0.0
 70
    32
  0
VERTEX
  5
1A39
330
19E1
100
AcDbEntity
  8
241
100
AcDbVertex
100
AcDb3dPolylineVertex
 10
128.564
 20
12.0685
 30
0.0
 70
    32
  0
VERTEX
  5
1A3A
330
19E1
100
AcDbEntity
  8
241
100
AcDbVertex
100
AcDb3dPolylineVertex
 10
128.522
 20
12.0532
 30
0.0
 70
    32
  0
VERTEX
  5
1A3B
330
19E1
100
AcDbEntity
  8
241
100
AcDbVertex
100
AcDb3dPolylineVertex
 10
128.481
 20
12.037
 30
0.0
 70
    32
  0
VERTEX
  5
1A3C
330
19E1
100
AcDbEntity
  8
241
100
AcDbVertex
100
AcDb3dPolylineVertex
 10
128.441
 20
12.0199
 30
0.0
 70
    32
  0
VERTEX
  5
1A3D
330
19E1
100
AcDbEntity
  8
241
100
AcDbVertex
100
AcDb3dPolylineVertex
 10
128.401
 20
12.0018
 30
0.0
 70
    32
  0
VERTEX
  5
1A3E
330
19E1
100
AcDbEntity
  8
241
100
AcDbVertex
100
AcDb3dPolylineVertex
 10
128.362
 20
11.9829
 30
0.0
 70
    32
  0
VERTEX
  5
1A3F
330
19E1
100
AcDbEntity
  8
241
100
AcDbVertex
100
AcDb3dPolylineVertex
 10
128.323
 20
11.9631
 30
0.0
 70
    32
  0
VERTEX
  5
1A40
330
19E1
100
AcDbEntity
  8
241
100
AcDbVertex
100
AcDb3dPolylineVertex
 10
128.285
 20
11.9424
 30
0.0
 70
    32
  0
VERTEX
  5
1A41
330
19E1
100
AcDbEntity
  8
241
100
AcDbVertex
100
AcDb3dPolylineVertex
 10
128.247
 20
11.9208
 30
0.0
 70
    32
  0
VERTEX
  5
1A42
330
19E1
100
AcDbEntity
  8
241
100
AcDbVertex
100
AcDb3dPolylineVertex
 10
128.21
 20
11.8984
 30
0.0
 70
    32
  0
VERTEX
  5
1A43
330
19E1
100
AcDbEntity
  8
241
100
AcDbVertex
100
AcDb3dPolylineVertex
 10
128.174
 20
11.8752
 30
0.0
 70
    32
  0
VERTEX
  5
1A44
330
19E1
100
AcDbEntity
  8
241
100
AcDbVertex
100
AcDb3dPolylineVertex
 10
128.138
 20
11.8511
 30
0.0
 70
    32
  0
VERTEX
  5
1A45
330
19E1
100
AcDbEntity
  8
241
100
AcDbVertex
100
AcDb3dPolylineVertex
 10
128.103
 20
11.8262
 30
0.0
 70
    32
  0
VERTEX
  5
1A46
330
19E1
100
AcDbEntity
  8
241
100
AcDbVertex
100
AcDb3dPolylineVertex
 10
128.069
 20
11.8006
 30
0.0
 70
    32
  0
VERTEX
  5
1A47
330
19E1
100
AcDbEntity
  8
241
100
AcDbVertex
100
AcDb3dPolylineVertex
 10
128.036
 20
11.7742
 30
0.0
 70
    32
  0
VERTEX
  5
1A48
330
19E1
100
AcDbEntity
  8
241
100
AcDbVertex
100
AcDb3dPolylineVertex
 10
128.003
 20
11.747
 30
0.0
 70
    32
  0
VERTEX
  5
1A49
330
19E1
100
AcDbEntity
  8
241
100
AcDbVertex
100
AcDb3dPolylineVertex
 10
127.971
 20
11.719
 30
0.0
 70
    32
  0
VERTEX
  5
1A4A
330
19E1
100
AcDbEntity
  8
241
100
AcDbVertex
100
AcDb3dPolylineVertex
 10
127.94
 20
11.6904
 30
0.0
 70
    32
  0
VERTEX
  5
1A4B
330
19E1
100
AcDbEntity
  8
241
100
AcDbVertex
100
AcDb3dPolylineVertex
 10
127.91
 20
11.661
 30
0.0
 70
    32
  0
VERTEX
  5
1A4C
330
19E1
100
AcDbEntity
  8
241
100
AcDbVertex
100
AcDb3dPolylineVertex
 10
127.88
 20
11.631
 30
0.0
 70
    32
  0
VERTEX
  5
1A4D
330
19E1
100
AcDbEntity
  8
241
100
AcDbVertex
100
AcDb3dPolylineVertex
 10
127.852
 20
11.6002
 30
0.0
 70
    32
  0
VERTEX
  5
1A4E
330
19E1
100
AcDbEntity
  8
241
100
AcDbVertex
100
AcDb3dPolylineVertex
 10
127.824
 20
11.5688
 30
0.0
 70
    32
  0
VERTEX
  5
1A4F
330
19E1
100
AcDbEntity
  8
241
100
AcDbVertex
100
AcDb3dPolylineVertex
 10
127.797
 20
11.5368
 30
0.0
 70
    32
  0
VERTEX
  5
1A50
330
19E1
100
AcDbEntity
  8
241
100
AcDbVertex
100
AcDb3dPolylineVertex
 10
127.771
 20
11.5042
 30
0.0
 70
    32
  0
VERTEX
  5
1A51
330
19E1
100
AcDbEntity
  8
241
100
AcDbVertex
100
AcDb3dPolylineVertex
 10
127.746
 20
11.471
 30
0.0
 70
    32
  0
VERTEX
  5
1A52
330
19E1
100
AcDbEntity
  8
241
100
AcDbVertex
100
AcDb3dPolylineVertex
 10
127.722
 20
11.4371
 30
0.0
 70
    32
  0
VERTEX
  5
1A53
330
19E1
100
AcDbEntity
  8
241
100
AcDbVertex
100
AcDb3dPolylineVertex
 10
127.699
 20
11.4028
 30
0.0
 70
    32
  0
VERTEX
  5
1A54
330
19E1
100
AcDbEntity
  8
241
100
AcDbVertex
100
AcDb3dPolylineVertex
 10
127.676
 20
11.3679
 30
0.0
 70
    32
  0
VERTEX
  5
1A55
330
19E1
100
AcDbEntity
  8
241
100
AcDbVertex
100
AcDb3dPolylineVertex
 10
127.655
 20
11.3325
 30
0.0
 70
    32
  0
VERTEX
  5
1A56
330
19E1
100
AcDbEntity
  8
241
100
AcDbVertex
100
AcDb3dPolylineVertex
 10
127.635
 20
11.2966
 30
0.0
 70
    32
  0
VERTEX
  5
1A57
330
19E1
100
AcDbEntity
  8
241
100
AcDbVertex
100
AcDb3dPolylineVertex
 10
127.616
 20
11.2602
 30
0.0
 70
    32
  0
VERTEX
  5
1A58
330
19E1
100
AcDbEntity
  8
241
100
AcDbVertex
100
AcDb3dPolylineVertex
 10
127.597
 20
11.2234
 30
0.0
 70
    32
  0
VERTEX
  5
1A59
330
19E1
100
AcDbEntity
  8
241
100
AcDbVertex
100
AcDb3dPolylineVertex
 10
127.58
 20
11.1861
 30
0.0
 70
    32
  0
VERTEX
  5
1A5A
330
19E1
100
AcDbEntity
  8
241
100
AcDbVertex
100
AcDb3dPolylineVertex
 10
127.564
 20
11.1484
 30
0.0
 70
    32
  0
VERTEX
  5
1A5B
330
19E1
100
AcDbEntity
  8
241
100
AcDbVertex
100
AcDb3dPolylineVertex
 10
127.549
 20
11.1104
 30
0.0
 70
    32
  0
VERTEX
  5
1A5C
330
19E1
100
AcDbEntity
  8
241
100
AcDbVertex
100
AcDb3dPolylineVertex
 10
127.535
 20
11.072
 30
0.0
 70
    32
  0
VERTEX
  5
1A5D
330
19E1
100
AcDbEntity
  8
241
100
AcDbVertex
100
AcDb3dPolylineVertex
 10
127.522
 20
11.0333
 30
0.0
 70
    32
  0
VERTEX
  5
1A5E
330
19E1
100
AcDbEntity
  8
241
100
AcDbVertex
100
AcDb3dPolylineVertex
 10
127.51
 20
10.9942
 30
0.0
 70
    32
  0
VERTEX
  5
1A5F
330
19E1
100
AcDbEntity
  8
241
100
AcDbVertex
100
AcDb3dPolylineVertex
 10
127.499
 20
10.9549
 30
0.0
 70
    32
  0
VERTEX
  5
1A60
330
19E1
100
AcDbEntity
  8
241
100
AcDbVertex
100
AcDb3dPolylineVertex
 10
127.489
 20
10.9153
 30
0.0
 70
    32
  0
VERTEX
  5
1A61
330
19E1
100
AcDbEntity
  8
241
100
AcDbVertex
100
AcDb3dPolylineVertex
 10
127.48
 20
10.8754
 30
0.0
 70
    32
  0
VERTEX
  5
1A62
330
19E1
100
AcDbEntity
  8
241
100
AcDbVertex
100
AcDb3dPolylineVertex
 10
127.473
 20
10.8354
 30
0.0
 70
    32
  0
SEQEND
  5
1A63
330
19E1
100
AcDbEntity
  8
241
  0
LINE
  5
1A64
330
E0F
100
AcDbEntity
  8
240
100
AcDbLine
 10
122.46698728
 20
15.25
 30
0.0
 11
123.40000002
 21
15.5
 31
0.0
  0
LINE
  5
1A65
330
E0F
100
AcDbEntity
  8
240
  6
CONTINUOUS
100
AcDbLine
 10
27.0
 20
30.5
 30
0.0
 11
27.0
 21
30.0
 31
0.0
  0
ARC
  5
1A66
330
E0F
100
AcDbEntity
  8
240
  6
CONTINUOUS
100
AcDbCircle
 10
26.0
 20
30.5
 30
0.0
 40
1.0
100
AcDbArc
 50
0.0
 51
90.0
  0
ENDBLK
  5
E11
330
E0F
100
AcDbEntity
  8
0
100
AcDbBlockEnd
  0
ENDSEC
  0
SECTION
  2
ENTITIES
  0
INSERT
  5
6E6
330
1A
100
AcDbEntity
  8
245
100
AcDbBlockReference
  2
矢印なし
 10
175.62382697
 20
90.55123572
 30
0.0
  0
TEXT
  5
A9D
330
1A
100
AcDbEntity
  8
241
100
AcDbText
 10
-65.4
 20
56.0
 30
0.0
 40
5.0
  1
BBT40-FCR32102L-135
  7
YOKO
 11
-65.4
 21
56.0
 31
0.0
100
AcDbText
 73
     1
  0
DIMENSION
  5
D81
330
1A
100
AcDbEntity
  8
250
  6
CONTINUOUS
100
AcDbDimension
  2
*D2
 10
147.0
 20
16.0
 30
0.0
 11
144.6
 21
0.0
 31
0.0
 70
    32
  1
{\H2.8;\U+2205}<>
  3
BIGT
100
AcDbAlignedDimension
 13
135.0
 23
-16.0
 33
0.0
 14
135.0
 24
16.0
 34
0.0
 50
90.0
100
AcDbRotatedDimension
  0
DIMENSION
  5
D90
330
1A
100
AcDbEntity
  8
250
  6
CONTINUOUS
100
AcDbDimension
  2
*D3
 10
135.0
 20
28.0
 30
0.0
 11
130.0
 21
30.4
 31
0.0
 70
    32
  3
BIGT
100
AcDbAlignedDimension
 13
125.0
 23
16.0
 33
0.0
 14
135.0
 24
16.0
 34
0.0
100
AcDbRotatedDimension
  0
DIMENSION
  5
D9F
330
1A
100
AcDbEntity
  8
250
  6
CONTINUOUS
100
AcDbDimension
  2
*D4
 10
135.0
 20
35.0
 30
0.0
 11
95.0
 21
37.4
 31
0.0
 70
    32
  3
BIGT
100
AcDbAlignedDimension
 13
55.0
 23
15.4570758
 33
0.0
 14
135.0
 24
16.0
 34
0.0
100
AcDbRotatedDimension
  0
DIMENSION
  5
DAE
330
1A
100
AcDbEntity
  8
250
  6
CONTINUOUS
100
AcDbDimension
  2
*D5
 10
135.0
 20
42.0
 30
0.0
 11
67.5
 21
44.4
 31
0.0
 70
    32
  3
BIGT
100
AcDbAlignedDimension
 13
0.0
 23
22.225
 33
0.0
 14
135.0
 24
16.0
 34
0.0
100
AcDbRotatedDimension
  0
LEADER
  5
18B2
330
1A
100
AcDbEntity
  8
250
  6
CONTINUOUS
100
AcDbLeader
  3
BIGT
 76
     2
 10
-26.64442081
 20
-18.3393553
 30
0.0
 10
-32.4583971
 20
-28.40945762
 30
0.0
1001
ACAD
1000
DSTYLE
1002
{
1070
     6
1000
OPEN
1070
   343
1005
594
1002
}
  0
MTEXT
  5
18B3
330
1A
100
AcDbEntity
  8
250
  6
CONTINUOUS
 62
    40
100
AcDbMText
 10
-47.39173044
 20
-27.40945762
 30
0.0
 40
2.8
 41
0.0
 71
     7
 72
     1
  1
BBT40
  7
YOKO
1001
ITEMNAME
1000
LNSP3
1001
ACAD
1000
MTEXTBEGIN
1070
    73
1070
     1
1070
    44
1040
1.0
1070
    74
1070
     0
1000
MTEXTEND
1000
MTEXTBEGIN
1070
    73
1070
     1
1070
    44
1040
1.0
1070
    74
1070
     0
1000
MTEXTEND
  0
LINE
  5
18B6
330
1A
100
AcDbEntity
  8
250
  6
CONTINUOUS
100
AcDbLine
 10
-32.4583971
 20
-28.40945762
 30
0.0
 11
-50.19173044
 21
-28.40945762
 31
0.0
1001
ITEMNAME
1000
LNSP2
  0
INSERT
  5
1A67
330
1A
100
AcDbEntity
  8
245
100
AcDbBlockReference
  2
1
 10
0.0
 20
0.0
 30
0.0
  0
VIEWPORT
  5
22
330
17
100
AcDbEntity
 67
     1
  8
0
100
AcDbViewport
 10
261.51769912
 20
148.5
 30
0.0
 40
523.03539823
 41
297.0
 68
     1
 69
     1
1001
ACAD
1000
MVIEW
1002
{
1070
    16
1010
0.0
1020
0.0
1030
0.0
1010
0.0
1020
0.0
1030
1.0
1040
0.0
1040
297.0
1040
261.51769912
1040
148.5
1040
50.0
1040
0.0
1040
0.0
1070
     0
1070
   100
1070
     1
1070
     1
1070
     0
1070
     0
1070
     0
1070
     0
1040
0.0
1040
0.0
1040
0.0
1040
1.0
1040
1.0
1040
10.0
1040
10.0
1070
     0
1002
{
1002
}
1002
}
  0
ENDSEC
  0
SECTION
  2
OBJECTS
  0
DICTIONARY
  5
C
330
0
100
AcDbDictionary
  3
ACAD_GROUP
350
D
  3
ACAD_LAYOUT
350
565
  3
ACAD_MLINESTYLE
350
E
  3
ACAD_PLOTSETTINGS
350
566
  3
ACAD_PLOTSTYLENAME
350
563
  3
ACDBHEADERROUNDTRIPXREC
350
1A69
  3
GRADE_DWG
350
540
  0
DICTIONARY
  5
10C7
330
1A
100
AcDbDictionary
280
     1
  3
ACAD_LAYOUTSELFREF
360
1A8B
  0
DICTIONARY
  5
10C5
330
17
100
AcDbDictionary
280
     1
  3
ACAD_LAYOUTSELFREF
360
1A8A
  0
DICTIONARY
  5
D
102
{ACAD_REACTORS
330
C
102
}
330
C
100
AcDbDictionary
  3
*A1
350
6C7
  3
*A2
350
6C8
  3
*A3
350
6D4
  3
*A4
350
6D5
  3
DREC-1
350
5FC
  3
DREC-2
350
654
  3
DREC-3
350
673
  0
DICTIONARY
  5
565
102
{ACAD_REACTORS
330
C
102
}
330
C
100
AcDbDictionary
  0
DICTIONARY
  5
E
102
{ACAD_REACTORS
330
C
102
}
330
C
100
AcDbDictionary
  3
STANDARD
350
13
  0
DICTIONARY
  5
566
102
{ACAD_REACTORS
330
C
102
}
330
C
100
AcDbDictionary
  3
A3_0_5倍_
350
758
  3
A3_1倍_
350
757
  3
A3_1倍__2000_
350
707
  3
A3_2倍_
350
759
  3
A4_0_5倍_
350
755
  3
A4_1倍_
350
754
  3
A4_1倍__2000_
350
708
  3
A4_2倍_
350
756
  0
ACDBDICTIONARYWDFLT
  5
563
102
{ACAD_REACTORS
330
C
102
}
330
C
100
AcDbDictionary
281
     1
  3
Normal
350
564
100
AcDbDictionaryWithDefault
340
564
  0
DICTIONARY
  5
1A69
102
{ACAD_REACTORS
330
C
102
}
330
C
100
AcDbDictionary
  3
CEPSNTYPE
350
1A73
  3
DIMSTYLEDATA
350
1A77
  3
FINGERPRINTGUID
350
1A74
  3
HYPERLINKBASE
350
1A6C
  3
INSUNITS
350
1A72
  3
LAYOUTDICT
350
1A6E
  3
LWETCUNION
350
1A71
  3
PLOTSETDICT
350
1A6F
  3
PLOTSTYLNAMDICT
350
1A70
  3
PSVPSCALE
350
1A76
  3
PUCSBASE
350
1A7A
  3
PUCSORGBACK
350
1A80
  3
PUCSORGBOTTOM
350
1A7C
  3
PUCSORGFRONT
350
1A7F
  3
PUCSORGLEFT
350
1A7D
  3
PUCSORGRIGHT
350
1A7E
  3
PUCSORGTOP
350
1A7B
  3
PUCSORTHOREF
350
1A78
  3
PUCSORTHOVIEW
350
1A79
  3
STYLESHEET
350
1A6D
  3
TSTACKALIGN
350
1A6A
  3
TSTACKSIZE
350
1A6B
  3
UCSBASE
350
1A83
  3
UCSORGBACK
350
1A89
  3
UCSORGBOTTOM
350
1A85
  3
UCSORGFRONT
350
1A88
  3
UCSORGLEFT
350
1A86
  3
UCSORGRIGHT
350
1A87
  3
UCSORGTOP
350
1A84
  3
UCSORTHOREF
350
1A81
  3
UCSORTHOVIEW
350
1A82
  3
VERSIONGUID
350
1A75
  0
DICTIONARY
  5
540
102
{ACAD_REACTORS
330
C
102
}
330
C
100
AcDbDictionary
  3
VERSION
350
560
  0
XRECORD
  5
1A8B
102
{ACAD_REACTORS
330
10C7
102
}
330
10C7
100
AcDbXrecord
340
1A
  0
XRECORD
  5
1A8A
102
{ACAD_REACTORS
330
10C5
102
}
330
10C5
100
AcDbXrecord
340
17
  0
GROUP
  5
6C7
102
{ACAD_REACTORS
330
D
102
}
330
D
100
AcDbGroup
300

 70
     0
 71
     1
1001
GRPNAME
1000
DMA00
  0
GROUP
  5
6C8
102
{ACAD_REACTORS
330
D
102
}
330
D
100
AcDbGroup
300

 70
     0
 71
     1
1001
GRPNAME
1000
DMA00
  0
GROUP
  5
6D4
102
{ACAD_REACTORS
330
D
102
}
330
D
100
AcDbGroup
300

 70
     0
 71
     1
1001
GRPNAME
1000
DMA00
  0
GROUP
  5
6D5
102
{ACAD_REACTORS
330
D
102
}
330
D
100
AcDbGroup
300

 70
     0
 71
     1
1001
GRPNAME
1000
DMA00
  0
GROUP
  5
5FC
102
{ACAD_REACTORS
330
D
102
}
330
D
100
AcDbGroup
300

 70
     0
 71
     1
1001
GRPNAME
1000
DREC-
1001
GPARA
1000
xsiz
1000
44.182
1000
ysiz
1000
40.677
1000
angl
1000
0
1000
ctyp
1000
0
1000
csiz
1000
5
1000
lfnt
1000
cont
1000
hcnt
1000
hoff
1000
vcnt
1000
voff
1000
opnt
1000
4
1000
dxpt
1000
0
1000
dypt
1000
0
  0
GROUP
  5
654
102
{ACAD_REACTORS
330
D
102
}
330
D
100
AcDbGroup
300

 70
     0
 71
     1
1001
GRPNAME
1000
DREC-
1001
GPARA
1000
xsiz
1000
54.592
1000
ysiz
1000
53.036
1000
angl
1000
0
1000
ctyp
1000
0
1000
csiz
1000
5
1000
lfnt
1000
cont
1000
hcnt
1000
hoff
1000
vcnt
1000
voff
1000
opnt
1000
4
1000
dxpt
1000
0
1000
dypt
1000
0
  0
GROUP
  5
673
102
{ACAD_REACTORS
330
D
102
}
330
D
100
AcDbGroup
300

 70
     0
 71
     1
1001
GRPNAME
1000
DREC-
1001
GPARA
1000
xsiz
1000
30.363
1000
ysiz
1000
36.175
1000
angl
1000
0
1000
ctyp
1000
0
1000
csiz
1000
5
1000
lfnt
1000
cont
1000
hcnt
1000
hoff
1000
vcnt
1000
voff
1000
opnt
1000
4
1000
dxpt
1000
0
1000
dypt
1000
0
  0
MLINESTYLE
  5
13
102
{ACAD_REACTORS
330
E
102
}
330
E
100
AcDbMlineStyle
  2
STANDARD
 70
     0
  3

 62
     0
 51
90.0
 52
90.0
 71
     2
 49
0.5
 62
   256
  6
BYLAYER
 49
-0.5
 62
   256
  6
BYLAYER
  0
PLOTSETTINGS
  5
758
102
{ACAD_REACTORS
330
566
102
}
330
566
100
AcDbPlotSettings
  1
A3(0.5倍)
  2
\\AWTECPC05\HP DeskJet 1120C
  4
A3
  6

 40
5.95841646
 41
13.49375153
 42
6.04309082
 43
3.67242432
 44
296.92599487
 45
419.94665527
 46
89.96
 47
127.14
 48
0.0
 49
0.0
140
0.0
141
0.0
142
1.0
143
2.0
 70
  1716
 72
     1
 73
     1
 74
     2
  7
big.ctb
 75
    17
147
0.5
148
0.0
149
0.0
  0
PLOTSETTINGS
  5
757
102
{ACAD_REACTORS
330
566
102
}
330
566
100
AcDbPlotSettings
  1
A3(1倍)
  2
\\AWTECPC05\HP DeskJet 1120C
  4
A3
  6

 40
5.95841646
 41
13.49375153
 42
6.04309082
 43
3.67242432
 44
296.92599487
 45
419.94665527
 46
37.46
 47
52.89
 48
0.0
 49
0.0
140
0.0
141
0.0
142
1.0
143
1.0
 70
  1716
 72
     1
 73
     1
 74
     2
  7
big.ctb
 75
    16
147
1.0
148
0.0
149
0.0
  0
PLOTSETTINGS
  5
707
102
{ACAD_REACTORS
330
566
102
}
330
566
100
AcDbPlotSettings
  1
A3(1倍)(2000)
  2
SII LS-1300 (D-SCAN)
  4
User258
  6

 40
3.17499995
 41
3.17499995
 42
3.17498779
 43
3.17498779
 44
419.98898315
 45
296.98950195
 46
58.32
 47
40.32
 48
0.0
 49
0.0
140
0.0
141
0.0
142
1.0
143
1.0
 70
  1716
 72
     1
 73
     0
 74
     2
  7
big.ctb
 75
    16
147
1.0
148
0.0
149
0.0
  0
PLOTSETTINGS
  5
759
102
{ACAD_REACTORS
330
566
102
}
330
566
100
AcDbPlotSettings
  1
A3(2倍)
  2
\\AWTECPC05\HP DeskJet 1120C
  4
A3
  6

 40
5.95841646
 41
13.49375153
 42
6.04309082
 43
3.67242432
 44
296.92599487
 45
419.94665527
 46
-67.54
 47
-95.61
 48
0.0
 49
0.0
140
0.0
141
0.0
142
1.0
143
0.5
 70
  1716
 72
     1
 73
     1
 74
     2
  7
big.ctb
 75
    27
147
2.0
148
0.0
149
0.0
  0
PLOTSETTINGS
  5
755
102
{ACAD_REACTORS
330
566
102
}
330
566
100
AcDbPlotSettings
  1
A4(0.5倍)
  2
\\AWTECPC05\HP DeskJet 1120C
  4
A4
  6

 40
4.18041658
 41
13.49374962
 42
4.18040466
 43
3.92642212
 44
209.97332764
 45
296.92599487
 46
48.31
 47
65.5
 48
0.0
 49
0.0
140
0.0
141
0.0
142
1.0
143
2.0
 70
  1716
 72
     1
 73
     1
 74
     2
  7
big.ctb
 75
    17
147
0.5
148
0.0
149
0.0
  0
PLOTSETTINGS
  5
754
102
{ACAD_REACTORS
330
566
102
}
330
566
100
AcDbPlotSettings
  1
A4(1倍)
  2
\\AWTECPC05\HP DeskJet 1120C
  4
A4
  6

 40
4.18041658
 41
13.49374962
 42
4.18040466
 43
3.92642212
 44
209.97332764
 45
296.92599487
 46
-4.19
 47
-8.75
 48
0.0
 49
0.0
140
0.0
141
0.0
142
1.0
143
1.0
 70
  1716
 72
     1
 73
     1
 74
     2
  7
big.ctb
 75
    16
147
1.0
148
0.0
149
0.0
  0
PLOTSETTINGS
  5
708
102
{ACAD_REACTORS
330
566
102
}
330
566
100
AcDbPlotSettings
  1
A4(1倍)(2000)
  2
SII LS-1300 (D-SCAN)
  4
User259
  6

 40
3.17499995
 41
3.17499995
 42
3.17498779
 43
3.17500305
 44
296.98950195
 45
209.99449158
 46
-3.18
 47
-3.18
 48
0.0
 49
0.0
140
0.0
141
0.0
142
1.0
143
1.0
 70
  1716
 72
     1
 73
     0
 74
     2
  7
big.ctb
 75
    16
147
1.0
148
0.0
149
0.0
  0
PLOTSETTINGS
  5
756
102
{ACAD_REACTORS
330
566
102
}
330
566
100
AcDbPlotSettings
  1
A4(2倍)
  2
\\AWTECPC05\HP DeskJet 1120C
  4
A4
  6

 40
4.18041658
 41
13.49374962
 42
4.18040466
 43
3.92642212
 44
209.97332764
 45
296.92599487
 46
-109.19
 47
-157.25
 48
0.0
 49
0.0
140
0.0
141
0.0
142
1.0
143
0.5
 70
  1716
 72
     1
 73
     1
 74
     2
  7
big.ctb
 75
    27
147
2.0
148
0.0
149
0.0
  0
ACDBPLACEHOLDER
  5
564
102
{ACAD_REACTORS
330
563
102
}
330
563
100
AcDbPlaceHolder
280
     0
  0
XRECORD
  5
1A73
102
{ACAD_REACTORS
330
1A69
102
}
330
1A69
100
AcDbXrecord
 90
        0
  0
XRECORD
  5
1A77
102
{ACAD_REACTORS
330
1A69
102
}
330
1A69
100
AcDbXrecord
1000
DSTYLE
1002
{
1070
    79
 70
     2
1070
   179
 70
     3
1070
   341
340
594
1070
   343
340
594
1070
   344
340
594
1070
   371
 70
    -1
1070
   372
 70
    -1
1002
}
  0
XRECORD
  5
1A74
102
{ACAD_REACTORS
330
1A69
102
}
330
1A69
100
AcDbXrecord
  1
{51294030-9CB4-11D3-8E18-00A0C925D94D}
  0
XRECORD
  5
1A6C
102
{ACAD_REACTORS
330
1A69
102
}
330
1A69
100
AcDbXrecord
  1

  0
XRECORD
  5
1A72
102
{ACAD_REACTORS
330
1A69
102
}
330
1A69
100
AcDbXrecord
 90
        0
  0
XRECORD
  5
1A6E
102
{ACAD_REACTORS
330
1A69
102
}
330
1A69
100
AcDbXrecord
340
565
  0
XRECORD
  5
1A71
102
{ACAD_REACTORS
330
1A69
102
}
330
1A69
100
AcDbXrecord
 90
    10781
  0
XRECORD
  5
1A6F
102
{ACAD_REACTORS
330
1A69
102
}
330
1A69
100
AcDbXrecord
340
566
  0
XRECORD
  5
1A70
102
{ACAD_REACTORS
330
1A69
102
}
330
1A69
100
AcDbXrecord
340
563
  0
XRECORD
  5
1A76
102
{ACAD_REACTORS
330
1A69
102
}
330
1A69
100
AcDbXrecord
 40
0.0
  0
XRECORD
  5
1A7A
102
{ACAD_REACTORS
330
1A69
102
}
330
1A69
100
AcDbXrecord
340
0
  0
XRECORD
  5
1A80
102
{ACAD_REACTORS
330
1A69
102
}
330
1A69
100
AcDbXrecord
 10
0.0
 20
0.0
 30
0.0
  0
XRECORD
  5
1A7C
102
{ACAD_REACTORS
330
1A69
102
}
330
1A69
100
AcDbXrecord
 10
0.0
 20
0.0
 30
0.0
  0
XRECORD
  5
1A7F
102
{ACAD_REACTORS
330
1A69
102
}
330
1A69
100
AcDbXrecord
 10
0.0
 20
0.0
 30
0.0
  0
XRECORD
  5
1A7D
102
{ACAD_REACTORS
330
1A69
102
}
330
1A69
100
AcDbXrecord
 10
0.0
 20
0.0
 30
0.0
  0
XRECORD
  5
1A7E
102
{ACAD_REACTORS
330
1A69
102
}
330
1A69
100
AcDbXrecord
 10
0.0
 20
0.0
 30
0.0
  0
XRECORD
  5
1A7B
102
{ACAD_REACTORS
330
1A69
102
}
330
1A69
100
AcDbXrecord
 10
0.0
 20
0.0
 30
0.0
  0
XRECORD
  5
1A78
102
{ACAD_REACTORS
330
1A69
102
}
330
1A69
100
AcDbXrecord
340
0
  0
XRECORD
  5
1A79
102
{ACAD_REACTORS
330
1A69
102
}
330
1A69
100
AcDbXrecord
 70
     0
  0
XRECORD
  5
1A6D
102
{ACAD_REACTORS
330
1A69
102
}
330
1A69
100
AcDbXrecord
  1
big.ctb
  0
XRECORD
  5
1A6A
102
{ACAD_REACTORS
330
1A69
102
}
330
1A69
100
AcDbXrecord
 90
        1
  0
XRECORD
  5
1A6B
102
{ACAD_REACTORS
330
1A69
102
}
330
1A69
100
AcDbXrecord
 90
       70
  0
XRECORD
  5
1A83
102
{ACAD_REACTORS
330
1A69
102
}
330
1A69
100
AcDbXrecord
340
0
  0
XRECORD
  5
1A89
102
{ACAD_REACTORS
330
1A69
102
}
330
1A69
100
AcDbXrecord
 10
0.0
 20
0.0
 30
0.0
  0
XRECORD
  5
1A85
102
{ACAD_REACTORS
330
1A69
102
}
330
1A69
100
AcDbXrecord
 10
0.0
 20
0.0
 30
0.0
  0
XRECORD
  5
1A88
102
{ACAD_REACTORS
330
1A69
102
}
330
1A69
100
AcDbXrecord
 10
0.0
 20
0.0
 30
0.0
  0
XRECORD
  5
1A86
102
{ACAD_REACTORS
330
1A69
102
}
330
1A69
100
AcDbXrecord
 10
0.0
 20
0.0
 30
0.0
  0
XRECORD
  5
1A87
102
{ACAD_REACTORS
330
1A69
102
}
330
1A69
100
AcDbXrecord
 10
0.0
 20
0.0
 30
0.0
  0
XRECORD
  5
1A84
102
{ACAD_REACTORS
330
1A69
102
}
330
1A69
100
AcDbXrecord
 10
0.0
 20
0.0
 30
0.0
  0
XRECORD
  5
1A81
102
{ACAD_REACTORS
330
1A69
102
}
330
1A69
100
AcDbXrecord
340
0
  0
XRECORD
  5
1A82
102
{ACAD_REACTORS
330
1A69
102
}
330
1A69
100
AcDbXrecord
 70
     0
  0
XRECORD
  5
1A75
102
{ACAD_REACTORS
330
1A69
102
}
330
1A69
100
AcDbXrecord
  1
{13C607E5-2DB9-4E86-B3C9-D42FC2309725}
  0
XRECORD
  5
560
102
{ACAD_REACTORS
330
540
102
}
330
540
100
AcDbXrecord
  1
2.0.0
  0
ENDSEC
  0
EOF
