  0
SECTION
  2
HEADER
  9
$ACADVER
  1
AC1014
  9
$ACADMAINTVER
 70
     9
  9
$DWGCODEPAGE
  3
ANSI_932
  9
$INSBASE
 10
0.0
 20
0.0
 30
0.0
  9
$EXTMIN
 10
-66.41484262
 20
-31.71713736
 30
-0.00152582
  9
$EXTMAX
 10
148.00312582
 20
61.02264515
 30
0.00000003
  9
$LIMMIN
 10
0.0
 20
0.0
  9
$LIMMAX
 10
420.0
 20
297.0
  9
$ORTHOMODE
 70
     0
  9
$REGENMODE
 70
     1
  9
$FILLMODE
 70
     1
  9
$QTEXTMODE
 70
     0
  9
$MIRRTEXT
 70
     1
  9
$DRAGMODE
 70
     2
  9
$LTSCALE
 40
10.0
  9
$OSMODE
 70
   549
  9
$ATTMODE
 70
     1
  9
$TEXTSIZE
 40
3.0
  9
$TRACEWID
 40
1.0
  9
$TEXTSTYLE
  7
YOKO
  9
$CLAYER
  8
245
  9
$CELTYPE
  6
BYLAYER
  9
$CECOLOR
 62
   256
  9
$CELTSCALE
 40
1.0
  9
$DELOBJ
 70
     1
  9
$DISPSILH
 70
     0
  9
$DIMSCALE
 40
1.0
  9
$DIMASZ
 40
2.23
  9
$DIMEXO
 40
0.5
  9
$DIMDLI
 40
2.5
  9
$DIMRND
 40
0.0
  9
$DIMDLE
 40
0.0
  9
$DIMEXE
 40
1.0
  9
$DIMTP
 40
0.0
  9
$DIMTM
 40
0.0
  9
$DIMTXT
 40
2.8
  9
$DIMCEN
 40
0.0
  9
$DIMTSZ
 40
0.0
  9
$DIMTOL
 70
     0
  9
$DIMLIM
 70
     0
  9
$DIMTIH
 70
     0
  9
$DIMTOH
 70
     0
  9
$DIMSE1
 70
     0
  9
$DIMSE2
 70
     0
  9
$DIMTAD
 70
     3
  9
$DIMZIN
 70
     8
  9
$DIMBLK
  1

  9
$DIMASO
 70
     1
  9
$DIMSHO
 70
     1
  9
$DIMPOST
  1

  9
$DIMAPOST
  1

  9
$DIMALT
 70
     0
  9
$DIMALTD
 70
     2
  9
$DIMALTF
 40
25.4
  9
$DIMLFAC
 40
1.0
  9
$DIMTOFL
 70
     1
  9
$DIMTVP
 40
0.0
  9
$DIMTIX
 70
     1
  9
$DIMSOXD
 70
     0
  9
$DIMSAH
 70
     1
  9
$DIMBLK1
  1
OPEN
  9
$DIMBLK2
  1
OPEN
  9
$DIMSTYLE
  2
BIGT
  9
$DIMCLRD
 70
   256
  9
$DIMCLRE
 70
   256
  9
$DIMCLRT
 70
    40
  9
$DIMTFAC
 40
1.0
  9
$DIMGAP
 40
1.0
  9
$DIMJUST
 70
     0
  9
$DIMSD1
 70
     0
  9
$DIMSD2
 70
     0
  9
$DIMTOLJ
 70
     1
  9
$DIMTZIN
 70
     8
  9
$DIMALTZ
 70
     0
  9
$DIMALTTZ
 70
     0
  9
$DIMFIT
 70
     3
  9
$DIMUPT
 70
     0
  9
$DIMUNIT
 70
     2
  9
$DIMDEC
 70
     3
  9
$DIMTDEC
 70
     3
  9
$DIMALTU
 70
     2
  9
$DIMALTTD
 70
     2
  9
$DIMTXSTY
  7
STANDARD
  9
$DIMAUNIT
 70
     0
  9
$LUNITS
 70
     2
  9
$LUPREC
 70
     3
  9
$SKETCHINC
 40
1.0
  9
$FILLETRAD
 40
1.6
  9
$AUNITS
 70
     0
  9
$AUPREC
 70
     3
  9
$MENU
  1
.
  9
$ELEVATION
 40
0.0
  9
$PELEVATION
 40
0.0
  9
$THICKNESS
 40
0.0
  9
$LIMCHECK
 70
     0
  9
$BLIPMODE
 70
     0
  9
$CHAMFERA
 40
10.0
  9
$CHAMFERB
 40
10.0
  9
$CHAMFERC
 40
0.0
  9
$CHAMFERD
 40
0.0
  9
$SKPOLY
 70
     0
  9
$TDCREATE
 40
2455141.431522523
  9
$TDUPDATE
 40
2455383.436743345
  9
$TDINDWG
 40
0.0152678356
  9
$TDUSRTIMER
 40
0.0152678356
  9
$USRTIMER
 70
     1
  9
$ANGBASE
 50
0.0
  9
$ANGDIR
 70
     0
  9
$PDMODE
 70
     1
  9
$PDSIZE
 40
-5.0
  9
$PLINEWID
 40
0.0
  9
$COORDS
 70
     0
  9
$SPLFRAME
 70
     0
  9
$SPLINETYPE
 70
     6
  9
$SPLINESEGS
 70
     8
  9
$ATTDIA
 70
     0
  9
$ATTREQ
 70
     1
  9
$HANDLING
 70
-16383
  9
$HANDSEED
  5
133F
  9
$SURFTAB1
 70
     6
  9
$SURFTAB2
 70
     6
  9
$SURFTYPE
 70
     6
  9
$SURFU
 70
     6
  9
$SURFV
 70
     6
  9
$UCSNAME
  2

  9
$UCSORG
 10
0.0
 20
0.0
 30
0.0
  9
$UCSXDIR
 10
1.0
 20
0.0
 30
0.0
  9
$UCSYDIR
 10
0.0
 20
1.0
 30
0.0
  9
$PUCSNAME
  2

  9
$PUCSORG
 10
0.0
 20
0.0
 30
0.0
  9
$PUCSXDIR
 10
1.0
 20
0.0
 30
0.0
  9
$PUCSYDIR
 10
0.0
 20
1.0
 30
0.0
  9
$USERI1
 70
     1
  9
$USERI2
 70
     0
  9
$USERI3
 70
     0
  9
$USERI4
 70
     0
  9
$USERI5
 70
     0
  9
$USERR1
 40
0.0
  9
$USERR2
 40
0.0
  9
$USERR3
 40
0.0
  9
$USERR4
 40
0.0
  9
$USERR5
 40
0.0
  9
$WORLDVIEW
 70
     1
  9
$SHADEDGE
 70
     3
  9
$SHADEDIF
 70
    70
  9
$TILEMODE
 70
     1
  9
$MAXACTVP
 70
    16
  9
$PINSBASE
 10
0.0
 20
0.0
 30
0.0
  9
$PLIMCHECK
 70
     0
  9
$PEXTMIN
 10
1.00000000E+20
 20
1.00000000E+20
 30
1.00000000E+20
  9
$PEXTMAX
 10
-1.00000000E+20
 20
-1.00000000E+20
 30
-1.00000000E+20
  9
$PLIMMIN
 10
0.0
 20
0.0
  9
$PLIMMAX
 10
420.0
 20
297.0
  9
$UNITMODE
 70
     0
  9
$VISRETAIN
 70
     0
  9
$PLINEGEN
 70
     0
  9
$PSLTSCALE
 70
     1
  9
$TREEDEPTH
 70
  3020
  9
$PICKSTYLE
 70
     0
  9
$CMLSTYLE
  2
STANDARD
  9
$CMLJUST
 70
     0
  9
$CMLSCALE
 40
1.0
  9
$PROXYGRAPHICS
 70
     1
  9
$MEASUREMENT
 70
     1
  0
ENDSEC
  0
SECTION
  2
CLASSES
  0
CLASS
  1
XRECORD
  2
AcDbXrecord
  3
AutoCAD 2000
 90
        0
280
     0
281
     0
  0
CLASS
  1
ACDBDICTIONARYWDFLT
  2
AcDbDictionaryWithDefault
  3
AutoCAD 2000
 90
        0
280
     0
281
     0
  0
CLASS
  1
ACDBPLACEHOLDER
  2
AcDbPlaceHolder
  3
AutoCAD 2000
 90
        0
280
     0
281
     0
  0
CLASS
  1
LAYOUT
  2
AcDbLayout
  3
AutoCAD 2000
 90
        0
280
     0
281
     0
  0
CLASS
  1
PLOTSETTINGS
  2
AcDbPlotSettings
  3
AutoCAD 2000
 90
        0
280
     0
281
     0
  0
CLASS
  1
LONG_TRANSACTION
  2
AcDbLongTransaction
  3
AutoCAD 2000
 90
        0
280
     0
281
     0
  0
CLASS
  1
LWPOLYLINE
  2
AcDbPolyline
  3
AutoCAD 2000
 90
        0
280
     0
281
     1
  0
CLASS
  1
HATCH
  2
AcDbHatch
  3
AutoCAD 2000
 90
        0
280
     0
281
     1
  0
CLASS
  1
XRECORD
  2
AcDbXrecord
  3
AutoCAD 2000
 90
        0
280
     0
281
     0
  0
CLASS
  1
LONG_TRANSACTION
  2
AcDbLongTransaction
  3
AutoCAD 2000
 90
        0
280
     0
281
     0
  0
CLASS
  1
LWPOLYLINE
  2
AcDbPolyline
  3
AutoCAD 2000
 90
        0
280
     0
281
     1
  0
CLASS
  1
HATCH
  2
AcDbHatch
  3
AutoCAD 2000
 90
        0
280
     0
281
     1
  0
CLASS
  1
XRECORD
  2
AcDbXrecord
  3
AutoCAD 2000
 90
        0
280
     0
281
     0
  0
ENDSEC
  0
SECTION
  2
TABLES
  0
TABLE
  2
VPORT
  5
8
330
0
100
AcDbSymbolTable
 70
     2
  0
VPORT
  5
131A
330
8
100
AcDbSymbolTableRecord
100
AcDbViewportTableRecord
  2
*ACTIVE
 70
     0
 10
0.0
 20
0.0
 11
1.0
 21
1.0
 12
40.7941416
 22
14.65275389
 13
0.0
 23
0.0
 14
7.0
 24
7.0
 15
7.0
 25
7.0
 16
0.0
 26
0.0
 36
1.0
 17
0.0
 27
0.0
 37
0.0
 40
148.05439877
 41
1.45595855
 42
50.0
 43
0.0
 44
0.0
 50
0.0
 51
0.0
 71
     0
 72
  2000
 73
     1
 74
     0
 75
     0
 76
     0
 77
     0
 78
     0
  0
ENDTAB
  0
TABLE
  2
LTYPE
  5
5
330
0
100
AcDbSymbolTable
 70
     4
  0
LTYPE
  5
14
330
5
100
AcDbSymbolTableRecord
100
AcDbLinetypeTableRecord
  2
BYBLOCK
 70
     0
  3

 72
    65
 73
     0
 40
0.0
  0
LTYPE
  5
15
330
5
100
AcDbSymbolTableRecord
100
AcDbLinetypeTableRecord
  2
BYLAYER
 70
     0
  3

 72
    65
 73
     0
 40
0.0
  0
LTYPE
  5
16
330
5
100
AcDbSymbolTableRecord
100
AcDbLinetypeTableRecord
  2
CONTINUOUS
 70
     0
  3
Solid line
 72
    65
 73
     0
 40
0.0
  0
LTYPE
  5
258
330
5
100
AcDbSymbolTableRecord
100
AcDbLinetypeTableRecord
  2
CENTER2
 70
     0
  3
___ _ ___ _ ___ _ ___ _ ___ _ ___ _ ___ _ ___ _
 72
    65
 73
     4
 40
1.125
 49
0.75
 74
     0
 49
-0.125
 74
     0
 49
0.125
 74
     0
 49
-0.125
 74
     0
  0
LTYPE
  5
25C
330
5
100
AcDbSymbolTableRecord
100
AcDbLinetypeTableRecord
  2
HIDDEN2
 70
     0
  3
_ _ _ _ _ _ _ _ _ _ _ _ _ _ _ _ _ _ _ _ _ _ _ _
 72
    65
 73
     2
 40
0.1875
 49
0.125
 74
     0
 49
-0.0625
 74
     0
  0
LTYPE
  5
25D
330
5
100
AcDbSymbolTableRecord
100
AcDbLinetypeTableRecord
  2
PHANTOM2
 70
     0
  3
___ _ _ ___ _ _ ___ _ _ ___ _ _ ___ _ _ ___ _ _
 72
    65
 73
     6
 40
1.25
 49
0.625
 74
     0
 49
-0.125
 74
     0
 49
0.125
 74
     0
 49
-0.125
 74
     0
 49
0.125
 74
     0
 49
-0.125
 74
     0
  0
ENDTAB
  0
TABLE
  2
LAYER
  5
2
330
0
100
AcDbSymbolTable
 70
    11
  0
LAYER
  5
F
330
2
100
AcDbSymbolTableRecord
100
AcDbLayerTableRecord
  2
0
 70
     0
 62
     7
  6
CONTINUOUS
  0
LAYER
  5
1AA
330
2
100
AcDbSymbolTableRecord
100
AcDbLayerTableRecord
  2
240
 70
     0
 62
     4
  6
CONTINUOUS
  0
LAYER
  5
1AB
330
2
100
AcDbSymbolTableRecord
100
AcDbLayerTableRecord
  2
241
 70
     0
 62
   211
  6
CONTINUOUS
  0
LAYER
  5
1AF
330
2
100
AcDbSymbolTableRecord
100
AcDbLayerTableRecord
  2
245
 70
     0
 62
     2
  6
CENTER2
  0
LAYER
  5
21A
330
2
100
AcDbSymbolTableRecord
100
AcDbLayerTableRecord
  2
246
 70
     0
 62
     3
  6
PHANTOM2
  0
LAYER
  5
21E
330
2
100
AcDbSymbolTableRecord
100
AcDbLayerTableRecord
  2
250
 70
     0
 62
     3
  6
CONTINUOUS
  0
LAYER
  5
5C4
330
2
100
AcDbSymbolTableRecord
100
AcDbLayerTableRecord
  2
DEFPOINTS
 70
     0
 62
     7
  6
CONTINUOUS
  0
ENDTAB
  0
TABLE
  2
STYLE
  5
3
330
0
100
AcDbSymbolTable
 70
     2
  0
STYLE
  5
10
330
3
100
AcDbSymbolTableRecord
100
AcDbTextStyleTableRecord
  2
STANDARD
 70
     0
 40
0.0
 41
1.0
 50
0.0
 71
     0
 42
3.0
  3
romans.shx
  4
BIGFONT.SHX
  0
STYLE
  5
339
330
3
100
AcDbSymbolTableRecord
100
AcDbTextStyleTableRecord
  2
YOKO
 70
     0
 40
0.0
 41
1.0
 50
0.0
 71
     0
 42
3.0
  3
romans.shx
  4
extfont.shx
  0
ENDTAB
  0
TABLE
  2
VIEW
  5
6
330
0
100
AcDbSymbolTable
 70
     0
  0
ENDTAB
  0
TABLE
  2
UCS
  5
7
330
0
100
AcDbSymbolTable
 70
     0
  0
ENDTAB
  0
TABLE
  2
APPID
  5
9
330
0
100
AcDbSymbolTable
 70
    12
  0
APPID
  5
11
330
9
100
AcDbSymbolTableRecord
100
AcDbRegAppTableRecord
  2
ACAD
 70
     0
  0
APPID
  5
1B1
330
9
100
AcDbSymbolTableRecord
100
AcDbRegAppTableRecord
  2
GLOBAL
 70
     0
  0
APPID
  5
2A4
330
9
100
AcDbSymbolTableRecord
100
AcDbRegAppTableRecord
  2
DETAIL
 70
     0
  0
APPID
  5
5FD
330
9
100
AcDbSymbolTableRecord
100
AcDbRegAppTableRecord
  2
GRPNAME
 70
     0
  0
APPID
  5
5FE
330
9
100
AcDbSymbolTableRecord
100
AcDbRegAppTableRecord
  2
GPARA
 70
     0
  0
APPID
  5
6C4
330
9
100
AcDbSymbolTableRecord
100
AcDbRegAppTableRecord
  2
DCO15
 70
     0
  0
APPID
  5
6C5
330
9
100
AcDbSymbolTableRecord
100
AcDbRegAppTableRecord
  2
ITEMNAME
 70
     0
  0
APPID
  5
6C6
330
9
100
AcDbSymbolTableRecord
100
AcDbRegAppTableRecord
  2
GRADE_0
 70
     0
  0
APPID
  5
9E5
330
9
100
AcDbSymbolTableRecord
100
AcDbRegAppTableRecord
  2
HATCH_TYPE
 70
     0
  0
APPID
  5
9E6
330
9
100
AcDbSymbolTableRecord
100
AcDbRegAppTableRecord
  2
HATCH_DISPLAY
 70
     0
  0
APPID
  5
9E7
330
9
100
AcDbSymbolTableRecord
100
AcDbRegAppTableRecord
  2
HATCH_DISTANCE
 70
     0
  0
APPID
  5
F36
330
9
100
AcDbSymbolTableRecord
100
AcDbRegAppTableRecord
  2
CONTENTBLOCKICON
 70
     0
  0
ENDTAB
  0
TABLE
  2
DIMSTYLE
  5
A
330
0
100
AcDbSymbolTable
 70
     4
  0
DIMSTYLE
105
725
102
{ACAD_REACTORS
330
C88
330
C97
330
CA6
330
CB5
102
}
330
A
100
AcDbSymbolTableRecord
100
AcDbDimStyleTableRecord
  2
BIGT
 70
     0
  3

  4

  5

  6
OPEN
  7
OPEN
 40
1.0
 41
2.23
 42
0.5
 43
2.5
 44
1.0
 45
0.0
 46
0.0
 47
0.0
 48
0.0
140
2.8
141
0.0
142
0.0
143
25.4
144
1.0
145
0.0
146
1.0
147
1.0
 71
     0
 72
     0
 73
     0
 74
     0
 75
     0
 76
     0
 77
     3
 78
     8
170
     0
171
     2
172
     1
173
     1
174
     1
175
     0
176
   256
177
   256
178
    40
270
     2
271
     3
272
     3
273
     2
274
     2
340
10
275
     0
280
     0
281
     0
282
     0
283
     1
284
     8
285
     0
286
     0
287
     3
288
     0
  0
ENDTAB
  0
TABLE
  2
BLOCK_RECORD
  5
1
330
0
100
AcDbSymbolTable
 70
     8
  0
BLOCK_RECORD
  5
1A
102
{ACAD_XDICTIONARY
360
F34
102
}
330
1
100
AcDbSymbolTableRecord
100
AcDbBlockTableRecord
  2
*MODEL_SPACE
  0
BLOCK_RECORD
  5
17
102
{ACAD_XDICTIONARY
360
F32
102
}
330
1
100
AcDbSymbolTableRecord
100
AcDbBlockTableRecord
  2
*PAPER_SPACE
  0
BLOCK_RECORD
  5
594
330
1
100
AcDbSymbolTableRecord
100
AcDbBlockTableRecord
  2
_OPEN
  0
BLOCK_RECORD
  5
6E3
330
1
100
AcDbSymbolTableRecord
100
AcDbBlockTableRecord
  2
矢印なし
  0
BLOCK_RECORD
  5
C89
330
1
100
AcDbSymbolTableRecord
100
AcDbBlockTableRecord
  2
*D2
  0
BLOCK_RECORD
  5
C98
330
1
100
AcDbSymbolTableRecord
100
AcDbBlockTableRecord
  2
*D3
  0
BLOCK_RECORD
  5
CA7
330
1
100
AcDbSymbolTableRecord
100
AcDbBlockTableRecord
  2
*D4
  0
BLOCK_RECORD
  5
CB6
330
1
100
AcDbSymbolTableRecord
100
AcDbBlockTableRecord
  2
*D5
  0
BLOCK_RECORD
  5
CFD
330
1
100
AcDbSymbolTableRecord
100
AcDbBlockTableRecord
  2
1
1001
CONTENTBLOCKICON
1071
        0
1004
2800000020000000200000000100080000000000000400000000000000000000000000000000000000000000000080000080000000808000800000008000800080800000C0C0C000C0DCC000F0CAA6000020400000206000002080000020A0000020C0000020E00000400000004020000040400000406000004080000040A0
1004
000040C0000040E00000600000006020000060400000606000006080000060A0000060C0000060E00000800000008020000080400000806000008080000080A0000080C0000080E00000A0000000A0200000A0400000A0600000A0800000A0A00000A0C00000A0E00000C0000000C0200000C0400000C0600000C0800000C0
1004
A00000C0C00000C0E00000E0000000E0200000E0400000E0600000E0800000E0A00000E0C00000E0E00040000000400020004000400040006000400080004000A0004000C0004000E00040200000402020004020400040206000402080004020A0004020C0004020E000404000004040200040404000404060004040800040
1004
40A0004040C0004040E00040600000406020004060400040606000406080004060A0004060C0004060E00040800000408020004080400040806000408080004080A0004080C0004080E00040A0000040A0200040A0400040A0600040A0800040A0A00040A0C00040A0E00040C0000040C0200040C0400040C0600040C08000
1004
40C0A00040C0C00040C0E00040E0000040E0200040E0400040E0600040E0800040E0A00040E0C00040E0E00080000000800020008000400080006000800080008000A0008000C0008000E00080200000802020008020400080206000802080008020A0008020C0008020E00080400000804020008040400080406000804080
1004
008040A0008040C0008040E00080600000806020008060400080606000806080008060A0008060C0008060E00080800000808020008080400080806000808080008080A0008080C0008080E00080A0000080A0200080A0400080A0600080A0800080A0A00080A0C00080A0E00080C0000080C0200080C0400080C0600080C0
1004
800080C0A00080C0C00080C0E00080E0000080E0200080E0400080E0600080E0800080E0A00080E0C00080E0E000C0000000C0002000C0004000C0006000C0008000C000A000C000C000C000E000C0200000C0202000C0204000C0206000C0208000C020A000C020C000C020E000C0400000C0402000C0404000C0406000C0
1004
408000C040A000C040C000C040E000C0600000C0602000C0604000C0606000C0608000C060A000C060C000C060E000C0800000C0802000C0804000C0806000C0808000C080A000C080C000C080E000C0A00000C0A02000C0A04000C0A06000C0A08000C0A0A000C0A0C000C0A0E000C0C00000C0C02000C0C04000C0C06000
1004
C0C08000C0C0A000F0FBFF00A4A0A000808080000000FF0000FF000000FFFF00FF000000FF00FF00FFFF0000FFFFFF0000000000000000000000000000000000000000000000000000000000000000000000000000000000000000000000000000000000000000000000000000000000000000000000000000000000000000
1004
00000000000000000000000000000000000000000000000000000000000000000000000000000000000000000000000000000000000000000000000000000000000000000000000000000000000000000000000000000000000000000000000000000000000000000000000000000000000000000000000000000000000000
1004
00000000000000000000000000000000000000000000000000000000000000000000000000000000000000000000000000000000000000000000000000000000000000000000000000000000000000000000000000000000000000000000000000000000000000000000000000000000000000000000000000000000000000
1004
000000000000000000000000000000000000000000000000000000000000FEFEFBFE0000000000000000000000000000000000000000000000000000FEFEFEE7FEE7FEE7FE00000000000000000000000000000000000000FEFEFEFE0000E7E7E7E7E7E700FEFEFEFE000000000000000000000000FEFEFE000000000000E7
1004
E7E7E7E7E70000000000FEFEFEFEFEFEFEFA00000000FE0000000000000000E7E7E7E7E7E70000000000000000E700E7E7FE000000FBFEFBFBFBFBFBFBFBFBE7E7E7E7E7E7FBFBFBFBFBFBFBFBE7FBE7E7E7FB000000FEFEFE000000000000E7E7E7E7E7E70000000000FEFEFEFEFEFEFEE700000000000000FEFEFEFE0000
1004
E7E7E7E7E7E700FEFEFEFE00000000000000000000000000000000000000FEFEFEE7FEE7E7E7FE00000000000000000000000000000000000000000000000000FEFEFBFE0000000000000000000000000000000000000000000000000000000000000000000000000000000000000000000000000000000000000000000000
1004
00000000000000000000000000000000000000000000000000000000000000000000000000000000000000000000000000000000000000000000000000000000000000000000000000000000000000000000000000000000000000000000000000000000000000000000000000000000000000000000000000000000000000
1004
00000000000000000000000000000000000000000000000000000000000000000000000000000000000000000000000000000000000000000000000000000000000000000000000000000000000000000000000000000000000000000000000000000000000000000000000000000000000000000000000000000000000000
1004
0000000000000000000000000000000000000000000000000000000000000000000000000000000000000000000000000000000000000000
  0
ENDTAB
  0
ENDSEC
  0
SECTION
  2
BLOCKS
  0
BLOCK
  5
1B
330
1A
100
AcDbEntity
  8
0
100
AcDbBlockBegin
  2
*MODEL_SPACE
 70
     0
 10
0.0
 20
0.0
 30
0.0
  3
*MODEL_SPACE
  1

  0
ENDBLK
  5
1C
330
1A
100
AcDbEntity
  8
0
100
AcDbBlockEnd
  0
BLOCK
  5
18
330
17
100
AcDbEntity
 67
     1
  8
0
100
AcDbBlockBegin
  2
*PAPER_SPACE
 70
     0
 10
0.0
 20
0.0
 30
0.0
  3
*PAPER_SPACE
  1

  0
ENDBLK
  5
19
330
17
100
AcDbEntity
 67
     1
  8
0
100
AcDbBlockEnd
  0
BLOCK
  5
598
330
594
100
AcDbEntity
  8
0
100
AcDbBlockBegin
  2
_OPEN
 70
     0
 10
0.0
 20
0.0
 30
0.0
  3
_OPEN
  1

  0
LINE
  5
595
330
594
100
AcDbEntity
  8
0
  6
BYBLOCK
 62
     0
100
AcDbLine
 10
-1.0
 20
0.16666667
 30
0.0
 11
0.0
 21
0.0
 31
0.0
  0
LINE
  5
596
330
594
100
AcDbEntity
  8
0
  6
BYBLOCK
 62
     0
100
AcDbLine
 10
-1.0
 20
-0.16666667
 30
0.0
 11
0.0
 21
0.0
 31
0.0
  0
LINE
  5
597
330
594
100
AcDbEntity
  8
0
  6
BYBLOCK
 62
     0
100
AcDbLine
 10
0.0
 20
0.0
 30
0.0
 11
-1.0
 21
0.0
 31
0.0
  0
ENDBLK
  5
599
330
594
100
AcDbEntity
  8
0
100
AcDbBlockEnd
  0
BLOCK
  5
6E4
330
6E3
100
AcDbEntity
  8
0
100
AcDbBlockBegin
  2
矢印なし
 70
     0
 10
0.0
 20
0.0
 30
0.0
  3
矢印なし
  1

  0
ENDBLK
  5
6E5
330
6E3
100
AcDbEntity
  8
0
100
AcDbBlockEnd
  0
BLOCK
  5
C93
330
C89
100
AcDbEntity
  8
0
100
AcDbBlockBegin
  2
*D2
 70
     1
 10
0.0
 20
0.0
 30
0.0
  3
*D2
  1

  0
LINE
  5
CF4
330
C89
100
AcDbEntity
  8
250
  6
CONTINUOUS
100
AcDbLine
 10
135.5
 20
-12.5
 30
0.0
 11
148.0
 21
-12.5
 31
0.0
  0
LINE
  5
CF5
330
C89
100
AcDbEntity
  8
250
  6
CONTINUOUS
100
AcDbLine
 10
135.5
 20
12.5
 30
0.0
 11
148.0
 21
12.5
 31
0.0
  0
LINE
  5
CF6
330
C89
100
AcDbEntity
  8
250
  6
CONTINUOUS
100
AcDbLine
 10
147.0
 20
-10.27
 30
0.0
 11
147.0
 21
10.27
 31
0.0
  0
INSERT
  5
CF7
330
C89
100
AcDbEntity
  8
250
  6
CONTINUOUS
100
AcDbBlockReference
  2
_OPEN
 10
147.0
 20
-12.5
 30
0.0
 41
2.23
 42
2.23
 43
2.23
 50
270.0
  0
INSERT
  5
CF8
330
C89
100
AcDbEntity
  8
250
  6
CONTINUOUS
100
AcDbBlockReference
  2
_OPEN
 10
147.0
 20
12.5
 30
0.0
 41
2.23
 42
2.23
 43
2.23
 50
90.0
  0
MTEXT
  5
CF9
330
C89
100
AcDbEntity
  8
250
  6
CONTINUOUS
 62
    40
100
AcDbMText
 10
144.6
 20
0.0
 30
0.0
 40
2.8
 41
0.0
 71
     5
 72
     1
  1
\A1;{\H2.8;\U+2205}25
 11
0.0
 21
1.0
 31
0.0
1001
ACAD
1000
MTEXTBEGIN
1070
    73
1070
     1
1070
    44
1040
1.0
1070
    74
1070
     0
1000
MTEXTEND
1000
MTEXTBEGIN
1070
    73
1070
     1
1070
    44
1040
1.0
1070
    74
1070
     0
1000
MTEXTEND
  0
POINT
  5
CFA
330
C89
100
AcDbEntity
  8
DEFPOINTS
  6
CONTINUOUS
 62
     0
100
AcDbPoint
 10
135.0
 20
-12.5
 30
0.0
  0
POINT
  5
CFB
330
C89
100
AcDbEntity
  8
DEFPOINTS
  6
CONTINUOUS
 62
     0
100
AcDbPoint
 10
135.0
 20
12.5
 30
0.0
  0
POINT
  5
CFC
330
C89
100
AcDbEntity
  8
DEFPOINTS
  6
CONTINUOUS
 62
     0
100
AcDbPoint
 10
147.0
 20
12.5
 30
0.0
  0
ENDBLK
  5
C94
330
C89
100
AcDbEntity
  8
0
100
AcDbBlockEnd
  0
BLOCK
  5
CA2
330
C98
100
AcDbEntity
  8
0
100
AcDbBlockBegin
  2
*D3
 70
     1
 10
0.0
 20
0.0
 30
0.0
  3
*D3
  1

  0
LINE
  5
CEB
330
C98
100
AcDbEntity
  8
250
  6
CONTINUOUS
100
AcDbLine
 10
127.0
 20
13.0
 30
0.0
 11
127.0
 21
29.0
 31
0.0
  0
LINE
  5
CEC
330
C98
100
AcDbEntity
  8
250
  6
CONTINUOUS
100
AcDbLine
 10
135.0
 20
13.0
 30
0.0
 11
135.0
 21
29.0
 31
0.0
  0
LINE
  5
CED
330
C98
100
AcDbEntity
  8
250
  6
CONTINUOUS
100
AcDbLine
 10
129.23
 20
28.0
 30
0.0
 11
132.77
 21
28.0
 31
0.0
  0
INSERT
  5
CEE
330
C98
100
AcDbEntity
  8
250
  6
CONTINUOUS
100
AcDbBlockReference
  2
_OPEN
 10
127.0
 20
28.0
 30
0.0
 41
2.23
 42
2.23
 43
2.23
 50
180.0
  0
INSERT
  5
CEF
330
C98
100
AcDbEntity
  8
250
  6
CONTINUOUS
100
AcDbBlockReference
  2
_OPEN
 10
135.0
 20
28.0
 30
0.0
 41
2.23
 42
2.23
 43
2.23
  0
MTEXT
  5
CF0
330
C98
100
AcDbEntity
  8
250
  6
CONTINUOUS
 62
    40
100
AcDbMText
 10
131.0
 20
30.4
 30
0.0
 40
2.8
 41
0.0
 71
     5
 72
     1
  1
\A1;8
1001
ACAD
1000
MTEXTBEGIN
1070
    73
1070
     1
1070
    44
1040
1.0
1070
    74
1070
     0
1000
MTEXTEND
1000
MTEXTBEGIN
1070
    73
1070
     1
1070
    44
1040
1.0
1070
    74
1070
     0
1000
MTEXTEND
  0
POINT
  5
CF1
330
C98
100
AcDbEntity
  8
DEFPOINTS
  6
CONTINUOUS
 62
     0
100
AcDbPoint
 10
127.0
 20
12.5
 30
0.0
  0
POINT
  5
CF2
330
C98
100
AcDbEntity
  8
DEFPOINTS
  6
CONTINUOUS
 62
     0
100
AcDbPoint
 10
135.0
 20
12.5
 30
0.0
  0
POINT
  5
CF3
330
C98
100
AcDbEntity
  8
DEFPOINTS
  6
CONTINUOUS
 62
     0
100
AcDbPoint
 10
135.0
 20
28.0
 30
0.0
  0
ENDBLK
  5
CA3
330
C98
100
AcDbEntity
  8
0
100
AcDbBlockEnd
  0
BLOCK
  5
CB1
330
CA7
100
AcDbEntity
  8
0
100
AcDbBlockBegin
  2
*D4
 70
     1
 10
0.0
 20
0.0
 30
0.0
  3
*D4
  1

  0
LINE
  5
CE2
330
CA7
100
AcDbEntity
  8
250
  6
CONTINUOUS
100
AcDbLine
 10
100.0
 20
12.46621302
 30
0.0
 11
100.0
 21
36.0
 31
0.0
  0
LINE
  5
CE3
330
CA7
100
AcDbEntity
  8
250
  6
CONTINUOUS
100
AcDbLine
 10
135.0
 20
13.0
 30
0.0
 11
135.0
 21
36.0
 31
0.0
  0
LINE
  5
CE4
330
CA7
100
AcDbEntity
  8
250
  6
CONTINUOUS
100
AcDbLine
 10
102.23
 20
35.0
 30
0.0
 11
132.77
 21
35.0
 31
0.0
  0
INSERT
  5
CE5
330
CA7
100
AcDbEntity
  8
250
  6
CONTINUOUS
100
AcDbBlockReference
  2
_OPEN
 10
100.0
 20
35.0
 30
0.0
 41
2.23
 42
2.23
 43
2.23
 50
180.0
  0
INSERT
  5
CE6
330
CA7
100
AcDbEntity
  8
250
  6
CONTINUOUS
100
AcDbBlockReference
  2
_OPEN
 10
135.0
 20
35.0
 30
0.0
 41
2.23
 42
2.23
 43
2.23
  0
MTEXT
  5
CE7
330
CA7
100
AcDbEntity
  8
250
  6
CONTINUOUS
 62
    40
100
AcDbMText
 10
117.5
 20
37.4
 30
0.0
 40
2.8
 41
0.0
 71
     5
 72
     1
  1
\A1;35
1001
ACAD
1000
MTEXTBEGIN
1070
    73
1070
     1
1070
    44
1040
1.0
1070
    74
1070
     0
1000
MTEXTEND
1000
MTEXTBEGIN
1070
    73
1070
     1
1070
    44
1040
1.0
1070
    74
1070
     0
1000
MTEXTEND
  0
POINT
  5
CE8
330
CA7
100
AcDbEntity
  8
DEFPOINTS
  6
CONTINUOUS
 62
     0
100
AcDbPoint
 10
100.0
 20
11.96621302
 30
0.0
  0
POINT
  5
CE9
330
CA7
100
AcDbEntity
  8
DEFPOINTS
  6
CONTINUOUS
 62
     0
100
AcDbPoint
 10
135.0
 20
12.5
 30
0.0
  0
POINT
  5
CEA
330
CA7
100
AcDbEntity
  8
DEFPOINTS
  6
CONTINUOUS
 62
     0
100
AcDbPoint
 10
135.0
 20
35.0
 30
0.0
  0
ENDBLK
  5
CB2
330
CA7
100
AcDbEntity
  8
0
100
AcDbBlockEnd
  0
BLOCK
  5
CC0
330
CB6
100
AcDbEntity
  8
0
100
AcDbBlockBegin
  2
*D5
 70
     1
 10
0.0
 20
0.0
 30
0.0
  3
*D5
  1

  0
LINE
  5
CD9
330
CB6
100
AcDbEntity
  8
250
  6
CONTINUOUS
100
AcDbLine
 10
0.0
 20
22.725
 30
0.0
 11
0.0
 21
43.0
 31
0.0
  0
LINE
  5
CDA
330
CB6
100
AcDbEntity
  8
250
  6
CONTINUOUS
100
AcDbLine
 10
135.0
 20
13.0
 30
0.0
 11
135.0
 21
43.0
 31
0.0
  0
LINE
  5
CDB
330
CB6
100
AcDbEntity
  8
250
  6
CONTINUOUS
100
AcDbLine
 10
2.23
 20
42.0
 30
0.0
 11
132.77
 21
42.0
 31
0.0
  0
INSERT
  5
CDC
330
CB6
100
AcDbEntity
  8
250
  6
CONTINUOUS
100
AcDbBlockReference
  2
_OPEN
 10
0.0
 20
42.0
 30
0.0
 41
2.23
 42
2.23
 43
2.23
 50
180.0
  0
INSERT
  5
CDD
330
CB6
100
AcDbEntity
  8
250
  6
CONTINUOUS
100
AcDbBlockReference
  2
_OPEN
 10
135.0
 20
42.0
 30
0.0
 41
2.23
 42
2.23
 43
2.23
  0
MTEXT
  5
CDE
330
CB6
100
AcDbEntity
  8
250
  6
CONTINUOUS
 62
    40
100
AcDbMText
 10
67.5
 20
44.4
 30
0.0
 40
2.8
 41
0.0
 71
     5
 72
     1
  1
\A1;135
1001
ACAD
1000
MTEXTBEGIN
1070
    73
1070
     1
1070
    44
1040
1.0
1070
    74
1070
     0
1000
MTEXTEND
1000
MTEXTBEGIN
1070
    73
1070
     1
1070
    44
1040
1.0
1070
    74
1070
     0
1000
MTEXTEND
  0
POINT
  5
CDF
330
CB6
100
AcDbEntity
  8
DEFPOINTS
  6
CONTINUOUS
 62
     0
100
AcDbPoint
 10
0.0
 20
22.225
 30
0.0
  0
POINT
  5
CE0
330
CB6
100
AcDbEntity
  8
DEFPOINTS
  6
CONTINUOUS
 62
     0
100
AcDbPoint
 10
135.0
 20
12.5
 30
0.0
  0
POINT
  5
CE1
330
CB6
100
AcDbEntity
  8
DEFPOINTS
  6
CONTINUOUS
 62
     0
100
AcDbPoint
 10
135.0
 20
42.0
 30
0.0
  0
ENDBLK
  5
CC1
330
CB6
100
AcDbEntity
  8
0
100
AcDbBlockEnd
  0
BLOCK
  5
CFE
330
CFD
100
AcDbEntity
  8
0
100
AcDbBlockBegin
  2
1
 70
     0
 10
0.0
 20
0.0
 30
0.0
  3
1
  1

  0
LINE
  5
11C1
330
CFD
100
AcDbEntity
  8
240
  6
CONTINUOUS
100
AcDbLine
 10
21.6
 20
31.5
 30
0.0
 11
26.0
 21
31.5
 31
0.0
  0
LINE
  5
11C2
330
CFD
100
AcDbEntity
  8
240
  6
CONTINUOUS
100
AcDbLine
 10
21.6
 20
-31.5
 30
0.0
 11
26.0
 21
-31.5
 31
0.0
  0
LINE
  5
11C3
330
CFD
100
AcDbEntity
  8
245
100
AcDbLine
 10
-66.4
 20
0.0
 30
0.0
 11
136.0
 21
0.0
 31
0.0
  0
LINE
  5
11C4
330
CFD
100
AcDbEntity
  8
241
  6
HIDDEN2
100
AcDbLine
 10
23.0
 20
22.5
 30
0.0
 11
23.0
 21
31.5
 31
0.0
  0
LINE
  5
11C5
330
CFD
100
AcDbEntity
  8
240
  6
CONTINUOUS
100
AcDbLine
 10
21.6
 20
31.5
 30
0.0
 11
18.71324865
 21
26.5
 31
0.0
  0
LINE
  5
11C6
330
CFD
100
AcDbEntity
  8
240
  6
CONTINUOUS
100
AcDbLine
 10
1.0
 20
22.225
 30
0.0
 11
1.0
 21
30.5
 31
0.0
  0
LINE
  5
11C7
330
CFD
100
AcDbEntity
  8
240
  6
CONTINUOUS
100
AcDbLine
 10
11.6
 20
31.5
 30
0.0
 11
14.48675135
 21
26.5
 31
0.0
  0
LINE
  5
11C8
330
CFD
100
AcDbEntity
  8
241
  6
CONTINUOUS
100
AcDbLine
 10
11.6
 20
31.5
 30
0.0
 11
11.6
 21
0.0
 31
0.0
  0
LINE
  5
11C9
330
CFD
100
AcDbEntity
  8
241
  6
CONTINUOUS
100
AcDbLine
 10
21.6
 20
0.0
 30
0.0
 11
21.6
 21
31.5
 31
0.0
  0
LINE
  5
11CA
330
CFD
100
AcDbEntity
  8
245
  6
CENTER2
100
AcDbLine
 10
16.6
 20
-31.5
 30
0.0
 11
16.6
 21
31.5
 31
0.0
  0
LINE
  5
11CB
330
CFD
100
AcDbEntity
  8
240
  6
CONTINUOUS
100
AcDbLine
 10
0.0
 20
-22.225
 30
0.0
 11
-64.03089103
 21
-12.88716173
 31
0.0
  0
LINE
  5
11CC
330
CFD
100
AcDbEntity
  8
240
  6
CONTINUOUS
100
AcDbLine
 10
0.0
 20
22.225
 30
0.0
 11
-64.03089103
 21
12.88716173
 31
0.0
  0
LINE
  5
11CD
330
CFD
100
AcDbEntity
  8
240
  6
CONTINUOUS
100
AcDbLine
 10
-65.4
 20
11.30390896
 30
0.0
 11
-65.4
 21
0.0
 31
0.0
  0
LINE
  5
11CE
330
CFD
100
AcDbEntity
  8
240
  6
CONTINUOUS
100
AcDbLine
 10
-65.4
 20
-11.30390896
 30
0.0
 11
-65.4
 21
0.0
 31
0.0
  0
ARC
  5
11CF
330
CFD
100
AcDbEntity
  8
240
  6
CONTINUOUS
100
AcDbCircle
 10
-63.8
 20
-11.30390896
 30
0.0
 40
1.6
100
AcDbArc
 50
180.0
 51
261.70285503
  0
ARC
  5
11D0
330
CFD
100
AcDbEntity
  8
240
  6
CONTINUOUS
100
AcDbCircle
 10
-63.8
 20
11.30390896
 30
0.0
 40
1.6
100
AcDbArc
 50
98.29714497
 51
180.0
  0
LINE
  5
11D1
330
CFD
100
AcDbEntity
  8
241
  6
CONTINUOUS
100
AcDbLine
 10
0.0
 20
-22.225
 30
0.0
 11
0.0
 21
0.0
 31
0.0
  0
LINE
  5
11D2
330
CFD
100
AcDbEntity
  8
241
100
AcDbLine
 10
1.0
 20
0.0
 30
0.0
 11
1.0
 21
-22.225
 31
0.0
  0
LINE
  5
11D3
330
CFD
100
AcDbEntity
  8
241
  6
CONTINUOUS
100
AcDbLine
 10
11.6
 20
-31.5
 30
0.0
 11
11.6
 21
0.0
 31
0.0
  0
LINE
  5
11D4
330
CFD
100
AcDbEntity
  8
241
  6
CONTINUOUS
100
AcDbLine
 10
21.6
 20
0.0
 30
0.0
 11
21.6
 21
-31.5
 31
0.0
  0
LINE
  5
11D5
330
CFD
100
AcDbEntity
  8
241
  6
CONTINUOUS
100
AcDbLine
 10
18.71324865
 20
-26.5
 30
0.0
 11
18.71324865
 21
0.0
 31
0.0
  0
LINE
  5
11D6
330
CFD
100
AcDbEntity
  8
241
  6
CONTINUOUS
100
AcDbLine
 10
14.48675135
 20
-26.5
 30
0.0
 11
14.48675135
 21
0.0
 31
0.0
  0
LINE
  5
11D7
330
CFD
100
AcDbEntity
  8
241
  6
HIDDEN2
100
AcDbLine
 10
23.0
 20
-22.5
 30
0.0
 11
1.0
 21
-22.5
 31
0.0
  0
LINE
  5
11D8
330
CFD
100
AcDbEntity
  8
240
  6
CONTINUOUS
100
AcDbLine
 10
2.0
 20
-31.5
 30
0.0
 11
11.6
 21
-31.5
 31
0.0
  0
LINE
  5
11D9
330
CFD
100
AcDbEntity
  8
240
  6
CONTINUOUS
100
AcDbLine
 10
1.0
 20
-22.225
 30
0.0
 11
1.0
 21
-30.5
 31
0.0
  0
ARC
  5
11DA
330
CFD
100
AcDbEntity
  8
240
  6
CONTINUOUS
100
AcDbCircle
 10
2.0
 20
-30.5
 30
0.0
 40
1.0
100
AcDbArc
 50
180.0
 51
270.0
  0
LINE
  5
11DB
330
CFD
100
AcDbEntity
  8
240
100
AcDbLine
 10
0.0
 20
-22.225
 30
0.0
 11
1.0
 21
-22.225
 31
0.0
  0
LINE
  5
11DC
330
CFD
100
AcDbEntity
  8
240
  6
CONTINUOUS
100
AcDbLine
 10
18.71324865
 20
-26.5
 30
0.0
 11
14.48675135
 21
-26.5
 31
0.0
  0
LINE
  5
11DD
330
CFD
100
AcDbEntity
  8
240
  6
CONTINUOUS
100
AcDbLine
 10
14.48675135
 20
-26.5
 30
0.0
 11
11.6
 21
-31.5
 31
0.0
  0
LINE
  5
11DE
330
CFD
100
AcDbEntity
  8
240
  6
CONTINUOUS
100
AcDbLine
 10
18.71324865
 20
-26.5
 30
0.0
 11
21.6
 21
-31.5
 31
0.0
  0
LINE
  5
11DF
330
CFD
100
AcDbEntity
  8
241
  6
HIDDEN2
100
AcDbLine
 10
23.0
 20
-22.5
 30
0.0
 11
23.0
 21
-31.5
 31
0.0
  0
LINE
  5
11E0
330
CFD
100
AcDbEntity
  8
241
  6
CONTINUOUS
100
AcDbLine
 10
14.48675135
 20
26.5
 30
0.0
 11
14.48675135
 21
0.0
 31
0.0
  0
LINE
  5
11E1
330
CFD
100
AcDbEntity
  8
241
  6
CONTINUOUS
100
AcDbLine
 10
18.71324865
 20
26.5
 30
0.0
 11
18.71324865
 21
0.0
 31
0.0
  0
LINE
  5
11E2
330
CFD
100
AcDbEntity
  8
241
  6
CONTINUOUS
100
AcDbLine
 10
0.0
 20
22.225
 30
0.0
 11
0.0
 21
0.0
 31
0.0
  0
LINE
  5
11E3
330
CFD
100
AcDbEntity
  8
241
100
AcDbLine
 10
1.0
 20
0.0
 30
0.0
 11
1.0
 21
22.225
 31
0.0
  0
LINE
  5
11E4
330
CFD
100
AcDbEntity
  8
241
  6
HIDDEN2
100
AcDbLine
 10
23.0
 20
22.5
 30
0.0
 11
1.0
 21
22.5
 31
0.0
  0
LINE
  5
11E5
330
CFD
100
AcDbEntity
  8
240
100
AcDbLine
 10
0.0
 20
22.225
 30
0.0
 11
1.0
 21
22.225
 31
0.0
  0
LINE
  5
11E6
330
CFD
100
AcDbEntity
  8
240
  6
CONTINUOUS
100
AcDbLine
 10
18.71324865
 20
26.5
 30
0.0
 11
14.48675135
 21
26.5
 31
0.0
  0
LINE
  5
11E7
330
CFD
100
AcDbEntity
  8
240
  6
CONTINUOUS
100
AcDbLine
 10
2.0
 20
31.5
 30
0.0
 11
11.6
 21
31.5
 31
0.0
  0
ARC
  5
11E8
330
CFD
100
AcDbEntity
  8
240
  6
CONTINUOUS
100
AcDbCircle
 10
2.0
 20
30.5
 30
0.0
 40
1.0
100
AcDbArc
 50
90.0
 51
180.0
  0
LINE
  5
11E9
330
CFD
100
AcDbEntity
  8
241
  6
CONTINUOUS
100
AcDbLine
 10
27.0
 20
0.0
 30
0.0
 11
27.0
 21
30.0
 31
0.0
  0
ARC
  5
11EA
330
CFD
100
AcDbEntity
  8
240
  6
CONTINUOUS
100
AcDbCircle
 10
32.0
 20
30.0
 30
0.0
 40
5.0
100
AcDbArc
 50
180.0
 51
259.16424586
  0
ARC
  5
11EB
330
CFD
100
AcDbEntity
  8
240
100
AcDbCircle
 10
103.59527927
 20
-41.75
 30
0.0
 40
30.0
100
AcDbArc
 50
90.0
 51
100.83575414
  0
ARC
  5
11EC
330
CFD
100
AcDbEntity
  8
240
100
AcDbCircle
 10
103.59527927
 20
41.75
 30
0.0
 40
30.0
100
AcDbArc
 50
259.16424586
 51
270.0
  0
LINE
  5
11ED
330
CFD
100
AcDbEntity
  8
240
100
AcDbLine
 10
97.9554517
 20
-12.28489615
 30
0.0
 11
31.06002874
 21
-25.08914936
 31
0.0
  0
LINE
  5
11EE
330
CFD
100
AcDbEntity
  8
241
  6
CONTINUOUS
100
AcDbLine
 10
31.26030252
 20
-25.05081555
 30
0.0
 11
31.26030252
 21
0.0
 31
0.0
1001
GRPNAME
1000
PASTMD01
  0
LINE
  5
11EF
330
CFD
100
AcDbEntity
  8
241
  6
CONTINUOUS
100
AcDbLine
 10
32.43890668
 20
-24.82522245
 30
0.0
 11
32.43890668
 21
0.0
 31
0.0
1001
GRPNAME
1000
PASTMD01
  0
LINE
  5
11F0
330
CFD
100
AcDbEntity
  8
241
  6
CONTINUOUS
100
AcDbLine
 10
35.26030252
 20
-24.28518749
 30
0.0
 11
35.26030252
 21
0.0
 31
0.0
1001
GRPNAME
1000
PASTMD01
  0
LINE
  5
11F1
330
CFD
100
AcDbEntity
  8
241
  6
CONTINUOUS
100
AcDbLine
 10
36.43890668
 20
-24.05959439
 30
0.0
 11
36.43890668
 21
0.0
 31
0.0
1001
GRPNAME
1000
PASTMD01
  0
LINE
  5
11F2
330
CFD
100
AcDbEntity
  8
241
  6
CONTINUOUS
100
AcDbLine
 10
27.0
 20
0.0
 30
0.0
 11
27.0
 21
-30.0
 31
0.0
  0
ARC
  5
11F3
330
CFD
100
AcDbEntity
  8
240
  6
CONTINUOUS
100
AcDbCircle
 10
32.0
 20
-30.0
 30
0.0
 40
5.0
100
AcDbArc
 50
100.83575414
 51
180.0
  0
LINE
  5
11F4
330
CFD
100
AcDbEntity
  8
240
  6
CONTINUOUS
100
AcDbLine
 10
27.0
 20
-30.5
 30
0.0
 11
27.0
 21
-30.0
 31
0.0
  0
ARC
  5
11F5
330
CFD
100
AcDbEntity
  8
240
  6
CONTINUOUS
100
AcDbCircle
 10
26.0
 20
-30.5
 30
0.0
 40
1.0
100
AcDbArc
 50
270.0
 51
0.0
  0
LINE
  5
11F6
330
CFD
100
AcDbEntity
  8
240
100
AcDbLine
 10
97.9554517
 20
12.28489615
 30
0.0
 11
31.06002874
 21
25.08914936
 31
0.0
  0
LINE
  5
11F7
330
CFD
100
AcDbEntity
  8
241
  6
CONTINUOUS
100
AcDbLine
 10
36.43890668
 20
24.05959439
 30
0.0
 11
36.43890668
 21
0.0
 31
0.0
1001
GRPNAME
1000
PASTMD01
  0
LINE
  5
11F8
330
CFD
100
AcDbEntity
  8
241
  6
CONTINUOUS
100
AcDbLine
 10
35.26030252
 20
24.28518749
 30
0.0
 11
35.26030252
 21
0.0
 31
0.0
1001
GRPNAME
1000
PASTMD01
  0
LINE
  5
11F9
330
CFD
100
AcDbEntity
  8
241
  6
CONTINUOUS
100
AcDbLine
 10
32.43890668
 20
24.82522245
 30
0.0
 11
32.43890668
 21
0.0
 31
0.0
1001
GRPNAME
1000
PASTMD01
  0
LINE
  5
11FA
330
CFD
100
AcDbEntity
  8
241
  6
CONTINUOUS
100
AcDbLine
 10
31.26030252
 20
25.05081555
 30
0.0
 11
31.26030252
 21
0.0
 31
0.0
1001
GRPNAME
1000
PASTMD01
  0
LINE
  5
11FB
330
CFD
100
AcDbEntity
  8
241
100
AcDbLine
 10
100.75
 20
11.75
 30
0.0
 11
100.75
 21
0.0
 31
0.0
  0
LINE
  5
11FC
330
CFD
100
AcDbEntity
  8
241
100
AcDbLine
 10
100.75
 20
-11.75
 30
0.0
 11
100.75
 21
0.0
 31
0.0
  0
LINE
  5
11FD
330
CFD
100
AcDbEntity
  8
240
100
AcDbLine
 10
134.25
 20
11.89776928
 30
0.0
 11
134.25
 21
1.10421762
 31
0.0
  0
LINE
  5
11FE
330
CFD
100
AcDbEntity
  8
246
100
AcDbLine
 10
135.0
 20
12.5
 30
0.0
 11
135.0
 21
-12.5
 31
0.0
  0
LINE
  5
11FF
330
CFD
100
AcDbEntity
  8
241
100
AcDbLine
 10
123.75457206
 20
0.22641954
 30
0.0
 11
118.05081664
 21
1.23214551
 31
0.0
  0
LINE
  5
1200
330
CFD
100
AcDbEntity
  8
240
100
AcDbLine
 10
123.87806342
 20
-11.75
 30
0.0
 11
103.59527927
 21
-11.75
 31
0.0
  0
LINE
  5
1201
330
CFD
100
AcDbEntity
  8
241
100
AcDbLine
 10
116.51931253
 20
-5.04716552
 30
0.0
 11
134.1959231
 21
-10.59119153
 31
0.0
  0
ARC
  5
1202
330
CFD
100
AcDbEntity
  8
241
100
AcDbCircle
 10
117.48846337
 20
-1.95711833
 30
0.0
 40
3.238463372383665
100
AcDbArc
 50
79.9999824
 51
252.58666619
  0
LINE
  5
1203
330
CFD
100
AcDbEntity
  8
240
100
AcDbLine
 10
134.25
 20
-11.89776928
 30
0.0
 11
134.25
 21
-3.29502232
 31
0.0
  0
LINE
  5
1204
330
CFD
100
AcDbEntity
  8
240
100
AcDbLine
 10
134.25
 20
-11.89776928
 30
0.0
 11
125.18428122
 21
-12.1
 31
0.0
  0
LINE
  5
1205
330
CFD
100
AcDbEntity
  8
246
100
AcDbLine
 10
127.0
 20
-12.5
 30
0.0
 11
135.0
 21
-12.5
 31
0.0
  0
LINE
  5
1206
330
CFD
100
AcDbEntity
  8
240
100
AcDbLine
 10
123.87806342
 20
-11.75
 30
0.0
 11
125.18428122
 21
-12.1
 31
0.0
  0
LINE
  5
1207
330
CFD
100
AcDbEntity
  8
241
100
AcDbLine
 10
125.18428121
 20
2.70274844
 30
0.0
 11
134.17379259
 21
1.11765504
 31
0.0
  0
LINE
  5
1208
330
CFD
100
AcDbEntity
  8
241
100
AcDbLine
 10
123.89702364
 20
0.47315291
 30
0.0
 11
134.25
 21
-3.29502232
 31
0.0
  0
LINE
  5
1209
330
CFD
100
AcDbEntity
  8
241
100
AcDbLine
 10
125.18428121
 20
2.70274844
 30
0.0
 11
123.75457206
 21
0.22641954
 31
0.0
  0
LINE
  5
120A
330
CFD
100
AcDbEntity
  8
240
100
AcDbLine
 10
134.17379259
 20
1.11765504
 30
0.0
 11
135.0
 21
-3.568
 31
0.0
  0
LINE
  5
120B
330
CFD
100
AcDbEntity
  8
240
100
AcDbLine
 10
135.0
 20
-3.568
 30
0.0
 11
134.25
 21
-3.29502232
 31
0.0
  0
LINE
  5
120C
330
CFD
100
AcDbEntity
  8
240
100
AcDbLine
 10
134.25
 20
1.10421762
 30
0.0
 11
134.17379259
 21
1.11765504
 31
0.0
  0
LINE
  5
120D
330
CFD
100
AcDbEntity
  8
240
100
AcDbLine
 10
123.87806342
 20
11.75
 30
0.0
 11
103.59527927
 21
11.75
 31
0.0
  0
LINE
  5
120E
330
CFD
100
AcDbEntity
  8
240
100
AcDbLine
 10
134.25
 20
11.89776928
 30
0.0
 11
125.18428122
 21
12.1
 31
0.0
  0
POLYLINE
  5
120F
330
CFD
100
AcDbEntity
  8
241
100
AcDb3dPolyline
 66
     1
 10
0.0
 20
0.0
 30
0.0
 70
     8
  0
VERTEX
  5
1210
330
120F
100
AcDbEntity
  8
241
100
AcDbVertex
100
AcDb3dPolylineVertex
 10
131.513
 20
7.1272
 30
0.0
 70
    32
  0
VERTEX
  5
1211
330
120F
100
AcDbEntity
  8
241
100
AcDbVertex
100
AcDb3dPolylineVertex
 10
131.518
 20
7.16156
 30
0.0
 70
    32
  0
VERTEX
  5
1212
330
120F
100
AcDbEntity
  8
241
100
AcDbVertex
100
AcDb3dPolylineVertex
 10
131.523
 20
7.19605
 30
0.0
 70
    32
  0
VERTEX
  5
1213
330
120F
100
AcDbEntity
  8
241
100
AcDbVertex
100
AcDb3dPolylineVertex
 10
131.527
 20
7.23063
 30
0.0
 70
    32
  0
VERTEX
  5
1214
330
120F
100
AcDbEntity
  8
241
100
AcDbVertex
100
AcDb3dPolylineVertex
 10
131.53
 20
7.26529
 30
0.0
 70
    32
  0
VERTEX
  5
1215
330
120F
100
AcDbEntity
  8
241
100
AcDbVertex
100
AcDb3dPolylineVertex
 10
131.533
 20
7.30001
 30
0.0
 70
    32
  0
VERTEX
  5
1216
330
120F
100
AcDbEntity
  8
241
100
AcDbVertex
100
AcDb3dPolylineVertex
 10
131.534
 20
7.33477
 30
0.0
 70
    32
  0
VERTEX
  5
1217
330
120F
100
AcDbEntity
  8
241
100
AcDbVertex
100
AcDb3dPolylineVertex
 10
131.535
 20
7.36954
 30
0.0
 70
    32
  0
VERTEX
  5
1218
330
120F
100
AcDbEntity
  8
241
100
AcDbVertex
100
AcDb3dPolylineVertex
 10
131.535
 20
7.40431
 30
0.0
 70
    32
  0
VERTEX
  5
1219
330
120F
100
AcDbEntity
  8
241
100
AcDbVertex
100
AcDb3dPolylineVertex
 10
131.534
 20
7.43906
 30
0.0
 70
    32
  0
VERTEX
  5
121A
330
120F
100
AcDbEntity
  8
241
100
AcDbVertex
100
AcDb3dPolylineVertex
 10
131.533
 20
7.47375
 30
0.0
 70
    32
  0
VERTEX
  5
121B
330
120F
100
AcDbEntity
  8
241
100
AcDbVertex
100
AcDb3dPolylineVertex
 10
131.53
 20
7.50838
 30
0.0
 70
    32
  0
VERTEX
  5
121C
330
120F
100
AcDbEntity
  8
241
100
AcDbVertex
100
AcDb3dPolylineVertex
 10
131.527
 20
7.54292
 30
0.0
 70
    32
  0
VERTEX
  5
121D
330
120F
100
AcDbEntity
  8
241
100
AcDbVertex
100
AcDb3dPolylineVertex
 10
131.523
 20
7.57735
 30
0.0
 70
    32
  0
VERTEX
  5
121E
330
120F
100
AcDbEntity
  8
241
100
AcDbVertex
100
AcDb3dPolylineVertex
 10
131.518
 20
7.61166
 30
0.0
 70
    32
  0
VERTEX
  5
121F
330
120F
100
AcDbEntity
  8
241
100
AcDbVertex
100
AcDb3dPolylineVertex
 10
131.512
 20
7.64581
 30
0.0
 70
    32
  0
VERTEX
  5
1220
330
120F
100
AcDbEntity
  8
241
100
AcDbVertex
100
AcDb3dPolylineVertex
 10
131.506
 20
7.67979
 30
0.0
 70
    32
  0
VERTEX
  5
1221
330
120F
100
AcDbEntity
  8
241
100
AcDbVertex
100
AcDb3dPolylineVertex
 10
131.499
 20
7.71357
 30
0.0
 70
    32
  0
VERTEX
  5
1222
330
120F
100
AcDbEntity
  8
241
100
AcDbVertex
100
AcDb3dPolylineVertex
 10
131.49
 20
7.74715
 30
0.0
 70
    32
  0
VERTEX
  5
1223
330
120F
100
AcDbEntity
  8
241
100
AcDbVertex
100
AcDb3dPolylineVertex
 10
131.482
 20
7.78049
 30
0.0
 70
    32
  0
VERTEX
  5
1224
330
120F
100
AcDbEntity
  8
241
100
AcDbVertex
100
AcDb3dPolylineVertex
 10
131.472
 20
7.81358
 30
0.0
 70
    32
  0
VERTEX
  5
1225
330
120F
100
AcDbEntity
  8
241
100
AcDbVertex
100
AcDb3dPolylineVertex
 10
131.461
 20
7.8464
 30
0.0
 70
    32
  0
VERTEX
  5
1226
330
120F
100
AcDbEntity
  8
241
100
AcDbVertex
100
AcDb3dPolylineVertex
 10
131.45
 20
7.87893
 30
0.0
 70
    32
  0
VERTEX
  5
1227
330
120F
100
AcDbEntity
  8
241
100
AcDbVertex
100
AcDb3dPolylineVertex
 10
131.438
 20
7.91115
 30
0.0
 70
    32
  0
VERTEX
  5
1228
330
120F
100
AcDbEntity
  8
241
100
AcDbVertex
100
AcDb3dPolylineVertex
 10
131.426
 20
7.94303
 30
0.0
 70
    32
  0
VERTEX
  5
1229
330
120F
100
AcDbEntity
  8
241
100
AcDbVertex
100
AcDb3dPolylineVertex
 10
131.412
 20
7.97457
 30
0.0
 70
    32
  0
VERTEX
  5
122A
330
120F
100
AcDbEntity
  8
241
100
AcDbVertex
100
AcDb3dPolylineVertex
 10
131.398
 20
8.00573
 30
0.0
 70
    32
  0
VERTEX
  5
122B
330
120F
100
AcDbEntity
  8
241
100
AcDbVertex
100
AcDb3dPolylineVertex
 10
131.383
 20
8.03651
 30
0.0
 70
    32
  0
VERTEX
  5
122C
330
120F
100
AcDbEntity
  8
241
100
AcDbVertex
100
AcDb3dPolylineVertex
 10
131.367
 20
8.06688
 30
0.0
 70
    32
  0
VERTEX
  5
122D
330
120F
100
AcDbEntity
  8
241
100
AcDbVertex
100
AcDb3dPolylineVertex
 10
131.351
 20
8.09682
 30
0.0
 70
    32
  0
VERTEX
  5
122E
330
120F
100
AcDbEntity
  8
241
100
AcDbVertex
100
AcDb3dPolylineVertex
 10
131.334
 20
8.12633
 30
0.0
 70
    32
  0
VERTEX
  5
122F
330
120F
100
AcDbEntity
  8
241
100
AcDbVertex
100
AcDb3dPolylineVertex
 10
131.316
 20
8.15537
 30
0.0
 70
    32
  0
VERTEX
  5
1230
330
120F
100
AcDbEntity
  8
241
100
AcDbVertex
100
AcDb3dPolylineVertex
 10
131.298
 20
8.18393
 30
0.0
 70
    32
  0
VERTEX
  5
1231
330
120F
100
AcDbEntity
  8
241
100
AcDbVertex
100
AcDb3dPolylineVertex
 10
131.278
 20
8.212
 30
0.0
 70
    32
  0
VERTEX
  5
1232
330
120F
100
AcDbEntity
  8
241
100
AcDbVertex
100
AcDb3dPolylineVertex
 10
131.259
 20
8.23956
 30
0.0
 70
    32
  0
VERTEX
  5
1233
330
120F
100
AcDbEntity
  8
241
100
AcDbVertex
100
AcDb3dPolylineVertex
 10
131.238
 20
8.26659
 30
0.0
 70
    32
  0
VERTEX
  5
1234
330
120F
100
AcDbEntity
  8
241
100
AcDbVertex
100
AcDb3dPolylineVertex
 10
131.217
 20
8.29307
 30
0.0
 70
    32
  0
VERTEX
  5
1235
330
120F
100
AcDbEntity
  8
241
100
AcDbVertex
100
AcDb3dPolylineVertex
 10
131.195
 20
8.31899
 30
0.0
 70
    32
  0
VERTEX
  5
1236
330
120F
100
AcDbEntity
  8
241
100
AcDbVertex
100
AcDb3dPolylineVertex
 10
131.173
 20
8.34434
 30
0.0
 70
    32
  0
VERTEX
  5
1237
330
120F
100
AcDbEntity
  8
241
100
AcDbVertex
100
AcDb3dPolylineVertex
 10
131.15
 20
8.36909
 30
0.0
 70
    32
  0
VERTEX
  5
1238
330
120F
100
AcDbEntity
  8
241
100
AcDbVertex
100
AcDb3dPolylineVertex
 10
131.127
 20
8.39324
 30
0.0
 70
    32
  0
VERTEX
  5
1239
330
120F
100
AcDbEntity
  8
241
100
AcDbVertex
100
AcDb3dPolylineVertex
 10
131.103
 20
8.41676
 30
0.0
 70
    32
  0
VERTEX
  5
123A
330
120F
100
AcDbEntity
  8
241
100
AcDbVertex
100
AcDb3dPolylineVertex
 10
131.078
 20
8.43965
 30
0.0
 70
    32
  0
VERTEX
  5
123B
330
120F
100
AcDbEntity
  8
241
100
AcDbVertex
100
AcDb3dPolylineVertex
 10
131.053
 20
8.46189
 30
0.0
 70
    32
  0
VERTEX
  5
123C
330
120F
100
AcDbEntity
  8
241
100
AcDbVertex
100
AcDb3dPolylineVertex
 10
131.027
 20
8.48347
 30
0.0
 70
    32
  0
VERTEX
  5
123D
330
120F
100
AcDbEntity
  8
241
100
AcDbVertex
100
AcDb3dPolylineVertex
 10
131.001
 20
8.50437
 30
0.0
 70
    32
  0
VERTEX
  5
123E
330
120F
100
AcDbEntity
  8
241
100
AcDbVertex
100
AcDb3dPolylineVertex
 10
130.974
 20
8.52458
 30
0.0
 70
    32
  0
VERTEX
  5
123F
330
120F
100
AcDbEntity
  8
241
100
AcDbVertex
100
AcDb3dPolylineVertex
 10
130.947
 20
8.54409
 30
0.0
 70
    32
  0
VERTEX
  5
1240
330
120F
100
AcDbEntity
  8
241
100
AcDbVertex
100
AcDb3dPolylineVertex
 10
130.92
 20
8.56289
 30
0.0
 70
    32
  0
VERTEX
  5
1241
330
120F
100
AcDbEntity
  8
241
100
AcDbVertex
100
AcDb3dPolylineVertex
 10
130.892
 20
8.58097
 30
0.0
 70
    32
  0
VERTEX
  5
1242
330
120F
100
AcDbEntity
  8
241
100
AcDbVertex
100
AcDb3dPolylineVertex
 10
130.863
 20
8.59831
 30
0.0
 70
    32
  0
VERTEX
  5
1243
330
120F
100
AcDbEntity
  8
241
100
AcDbVertex
100
AcDb3dPolylineVertex
 10
130.834
 20
8.61491
 30
0.0
 70
    32
  0
VERTEX
  5
1244
330
120F
100
AcDbEntity
  8
241
100
AcDbVertex
100
AcDb3dPolylineVertex
 10
130.805
 20
8.63075
 30
0.0
 70
    32
  0
VERTEX
  5
1245
330
120F
100
AcDbEntity
  8
241
100
AcDbVertex
100
AcDb3dPolylineVertex
 10
130.775
 20
8.64583
 30
0.0
 70
    32
  0
VERTEX
  5
1246
330
120F
100
AcDbEntity
  8
241
100
AcDbVertex
100
AcDb3dPolylineVertex
 10
130.745
 20
8.66013
 30
0.0
 70
    32
  0
VERTEX
  5
1247
330
120F
100
AcDbEntity
  8
241
100
AcDbVertex
100
AcDb3dPolylineVertex
 10
130.715
 20
8.67365
 30
0.0
 70
    32
  0
VERTEX
  5
1248
330
120F
100
AcDbEntity
  8
241
100
AcDbVertex
100
AcDb3dPolylineVertex
 10
130.684
 20
8.68639
 30
0.0
 70
    32
  0
VERTEX
  5
1249
330
120F
100
AcDbEntity
  8
241
100
AcDbVertex
100
AcDb3dPolylineVertex
 10
130.653
 20
8.69832
 30
0.0
 70
    32
  0
VERTEX
  5
124A
330
120F
100
AcDbEntity
  8
241
100
AcDbVertex
100
AcDb3dPolylineVertex
 10
130.622
 20
8.70945
 30
0.0
 70
    32
  0
VERTEX
  5
124B
330
120F
100
AcDbEntity
  8
241
100
AcDbVertex
100
AcDb3dPolylineVertex
 10
130.591
 20
8.71976
 30
0.0
 70
    32
  0
VERTEX
  5
124C
330
120F
100
AcDbEntity
  8
241
100
AcDbVertex
100
AcDb3dPolylineVertex
 10
130.559
 20
8.72926
 30
0.0
 70
    32
  0
VERTEX
  5
124D
330
120F
100
AcDbEntity
  8
241
100
AcDbVertex
100
AcDb3dPolylineVertex
 10
130.527
 20
8.73794
 30
0.0
 70
    32
  0
VERTEX
  5
124E
330
120F
100
AcDbEntity
  8
241
100
AcDbVertex
100
AcDb3dPolylineVertex
 10
130.495
 20
8.74578
 30
0.0
 70
    32
  0
VERTEX
  5
124F
330
120F
100
AcDbEntity
  8
241
100
AcDbVertex
100
AcDb3dPolylineVertex
 10
130.462
 20
8.7528
 30
0.0
 70
    32
  0
VERTEX
  5
1250
330
120F
100
AcDbEntity
  8
241
100
AcDbVertex
100
AcDb3dPolylineVertex
 10
130.43
 20
8.75897
 30
0.0
 70
    32
  0
VERTEX
  5
1251
330
120F
100
AcDbEntity
  8
241
100
AcDbVertex
100
AcDb3dPolylineVertex
 10
130.397
 20
8.7643
 30
0.0
 70
    32
  0
VERTEX
  5
1252
330
120F
100
AcDbEntity
  8
241
100
AcDbVertex
100
AcDb3dPolylineVertex
 10
130.364
 20
8.76879
 30
0.0
 70
    32
  0
VERTEX
  5
1253
330
120F
100
AcDbEntity
  8
241
100
AcDbVertex
100
AcDb3dPolylineVertex
 10
130.331
 20
8.77243
 30
0.0
 70
    32
  0
VERTEX
  5
1254
330
120F
100
AcDbEntity
  8
241
100
AcDbVertex
100
AcDb3dPolylineVertex
 10
130.298
 20
8.77522
 30
0.0
 70
    32
  0
VERTEX
  5
1255
330
120F
100
AcDbEntity
  8
241
100
AcDbVertex
100
AcDb3dPolylineVertex
 10
130.265
 20
8.77716
 30
0.0
 70
    32
  0
VERTEX
  5
1256
330
120F
100
AcDbEntity
  8
241
100
AcDbVertex
100
AcDb3dPolylineVertex
 10
130.232
 20
8.77824
 30
0.0
 70
    32
  0
VERTEX
  5
1257
330
120F
100
AcDbEntity
  8
241
100
AcDbVertex
100
AcDb3dPolylineVertex
 10
130.199
 20
8.77848
 30
0.0
 70
    32
  0
VERTEX
  5
1258
330
120F
100
AcDbEntity
  8
241
100
AcDbVertex
100
AcDb3dPolylineVertex
 10
130.166
 20
8.77785
 30
0.0
 70
    32
  0
VERTEX
  5
1259
330
120F
100
AcDbEntity
  8
241
100
AcDbVertex
100
AcDb3dPolylineVertex
 10
130.132
 20
8.77638
 30
0.0
 70
    32
  0
VERTEX
  5
125A
330
120F
100
AcDbEntity
  8
241
100
AcDbVertex
100
AcDb3dPolylineVertex
 10
130.099
 20
8.77405
 30
0.0
 70
    32
  0
VERTEX
  5
125B
330
120F
100
AcDbEntity
  8
241
100
AcDbVertex
100
AcDb3dPolylineVertex
 10
130.066
 20
8.77088
 30
0.0
 70
    32
  0
VERTEX
  5
125C
330
120F
100
AcDbEntity
  8
241
100
AcDbVertex
100
AcDb3dPolylineVertex
 10
130.033
 20
8.76685
 30
0.0
 70
    32
  0
VERTEX
  5
125D
330
120F
100
AcDbEntity
  8
241
100
AcDbVertex
100
AcDb3dPolylineVertex
 10
130.0
 20
8.76198
 30
0.0
 70
    32
  0
VERTEX
  5
125E
330
120F
100
AcDbEntity
  8
241
100
AcDbVertex
100
AcDb3dPolylineVertex
 10
129.967
 20
8.75626
 30
0.0
 70
    32
  0
VERTEX
  5
125F
330
120F
100
AcDbEntity
  8
241
100
AcDbVertex
100
AcDb3dPolylineVertex
 10
129.935
 20
8.74971
 30
0.0
 70
    32
  0
VERTEX
  5
1260
330
120F
100
AcDbEntity
  8
241
100
AcDbVertex
100
AcDb3dPolylineVertex
 10
129.902
 20
8.74231
 30
0.0
 70
    32
  0
VERTEX
  5
1261
330
120F
100
AcDbEntity
  8
241
100
AcDbVertex
100
AcDb3dPolylineVertex
 10
129.87
 20
8.73409
 30
0.0
 70
    32
  0
VERTEX
  5
1262
330
120F
100
AcDbEntity
  8
241
100
AcDbVertex
100
AcDb3dPolylineVertex
 10
129.838
 20
8.72504
 30
0.0
 70
    32
  0
VERTEX
  5
1263
330
120F
100
AcDbEntity
  8
241
100
AcDbVertex
100
AcDb3dPolylineVertex
 10
129.806
 20
8.71517
 30
0.0
 70
    32
  0
VERTEX
  5
1264
330
120F
100
AcDbEntity
  8
241
100
AcDbVertex
100
AcDb3dPolylineVertex
 10
129.774
 20
8.70448
 30
0.0
 70
    32
  0
VERTEX
  5
1265
330
120F
100
AcDbEntity
  8
241
100
AcDbVertex
100
AcDb3dPolylineVertex
 10
129.742
 20
8.69298
 30
0.0
 70
    32
  0
VERTEX
  5
1266
330
120F
100
AcDbEntity
  8
241
100
AcDbVertex
100
AcDb3dPolylineVertex
 10
129.711
 20
8.68069
 30
0.0
 70
    32
  0
VERTEX
  5
1267
330
120F
100
AcDbEntity
  8
241
100
AcDbVertex
100
AcDb3dPolylineVertex
 10
129.68
 20
8.66759
 30
0.0
 70
    32
  0
VERTEX
  5
1268
330
120F
100
AcDbEntity
  8
241
100
AcDbVertex
100
AcDb3dPolylineVertex
 10
129.649
 20
8.65371
 30
0.0
 70
    32
  0
VERTEX
  5
1269
330
120F
100
AcDbEntity
  8
241
100
AcDbVertex
100
AcDb3dPolylineVertex
 10
129.619
 20
8.63906
 30
0.0
 70
    32
  0
VERTEX
  5
126A
330
120F
100
AcDbEntity
  8
241
100
AcDbVertex
100
AcDb3dPolylineVertex
 10
129.589
 20
8.62363
 30
0.0
 70
    32
  0
VERTEX
  5
126B
330
120F
100
AcDbEntity
  8
241
100
AcDbVertex
100
AcDb3dPolylineVertex
 10
129.56
 20
8.60744
 30
0.0
 70
    32
  0
VERTEX
  5
126C
330
120F
100
AcDbEntity
  8
241
100
AcDbVertex
100
AcDb3dPolylineVertex
 10
129.53
 20
8.5905
 30
0.0
 70
    32
  0
VERTEX
  5
126D
330
120F
100
AcDbEntity
  8
241
100
AcDbVertex
100
AcDb3dPolylineVertex
 10
129.501
 20
8.57283
 30
0.0
 70
    32
  0
VERTEX
  5
126E
330
120F
100
AcDbEntity
  8
241
100
AcDbVertex
100
AcDb3dPolylineVertex
 10
129.473
 20
8.55442
 30
0.0
 70
    32
  0
VERTEX
  5
126F
330
120F
100
AcDbEntity
  8
241
100
AcDbVertex
100
AcDb3dPolylineVertex
 10
129.445
 20
8.53529
 30
0.0
 70
    32
  0
VERTEX
  5
1270
330
120F
100
AcDbEntity
  8
241
100
AcDbVertex
100
AcDb3dPolylineVertex
 10
129.417
 20
8.51546
 30
0.0
 70
    32
  0
VERTEX
  5
1271
330
120F
100
AcDbEntity
  8
241
100
AcDbVertex
100
AcDb3dPolylineVertex
 10
129.39
 20
8.49493
 30
0.0
 70
    32
  0
VERTEX
  5
1272
330
120F
100
AcDbEntity
  8
241
100
AcDbVertex
100
AcDb3dPolylineVertex
 10
129.364
 20
8.47372
 30
0.0
 70
    32
  0
VERTEX
  5
1273
330
120F
100
AcDbEntity
  8
241
100
AcDbVertex
100
AcDb3dPolylineVertex
 10
129.337
 20
8.45184
 30
0.0
 70
    32
  0
VERTEX
  5
1274
330
120F
100
AcDbEntity
  8
241
100
AcDbVertex
100
AcDb3dPolylineVertex
 10
129.312
 20
8.4293
 30
0.0
 70
    32
  0
VERTEX
  5
1275
330
120F
100
AcDbEntity
  8
241
100
AcDbVertex
100
AcDb3dPolylineVertex
 10
129.287
 20
8.40612
 30
0.0
 70
    32
  0
VERTEX
  5
1276
330
120F
100
AcDbEntity
  8
241
100
AcDbVertex
100
AcDb3dPolylineVertex
 10
129.262
 20
8.38231
 30
0.0
 70
    32
  0
VERTEX
  5
1277
330
120F
100
AcDbEntity
  8
241
100
AcDbVertex
100
AcDb3dPolylineVertex
 10
129.238
 20
8.35789
 30
0.0
 70
    32
  0
VERTEX
  5
1278
330
120F
100
AcDbEntity
  8
241
100
AcDbVertex
100
AcDb3dPolylineVertex
 10
129.215
 20
8.33287
 30
0.0
 70
    32
  0
VERTEX
  5
1279
330
120F
100
AcDbEntity
  8
241
100
AcDbVertex
100
AcDb3dPolylineVertex
 10
129.192
 20
8.30726
 30
0.0
 70
    32
  0
VERTEX
  5
127A
330
120F
100
AcDbEntity
  8
241
100
AcDbVertex
100
AcDb3dPolylineVertex
 10
129.17
 20
8.28108
 30
0.0
 70
    32
  0
VERTEX
  5
127B
330
120F
100
AcDbEntity
  8
241
100
AcDbVertex
100
AcDb3dPolylineVertex
 10
129.148
 20
8.25434
 30
0.0
 70
    32
  0
VERTEX
  5
127C
330
120F
100
AcDbEntity
  8
241
100
AcDbVertex
100
AcDb3dPolylineVertex
 10
129.127
 20
8.22707
 30
0.0
 70
    32
  0
VERTEX
  5
127D
330
120F
100
AcDbEntity
  8
241
100
AcDbVertex
100
AcDb3dPolylineVertex
 10
129.106
 20
8.19928
 30
0.0
 70
    32
  0
VERTEX
  5
127E
330
120F
100
AcDbEntity
  8
241
100
AcDbVertex
100
AcDb3dPolylineVertex
 10
129.087
 20
8.17099
 30
0.0
 70
    32
  0
VERTEX
  5
127F
330
120F
100
AcDbEntity
  8
241
100
AcDbVertex
100
AcDb3dPolylineVertex
 10
129.068
 20
8.1422
 30
0.0
 70
    32
  0
VERTEX
  5
1280
330
120F
100
AcDbEntity
  8
241
100
AcDbVertex
100
AcDb3dPolylineVertex
 10
129.049
 20
8.11295
 30
0.0
 70
    32
  0
VERTEX
  5
1281
330
120F
100
AcDbEntity
  8
241
100
AcDbVertex
100
AcDb3dPolylineVertex
 10
129.032
 20
8.08324
 30
0.0
 70
    32
  0
VERTEX
  5
1282
330
120F
100
AcDbEntity
  8
241
100
AcDbVertex
100
AcDb3dPolylineVertex
 10
129.014
 20
8.0531
 30
0.0
 70
    32
  0
VERTEX
  5
1283
330
120F
100
AcDbEntity
  8
241
100
AcDbVertex
100
AcDb3dPolylineVertex
 10
128.998
 20
8.02254
 30
0.0
 70
    32
  0
VERTEX
  5
1284
330
120F
100
AcDbEntity
  8
241
100
AcDbVertex
100
AcDb3dPolylineVertex
 10
128.983
 20
7.99158
 30
0.0
 70
    32
  0
VERTEX
  5
1285
330
120F
100
AcDbEntity
  8
241
100
AcDbVertex
100
AcDb3dPolylineVertex
 10
128.968
 20
7.96025
 30
0.0
 70
    32
  0
VERTEX
  5
1286
330
120F
100
AcDbEntity
  8
241
100
AcDbVertex
100
AcDb3dPolylineVertex
 10
128.953
 20
7.92855
 30
0.0
 70
    32
  0
VERTEX
  5
1287
330
120F
100
AcDbEntity
  8
241
100
AcDbVertex
100
AcDb3dPolylineVertex
 10
128.94
 20
7.89651
 30
0.0
 70
    32
  0
VERTEX
  5
1288
330
120F
100
AcDbEntity
  8
241
100
AcDbVertex
100
AcDb3dPolylineVertex
 10
128.927
 20
7.86415
 30
0.0
 70
    32
  0
VERTEX
  5
1289
330
120F
100
AcDbEntity
  8
241
100
AcDbVertex
100
AcDb3dPolylineVertex
 10
128.915
 20
7.83149
 30
0.0
 70
    32
  0
VERTEX
  5
128A
330
120F
100
AcDbEntity
  8
241
100
AcDbVertex
100
AcDb3dPolylineVertex
 10
128.904
 20
7.79855
 30
0.0
 70
    32
  0
VERTEX
  5
128B
330
120F
100
AcDbEntity
  8
241
100
AcDbVertex
100
AcDb3dPolylineVertex
 10
128.894
 20
7.76534
 30
0.0
 70
    32
  0
VERTEX
  5
128C
330
120F
100
AcDbEntity
  8
241
100
AcDbVertex
100
AcDb3dPolylineVertex
 10
128.884
 20
7.73189
 30
0.0
 70
    32
  0
VERTEX
  5
128D
330
120F
100
AcDbEntity
  8
241
100
AcDbVertex
100
AcDb3dPolylineVertex
 10
128.875
 20
7.69821
 30
0.0
 70
    32
  0
VERTEX
  5
128E
330
120F
100
AcDbEntity
  8
241
100
AcDbVertex
100
AcDb3dPolylineVertex
 10
128.867
 20
7.66433
 30
0.0
 70
    32
  0
VERTEX
  5
128F
330
120F
100
AcDbEntity
  8
241
100
AcDbVertex
100
AcDb3dPolylineVertex
 10
128.86
 20
7.63027
 30
0.0
 70
    32
  0
VERTEX
  5
1290
330
120F
100
AcDbEntity
  8
241
100
AcDbVertex
100
AcDb3dPolylineVertex
 10
128.854
 20
7.59605
 30
0.0
 70
    32
  0
SEQEND
  5
1291
330
120F
100
AcDbEntity
  8
241
  0
LINE
  5
1292
330
CFD
100
AcDbEntity
  8
246
100
AcDbLine
 10
127.0
 20
12.5
 30
0.0
 11
135.0
 21
12.5
 31
0.0
  0
POLYLINE
  5
1293
330
CFD
100
AcDbEntity
  8
241
100
AcDb3dPolyline
 66
     1
 10
0.0
 20
0.0
 30
0.0
 70
     8
  0
VERTEX
  5
1294
330
1293
100
AcDbEntity
  8
241
100
AcDbVertex
100
AcDb3dPolylineVertex
 10
128.854
 20
7.59605
 30
0.0
 70
    32
  0
VERTEX
  5
1295
330
1293
100
AcDbEntity
  8
241
100
AcDbVertex
100
AcDb3dPolylineVertex
 10
128.846
 20
7.54959
 30
0.0
 70
    32
  0
VERTEX
  5
1296
330
1293
100
AcDbEntity
  8
241
100
AcDbVertex
100
AcDb3dPolylineVertex
 10
128.839
 20
7.50303
 30
0.0
 70
    32
  0
VERTEX
  5
1297
330
1293
100
AcDbEntity
  8
241
100
AcDbVertex
100
AcDb3dPolylineVertex
 10
128.833
 20
7.45637
 30
0.0
 70
    32
  0
VERTEX
  5
1298
330
1293
100
AcDbEntity
  8
241
100
AcDbVertex
100
AcDb3dPolylineVertex
 10
128.827
 20
7.40966
 30
0.0
 70
    32
  0
VERTEX
  5
1299
330
1293
100
AcDbEntity
  8
241
100
AcDbVertex
100
AcDb3dPolylineVertex
 10
128.823
 20
7.36292
 30
0.0
 70
    32
  0
VERTEX
  5
129A
330
1293
100
AcDbEntity
  8
241
100
AcDbVertex
100
AcDb3dPolylineVertex
 10
128.819
 20
7.31618
 30
0.0
 70
    32
  0
VERTEX
  5
129B
330
1293
100
AcDbEntity
  8
241
100
AcDbVertex
100
AcDb3dPolylineVertex
 10
128.816
 20
7.26946
 30
0.0
 70
    32
  0
VERTEX
  5
129C
330
1293
100
AcDbEntity
  8
241
100
AcDbVertex
100
AcDb3dPolylineVertex
 10
128.814
 20
7.2228
 30
0.0
 70
    32
  0
VERTEX
  5
129D
330
1293
100
AcDbEntity
  8
241
100
AcDbVertex
100
AcDb3dPolylineVertex
 10
128.813
 20
7.17623
 30
0.0
 70
    32
  0
VERTEX
  5
129E
330
1293
100
AcDbEntity
  8
241
100
AcDbVertex
100
AcDb3dPolylineVertex
 10
128.813
 20
7.12977
 30
0.0
 70
    32
  0
VERTEX
  5
129F
330
1293
100
AcDbEntity
  8
241
100
AcDbVertex
100
AcDb3dPolylineVertex
 10
128.813
 20
7.08344
 30
0.0
 70
    32
  0
VERTEX
  5
12A0
330
1293
100
AcDbEntity
  8
241
100
AcDbVertex
100
AcDb3dPolylineVertex
 10
128.814
 20
7.03729
 30
0.0
 70
    32
  0
VERTEX
  5
12A1
330
1293
100
AcDbEntity
  8
241
100
AcDbVertex
100
AcDb3dPolylineVertex
 10
128.816
 20
6.99132
 30
0.0
 70
    32
  0
VERTEX
  5
12A2
330
1293
100
AcDbEntity
  8
241
100
AcDbVertex
100
AcDb3dPolylineVertex
 10
128.819
 20
6.94559
 30
0.0
 70
    32
  0
VERTEX
  5
12A3
330
1293
100
AcDbEntity
  8
241
100
AcDbVertex
100
AcDb3dPolylineVertex
 10
128.823
 20
6.9001
 30
0.0
 70
    32
  0
VERTEX
  5
12A4
330
1293
100
AcDbEntity
  8
241
100
AcDbVertex
100
AcDb3dPolylineVertex
 10
128.827
 20
6.85489
 30
0.0
 70
    32
  0
VERTEX
  5
12A5
330
1293
100
AcDbEntity
  8
241
100
AcDbVertex
100
AcDb3dPolylineVertex
 10
128.833
 20
6.80999
 30
0.0
 70
    32
  0
VERTEX
  5
12A6
330
1293
100
AcDbEntity
  8
241
100
AcDbVertex
100
AcDb3dPolylineVertex
 10
128.839
 20
6.76542
 30
0.0
 70
    32
  0
VERTEX
  5
12A7
330
1293
100
AcDbEntity
  8
241
100
AcDbVertex
100
AcDb3dPolylineVertex
 10
128.846
 20
6.7212
 30
0.0
 70
    32
  0
VERTEX
  5
12A8
330
1293
100
AcDbEntity
  8
241
100
AcDbVertex
100
AcDb3dPolylineVertex
 10
128.854
 20
6.67738
 30
0.0
 70
    32
  0
VERTEX
  5
12A9
330
1293
100
AcDbEntity
  8
241
100
AcDbVertex
100
AcDb3dPolylineVertex
 10
128.862
 20
6.63396
 30
0.0
 70
    32
  0
VERTEX
  5
12AA
330
1293
100
AcDbEntity
  8
241
100
AcDbVertex
100
AcDb3dPolylineVertex
 10
128.872
 20
6.59099
 30
0.0
 70
    32
  0
VERTEX
  5
12AB
330
1293
100
AcDbEntity
  8
241
100
AcDbVertex
100
AcDb3dPolylineVertex
 10
128.882
 20
6.54847
 30
0.0
 70
    32
  0
VERTEX
  5
12AC
330
1293
100
AcDbEntity
  8
241
100
AcDbVertex
100
AcDb3dPolylineVertex
 10
128.893
 20
6.50645
 30
0.0
 70
    32
  0
VERTEX
  5
12AD
330
1293
100
AcDbEntity
  8
241
100
AcDbVertex
100
AcDb3dPolylineVertex
 10
128.904
 20
6.46495
 30
0.0
 70
    32
  0
VERTEX
  5
12AE
330
1293
100
AcDbEntity
  8
241
100
AcDbVertex
100
AcDb3dPolylineVertex
 10
128.917
 20
6.42398
 30
0.0
 70
    32
  0
VERTEX
  5
12AF
330
1293
100
AcDbEntity
  8
241
100
AcDbVertex
100
AcDb3dPolylineVertex
 10
128.93
 20
6.38358
 30
0.0
 70
    32
  0
VERTEX
  5
12B0
330
1293
100
AcDbEntity
  8
241
100
AcDbVertex
100
AcDb3dPolylineVertex
 10
128.944
 20
6.34376
 30
0.0
 70
    32
  0
VERTEX
  5
12B1
330
1293
100
AcDbEntity
  8
241
100
AcDbVertex
100
AcDb3dPolylineVertex
 10
128.959
 20
6.30456
 30
0.0
 70
    32
  0
VERTEX
  5
12B2
330
1293
100
AcDbEntity
  8
241
100
AcDbVertex
100
AcDb3dPolylineVertex
 10
128.974
 20
6.266
 30
0.0
 70
    32
  0
VERTEX
  5
12B3
330
1293
100
AcDbEntity
  8
241
100
AcDbVertex
100
AcDb3dPolylineVertex
 10
128.991
 20
6.2281
 30
0.0
 70
    32
  0
VERTEX
  5
12B4
330
1293
100
AcDbEntity
  8
241
100
AcDbVertex
100
AcDb3dPolylineVertex
 10
129.007
 20
6.19088
 30
0.0
 70
    32
  0
VERTEX
  5
12B5
330
1293
100
AcDbEntity
  8
241
100
AcDbVertex
100
AcDb3dPolylineVertex
 10
129.025
 20
6.15436
 30
0.0
 70
    32
  0
VERTEX
  5
12B6
330
1293
100
AcDbEntity
  8
241
100
AcDbVertex
100
AcDb3dPolylineVertex
 10
129.043
 20
6.11857
 30
0.0
 70
    32
  0
VERTEX
  5
12B7
330
1293
100
AcDbEntity
  8
241
100
AcDbVertex
100
AcDb3dPolylineVertex
 10
129.062
 20
6.08353
 30
0.0
 70
    32
  0
VERTEX
  5
12B8
330
1293
100
AcDbEntity
  8
241
100
AcDbVertex
100
AcDb3dPolylineVertex
 10
129.082
 20
6.04927
 30
0.0
 70
    32
  0
VERTEX
  5
12B9
330
1293
100
AcDbEntity
  8
241
100
AcDbVertex
100
AcDb3dPolylineVertex
 10
129.103
 20
6.01579
 30
0.0
 70
    32
  0
VERTEX
  5
12BA
330
1293
100
AcDbEntity
  8
241
100
AcDbVertex
100
AcDb3dPolylineVertex
 10
129.124
 20
5.98312
 30
0.0
 70
    32
  0
VERTEX
  5
12BB
330
1293
100
AcDbEntity
  8
241
100
AcDbVertex
100
AcDb3dPolylineVertex
 10
129.145
 20
5.95128
 30
0.0
 70
    32
  0
VERTEX
  5
12BC
330
1293
100
AcDbEntity
  8
241
100
AcDbVertex
100
AcDb3dPolylineVertex
 10
129.167
 20
5.92029
 30
0.0
 70
    32
  0
VERTEX
  5
12BD
330
1293
100
AcDbEntity
  8
241
100
AcDbVertex
100
AcDb3dPolylineVertex
 10
129.19
 20
5.89017
 30
0.0
 70
    32
  0
VERTEX
  5
12BE
330
1293
100
AcDbEntity
  8
241
100
AcDbVertex
100
AcDb3dPolylineVertex
 10
129.214
 20
5.86094
 30
0.0
 70
    32
  0
VERTEX
  5
12BF
330
1293
100
AcDbEntity
  8
241
100
AcDbVertex
100
AcDb3dPolylineVertex
 10
129.238
 20
5.83261
 30
0.0
 70
    32
  0
VERTEX
  5
12C0
330
1293
100
AcDbEntity
  8
241
100
AcDbVertex
100
AcDb3dPolylineVertex
 10
129.263
 20
5.8052
 30
0.0
 70
    32
  0
VERTEX
  5
12C1
330
1293
100
AcDbEntity
  8
241
100
AcDbVertex
100
AcDb3dPolylineVertex
 10
129.288
 20
5.77873
 30
0.0
 70
    32
  0
VERTEX
  5
12C2
330
1293
100
AcDbEntity
  8
241
100
AcDbVertex
100
AcDb3dPolylineVertex
 10
129.314
 20
5.75321
 30
0.0
 70
    32
  0
VERTEX
  5
12C3
330
1293
100
AcDbEntity
  8
241
100
AcDbVertex
100
AcDb3dPolylineVertex
 10
129.34
 20
5.72866
 30
0.0
 70
    32
  0
VERTEX
  5
12C4
330
1293
100
AcDbEntity
  8
241
100
AcDbVertex
100
AcDb3dPolylineVertex
 10
129.367
 20
5.7051
 30
0.0
 70
    32
  0
VERTEX
  5
12C5
330
1293
100
AcDbEntity
  8
241
100
AcDbVertex
100
AcDb3dPolylineVertex
 10
129.394
 20
5.68253
 30
0.0
 70
    32
  0
VERTEX
  5
12C6
330
1293
100
AcDbEntity
  8
241
100
AcDbVertex
100
AcDb3dPolylineVertex
 10
129.422
 20
5.66098
 30
0.0
 70
    32
  0
VERTEX
  5
12C7
330
1293
100
AcDbEntity
  8
241
100
AcDbVertex
100
AcDb3dPolylineVertex
 10
129.45
 20
5.64044
 30
0.0
 70
    32
  0
VERTEX
  5
12C8
330
1293
100
AcDbEntity
  8
241
100
AcDbVertex
100
AcDb3dPolylineVertex
 10
129.478
 20
5.62095
 30
0.0
 70
    32
  0
VERTEX
  5
12C9
330
1293
100
AcDbEntity
  8
241
100
AcDbVertex
100
AcDb3dPolylineVertex
 10
129.507
 20
5.6025
 30
0.0
 70
    32
  0
VERTEX
  5
12CA
330
1293
100
AcDbEntity
  8
241
100
AcDbVertex
100
AcDb3dPolylineVertex
 10
129.537
 20
5.58512
 30
0.0
 70
    32
  0
VERTEX
  5
12CB
330
1293
100
AcDbEntity
  8
241
100
AcDbVertex
100
AcDb3dPolylineVertex
 10
129.567
 20
5.5688
 30
0.0
 70
    32
  0
VERTEX
  5
12CC
330
1293
100
AcDbEntity
  8
241
100
AcDbVertex
100
AcDb3dPolylineVertex
 10
129.597
 20
5.55356
 30
0.0
 70
    32
  0
VERTEX
  5
12CD
330
1293
100
AcDbEntity
  8
241
100
AcDbVertex
100
AcDb3dPolylineVertex
 10
129.628
 20
5.53942
 30
0.0
 70
    32
  0
VERTEX
  5
12CE
330
1293
100
AcDbEntity
  8
241
100
AcDbVertex
100
AcDb3dPolylineVertex
 10
129.658
 20
5.52637
 30
0.0
 70
    32
  0
VERTEX
  5
12CF
330
1293
100
AcDbEntity
  8
241
100
AcDbVertex
100
AcDb3dPolylineVertex
 10
129.69
 20
5.51442
 30
0.0
 70
    32
  0
VERTEX
  5
12D0
330
1293
100
AcDbEntity
  8
241
100
AcDbVertex
100
AcDb3dPolylineVertex
 10
129.721
 20
5.50359
 30
0.0
 70
    32
  0
VERTEX
  5
12D1
330
1293
100
AcDbEntity
  8
241
100
AcDbVertex
100
AcDb3dPolylineVertex
 10
129.753
 20
5.49388
 30
0.0
 70
    32
  0
VERTEX
  5
12D2
330
1293
100
AcDbEntity
  8
241
100
AcDbVertex
100
AcDb3dPolylineVertex
 10
129.785
 20
5.48529
 30
0.0
 70
    32
  0
VERTEX
  5
12D3
330
1293
100
AcDbEntity
  8
241
100
AcDbVertex
100
AcDb3dPolylineVertex
 10
129.817
 20
5.47783
 30
0.0
 70
    32
  0
VERTEX
  5
12D4
330
1293
100
AcDbEntity
  8
241
100
AcDbVertex
100
AcDb3dPolylineVertex
 10
129.85
 20
5.47151
 30
0.0
 70
    32
  0
VERTEX
  5
12D5
330
1293
100
AcDbEntity
  8
241
100
AcDbVertex
100
AcDb3dPolylineVertex
 10
129.883
 20
5.46633
 30
0.0
 70
    32
  0
VERTEX
  5
12D6
330
1293
100
AcDbEntity
  8
241
100
AcDbVertex
100
AcDb3dPolylineVertex
 10
129.916
 20
5.46229
 30
0.0
 70
    32
  0
VERTEX
  5
12D7
330
1293
100
AcDbEntity
  8
241
100
AcDbVertex
100
AcDb3dPolylineVertex
 10
129.949
 20
5.45939
 30
0.0
 70
    32
  0
VERTEX
  5
12D8
330
1293
100
AcDbEntity
  8
241
100
AcDbVertex
100
AcDb3dPolylineVertex
 10
129.982
 20
5.45764
 30
0.0
 70
    32
  0
VERTEX
  5
12D9
330
1293
100
AcDbEntity
  8
241
100
AcDbVertex
100
AcDb3dPolylineVertex
 10
130.015
 20
5.45703
 30
0.0
 70
    32
  0
VERTEX
  5
12DA
330
1293
100
AcDbEntity
  8
241
100
AcDbVertex
100
AcDb3dPolylineVertex
 10
130.049
 20
5.45757
 30
0.0
 70
    32
  0
VERTEX
  5
12DB
330
1293
100
AcDbEntity
  8
241
100
AcDbVertex
100
AcDb3dPolylineVertex
 10
130.082
 20
5.45926
 30
0.0
 70
    32
  0
VERTEX
  5
12DC
330
1293
100
AcDbEntity
  8
241
100
AcDbVertex
100
AcDb3dPolylineVertex
 10
130.116
 20
5.4621
 30
0.0
 70
    32
  0
VERTEX
  5
12DD
330
1293
100
AcDbEntity
  8
241
100
AcDbVertex
100
AcDb3dPolylineVertex
 10
130.149
 20
5.46607
 30
0.0
 70
    32
  0
VERTEX
  5
12DE
330
1293
100
AcDbEntity
  8
241
100
AcDbVertex
100
AcDb3dPolylineVertex
 10
130.183
 20
5.4712
 30
0.0
 70
    32
  0
VERTEX
  5
12DF
330
1293
100
AcDbEntity
  8
241
100
AcDbVertex
100
AcDb3dPolylineVertex
 10
130.217
 20
5.47746
 30
0.0
 70
    32
  0
VERTEX
  5
12E0
330
1293
100
AcDbEntity
  8
241
100
AcDbVertex
100
AcDb3dPolylineVertex
 10
130.25
 20
5.48485
 30
0.0
 70
    32
  0
VERTEX
  5
12E1
330
1293
100
AcDbEntity
  8
241
100
AcDbVertex
100
AcDb3dPolylineVertex
 10
130.284
 20
5.49337
 30
0.0
 70
    32
  0
VERTEX
  5
12E2
330
1293
100
AcDbEntity
  8
241
100
AcDbVertex
100
AcDb3dPolylineVertex
 10
130.317
 20
5.50302
 30
0.0
 70
    32
  0
VERTEX
  5
12E3
330
1293
100
AcDbEntity
  8
241
100
AcDbVertex
100
AcDb3dPolylineVertex
 10
130.351
 20
5.51379
 30
0.0
 70
    32
  0
VERTEX
  5
12E4
330
1293
100
AcDbEntity
  8
241
100
AcDbVertex
100
AcDb3dPolylineVertex
 10
130.384
 20
5.52568
 30
0.0
 70
    32
  0
VERTEX
  5
12E5
330
1293
100
AcDbEntity
  8
241
100
AcDbVertex
100
AcDb3dPolylineVertex
 10
130.417
 20
5.53867
 30
0.0
 70
    32
  0
VERTEX
  5
12E6
330
1293
100
AcDbEntity
  8
241
100
AcDbVertex
100
AcDb3dPolylineVertex
 10
130.45
 20
5.55275
 30
0.0
 70
    32
  0
VERTEX
  5
12E7
330
1293
100
AcDbEntity
  8
241
100
AcDbVertex
100
AcDb3dPolylineVertex
 10
130.483
 20
5.56793
 30
0.0
 70
    32
  0
VERTEX
  5
12E8
330
1293
100
AcDbEntity
  8
241
100
AcDbVertex
100
AcDb3dPolylineVertex
 10
130.516
 20
5.58419
 30
0.0
 70
    32
  0
VERTEX
  5
12E9
330
1293
100
AcDbEntity
  8
241
100
AcDbVertex
100
AcDb3dPolylineVertex
 10
130.549
 20
5.60151
 30
0.0
 70
    32
  0
VERTEX
  5
12EA
330
1293
100
AcDbEntity
  8
241
100
AcDbVertex
100
AcDb3dPolylineVertex
 10
130.581
 20
5.6199
 30
0.0
 70
    32
  0
VERTEX
  5
12EB
330
1293
100
AcDbEntity
  8
241
100
AcDbVertex
100
AcDb3dPolylineVertex
 10
130.613
 20
5.63934
 30
0.0
 70
    32
  0
VERTEX
  5
12EC
330
1293
100
AcDbEntity
  8
241
100
AcDbVertex
100
AcDb3dPolylineVertex
 10
130.645
 20
5.65981
 30
0.0
 70
    32
  0
VERTEX
  5
12ED
330
1293
100
AcDbEntity
  8
241
100
AcDbVertex
100
AcDb3dPolylineVertex
 10
130.676
 20
5.68131
 30
0.0
 70
    32
  0
VERTEX
  5
12EE
330
1293
100
AcDbEntity
  8
241
100
AcDbVertex
100
AcDb3dPolylineVertex
 10
130.708
 20
5.70383
 30
0.0
 70
    32
  0
VERTEX
  5
12EF
330
1293
100
AcDbEntity
  8
241
100
AcDbVertex
100
AcDb3dPolylineVertex
 10
130.738
 20
5.72734
 30
0.0
 70
    32
  0
VERTEX
  5
12F0
330
1293
100
AcDbEntity
  8
241
100
AcDbVertex
100
AcDb3dPolylineVertex
 10
130.769
 20
5.75183
 30
0.0
 70
    32
  0
VERTEX
  5
12F1
330
1293
100
AcDbEntity
  8
241
100
AcDbVertex
100
AcDb3dPolylineVertex
 10
130.799
 20
5.77729
 30
0.0
 70
    32
  0
VERTEX
  5
12F2
330
1293
100
AcDbEntity
  8
241
100
AcDbVertex
100
AcDb3dPolylineVertex
 10
130.829
 20
5.80371
 30
0.0
 70
    32
  0
VERTEX
  5
12F3
330
1293
100
AcDbEntity
  8
241
100
AcDbVertex
100
AcDb3dPolylineVertex
 10
130.859
 20
5.83107
 30
0.0
 70
    32
  0
VERTEX
  5
12F4
330
1293
100
AcDbEntity
  8
241
100
AcDbVertex
100
AcDb3dPolylineVertex
 10
130.888
 20
5.85935
 30
0.0
 70
    32
  0
VERTEX
  5
12F5
330
1293
100
AcDbEntity
  8
241
100
AcDbVertex
100
AcDb3dPolylineVertex
 10
130.916
 20
5.88853
 30
0.0
 70
    32
  0
VERTEX
  5
12F6
330
1293
100
AcDbEntity
  8
241
100
AcDbVertex
100
AcDb3dPolylineVertex
 10
130.945
 20
5.91861
 30
0.0
 70
    32
  0
VERTEX
  5
12F7
330
1293
100
AcDbEntity
  8
241
100
AcDbVertex
100
AcDb3dPolylineVertex
 10
130.972
 20
5.94955
 30
0.0
 70
    32
  0
VERTEX
  5
12F8
330
1293
100
AcDbEntity
  8
241
100
AcDbVertex
100
AcDb3dPolylineVertex
 10
131.0
 20
5.98134
 30
0.0
 70
    32
  0
VERTEX
  5
12F9
330
1293
100
AcDbEntity
  8
241
100
AcDbVertex
100
AcDb3dPolylineVertex
 10
131.026
 20
6.01396
 30
0.0
 70
    32
  0
VERTEX
  5
12FA
330
1293
100
AcDbEntity
  8
241
100
AcDbVertex
100
AcDb3dPolylineVertex
 10
131.053
 20
6.04739
 30
0.0
 70
    32
  0
VERTEX
  5
12FB
330
1293
100
AcDbEntity
  8
241
100
AcDbVertex
100
AcDb3dPolylineVertex
 10
131.078
 20
6.08162
 30
0.0
 70
    32
  0
VERTEX
  5
12FC
330
1293
100
AcDbEntity
  8
241
100
AcDbVertex
100
AcDb3dPolylineVertex
 10
131.104
 20
6.11662
 30
0.0
 70
    32
  0
VERTEX
  5
12FD
330
1293
100
AcDbEntity
  8
241
100
AcDbVertex
100
AcDb3dPolylineVertex
 10
131.128
 20
6.15236
 30
0.0
 70
    32
  0
VERTEX
  5
12FE
330
1293
100
AcDbEntity
  8
241
100
AcDbVertex
100
AcDb3dPolylineVertex
 10
131.152
 20
6.18884
 30
0.0
 70
    32
  0
VERTEX
  5
12FF
330
1293
100
AcDbEntity
  8
241
100
AcDbVertex
100
AcDb3dPolylineVertex
 10
131.176
 20
6.22602
 30
0.0
 70
    32
  0
VERTEX
  5
1300
330
1293
100
AcDbEntity
  8
241
100
AcDbVertex
100
AcDb3dPolylineVertex
 10
131.199
 20
6.26389
 30
0.0
 70
    32
  0
VERTEX
  5
1301
330
1293
100
AcDbEntity
  8
241
100
AcDbVertex
100
AcDb3dPolylineVertex
 10
131.221
 20
6.30242
 30
0.0
 70
    32
  0
VERTEX
  5
1302
330
1293
100
AcDbEntity
  8
241
100
AcDbVertex
100
AcDb3dPolylineVertex
 10
131.243
 20
6.34158
 30
0.0
 70
    32
  0
VERTEX
  5
1303
330
1293
100
AcDbEntity
  8
241
100
AcDbVertex
100
AcDb3dPolylineVertex
 10
131.264
 20
6.38136
 30
0.0
 70
    32
  0
VERTEX
  5
1304
330
1293
100
AcDbEntity
  8
241
100
AcDbVertex
100
AcDb3dPolylineVertex
 10
131.284
 20
6.42173
 30
0.0
 70
    32
  0
VERTEX
  5
1305
330
1293
100
AcDbEntity
  8
241
100
AcDbVertex
100
AcDb3dPolylineVertex
 10
131.304
 20
6.46267
 30
0.0
 70
    32
  0
VERTEX
  5
1306
330
1293
100
AcDbEntity
  8
241
100
AcDbVertex
100
AcDb3dPolylineVertex
 10
131.323
 20
6.50414
 30
0.0
 70
    32
  0
VERTEX
  5
1307
330
1293
100
AcDbEntity
  8
241
100
AcDbVertex
100
AcDb3dPolylineVertex
 10
131.341
 20
6.54614
 30
0.0
 70
    32
  0
VERTEX
  5
1308
330
1293
100
AcDbEntity
  8
241
100
AcDbVertex
100
AcDb3dPolylineVertex
 10
131.359
 20
6.58862
 30
0.0
 70
    32
  0
VERTEX
  5
1309
330
1293
100
AcDbEntity
  8
241
100
AcDbVertex
100
AcDb3dPolylineVertex
 10
131.376
 20
6.63158
 30
0.0
 70
    32
  0
VERTEX
  5
130A
330
1293
100
AcDbEntity
  8
241
100
AcDbVertex
100
AcDb3dPolylineVertex
 10
131.392
 20
6.67497
 30
0.0
 70
    32
  0
VERTEX
  5
130B
330
1293
100
AcDbEntity
  8
241
100
AcDbVertex
100
AcDb3dPolylineVertex
 10
131.407
 20
6.71877
 30
0.0
 70
    32
  0
VERTEX
  5
130C
330
1293
100
AcDbEntity
  8
241
100
AcDbVertex
100
AcDb3dPolylineVertex
 10
131.422
 20
6.76296
 30
0.0
 70
    32
  0
VERTEX
  5
130D
330
1293
100
AcDbEntity
  8
241
100
AcDbVertex
100
AcDb3dPolylineVertex
 10
131.436
 20
6.80751
 30
0.0
 70
    32
  0
VERTEX
  5
130E
330
1293
100
AcDbEntity
  8
241
100
AcDbVertex
100
AcDb3dPolylineVertex
 10
131.449
 20
6.8524
 30
0.0
 70
    32
  0
VERTEX
  5
130F
330
1293
100
AcDbEntity
  8
241
100
AcDbVertex
100
AcDb3dPolylineVertex
 10
131.462
 20
6.89759
 30
0.0
 70
    32
  0
VERTEX
  5
1310
330
1293
100
AcDbEntity
  8
241
100
AcDbVertex
100
AcDb3dPolylineVertex
 10
131.474
 20
6.94307
 30
0.0
 70
    32
  0
VERTEX
  5
1311
330
1293
100
AcDbEntity
  8
241
100
AcDbVertex
100
AcDb3dPolylineVertex
 10
131.485
 20
6.98879
 30
0.0
 70
    32
  0
VERTEX
  5
1312
330
1293
100
AcDbEntity
  8
241
100
AcDbVertex
100
AcDb3dPolylineVertex
 10
131.495
 20
7.03474
 30
0.0
 70
    32
  0
VERTEX
  5
1313
330
1293
100
AcDbEntity
  8
241
100
AcDbVertex
100
AcDb3dPolylineVertex
 10
131.504
 20
7.08089
 30
0.0
 70
    32
  0
VERTEX
  5
1314
330
1293
100
AcDbEntity
  8
241
100
AcDbVertex
100
AcDb3dPolylineVertex
 10
131.513
 20
7.1272
 30
0.0
 70
    32
  0
SEQEND
  5
1315
330
1293
100
AcDbEntity
  8
241
  0
LINE
  5
1316
330
CFD
100
AcDbEntity
  8
240
100
AcDbLine
 10
123.87806342
 20
11.75
 30
0.0
 11
125.18428122
 21
12.1
 31
0.0
  0
LINE
  5
1317
330
CFD
100
AcDbEntity
  8
240
  6
CONTINUOUS
100
AcDbLine
 10
27.0
 20
30.5
 30
0.0
 11
27.0
 21
30.0
 31
0.0
  0
ARC
  5
1318
330
CFD
100
AcDbEntity
  8
240
  6
CONTINUOUS
100
AcDbCircle
 10
26.0
 20
30.5
 30
0.0
 40
1.0
100
AcDbArc
 50
0.0
 51
90.0
  0
ENDBLK
  5
CFF
330
CFD
100
AcDbEntity
  8
0
100
AcDbBlockEnd
  0
ENDSEC
  0
SECTION
  2
ENTITIES
  0
INSERT
  5
6E6
330
1A
100
AcDbEntity
  8
245
100
AcDbBlockReference
  2
矢印なし
 10
175.62382697
 20
90.55123572
 30
0.0
  0
TEXT
  5
A20
330
1A
100
AcDbEntity
  8
241
100
AcDbText
 10
-65.4
 20
56.0
 30
0.0
 40
5.0
  1
BBT40-FCR25083-135
  7
YOKO
 11
-65.4
 21
56.0
 31
0.0
100
AcDbText
 73
     1
  0
DIMENSION
  5
C88
330
1A
100
AcDbEntity
  8
250
  6
CONTINUOUS
100
AcDbDimension
  2
*D2
 10
147.0
 20
12.5
 30
0.0
 11
144.6
 21
0.0
 31
0.0
 70
    32
  1
{\H2.8;\U+2205}<>
  3
BIGT
100
AcDbAlignedDimension
 13
135.0
 23
-12.5
 33
0.0
 14
135.0
 24
12.5
 34
0.0
 50
90.0
100
AcDbRotatedDimension
  0
DIMENSION
  5
C97
330
1A
100
AcDbEntity
  8
250
  6
CONTINUOUS
100
AcDbDimension
  2
*D3
 10
135.0
 20
28.0
 30
0.0
 11
131.0
 21
30.4
 31
0.0
 70
    32
  3
BIGT
100
AcDbAlignedDimension
 13
127.0
 23
12.5
 33
0.0
 14
135.0
 24
12.5
 34
0.0
100
AcDbRotatedDimension
  0
DIMENSION
  5
CA6
330
1A
100
AcDbEntity
  8
250
  6
CONTINUOUS
100
AcDbDimension
  2
*D4
 10
135.0
 20
35.0
 30
0.0
 11
117.5
 21
37.4
 31
0.0
 70
    32
  3
BIGT
100
AcDbAlignedDimension
 13
100.0
 23
11.96621302
 33
0.0
 14
135.0
 24
12.5
 34
0.0
100
AcDbRotatedDimension
  0
DIMENSION
  5
CB5
330
1A
100
AcDbEntity
  8
250
  6
CONTINUOUS
100
AcDbDimension
  2
*D5
 10
135.0
 20
42.0
 30
0.0
 11
67.5
 21
44.4
 31
0.0
 70
    32
  3
BIGT
100
AcDbAlignedDimension
 13
0.0
 23
22.225
 33
0.0
 14
135.0
 24
12.5
 34
0.0
100
AcDbRotatedDimension
  0
LEADER
  5
1168
330
1A
100
AcDbEntity
  8
250
  6
CONTINUOUS
100
AcDbLeader
  3
BIGT
 76
     2
 10
-26.64442081
 20
-18.3393553
 30
0.0
 10
-32.4583971
 20
-28.40945762
 30
0.0
1001
ACAD
1000
DSTYLE
1002
{
1070
     6
1000
OPEN
1070
   343
1005
594
1002
}
  0
MTEXT
  5
1169
330
1A
100
AcDbEntity
  8
250
  6
CONTINUOUS
 62
    40
100
AcDbMText
 10
-47.39173044
 20
-27.40945762
 30
0.0
 40
2.8
 41
0.0
 71
     7
 72
     1
  1
BBT40
  7
YOKO
1001
ITEMNAME
1000
LNSP3
1001
ACAD
1000
MTEXTBEGIN
1070
    73
1070
     1
1070
    44
1040
1.0
1070
    74
1070
     0
1000
MTEXTEND
1000
MTEXTBEGIN
1070
    73
1070
     1
1070
    44
1040
1.0
1070
    74
1070
     0
1000
MTEXTEND
  0
LINE
  5
116C
330
1A
100
AcDbEntity
  8
250
  6
CONTINUOUS
100
AcDbLine
 10
-32.4583971
 20
-28.40945762
 30
0.0
 11
-50.19173044
 21
-28.40945762
 31
0.0
1001
ITEMNAME
1000
LNSP2
  0
INSERT
  5
1319
330
1A
100
AcDbEntity
  8
245
100
AcDbBlockReference
  2
1
 10
0.0
 20
0.0
 30
0.0
  0
VIEWPORT
  5
22
330
17
100
AcDbEntity
 67
     1
  8
0
100
AcDbViewport
 10
261.51769912
 20
148.5
 30
0.0
 40
523.03539823
 41
297.0
 68
     1
 69
     1
1001
ACAD
1000
MVIEW
1002
{
1070
    16
1010
0.0
1020
0.0
1030
0.0
1010
0.0
1020
0.0
1030
1.0
1040
0.0
1040
297.0
1040
261.51769912
1040
148.5
1040
50.0
1040
0.0
1040
0.0
1070
     0
1070
   100
1070
     1
1070
     1
1070
     0
1070
     0
1070
     0
1070
     0
1040
0.0
1040
0.0
1040
0.0
1040
1.0
1040
1.0
1040
10.0
1040
10.0
1070
     0
1002
{
1002
}
1002
}
  0
ENDSEC
  0
SECTION
  2
OBJECTS
  0
DICTIONARY
  5
C
330
0
100
AcDbDictionary
  3
ACAD_GROUP
350
D
  3
ACAD_LAYOUT
350
565
  3
ACAD_MLINESTYLE
350
E
  3
ACAD_PLOTSETTINGS
350
566
  3
ACAD_PLOTSTYLENAME
350
563
  3
ACDBHEADERROUNDTRIPXREC
350
131B
  3
GRADE_DWG
350
540
  0
DICTIONARY
  5
F34
330
1A
100
AcDbDictionary
280
     1
  3
ACAD_LAYOUTSELFREF
360
133D
  0
DICTIONARY
  5
F32
330
17
100
AcDbDictionary
280
     1
  3
ACAD_LAYOUTSELFREF
360
133C
  0
DICTIONARY
  5
D
102
{ACAD_REACTORS
330
C
102
}
330
C
100
AcDbDictionary
  3
*A1
350
6C7
  3
*A2
350
6C8
  3
*A3
350
6D4
  3
*A4
350
6D5
  3
DREC-1
350
5FC
  3
DREC-2
350
654
  3
DREC-3
350
673
  0
DICTIONARY
  5
565
102
{ACAD_REACTORS
330
C
102
}
330
C
100
AcDbDictionary
  0
DICTIONARY
  5
E
102
{ACAD_REACTORS
330
C
102
}
330
C
100
AcDbDictionary
  3
STANDARD
350
13
  0
DICTIONARY
  5
566
102
{ACAD_REACTORS
330
C
102
}
330
C
100
AcDbDictionary
  3
A3_0_5倍_
350
758
  3
A3_1倍_
350
757
  3
A3_1倍__2000_
350
707
  3
A3_2倍_
350
759
  3
A4_0_5倍_
350
755
  3
A4_1倍_
350
754
  3
A4_1倍__2000_
350
708
  3
A4_2倍_
350
756
  0
ACDBDICTIONARYWDFLT
  5
563
102
{ACAD_REACTORS
330
C
102
}
330
C
100
AcDbDictionary
281
     1
  3
Normal
350
564
100
AcDbDictionaryWithDefault
340
564
  0
DICTIONARY
  5
131B
102
{ACAD_REACTORS
330
C
102
}
330
C
100
AcDbDictionary
  3
CEPSNTYPE
350
1325
  3
DIMSTYLEDATA
350
1329
  3
FINGERPRINTGUID
350
1326
  3
HYPERLINKBASE
350
131E
  3
INSUNITS
350
1324
  3
LAYOUTDICT
350
1320
  3
LWETCUNION
350
1323
  3
PLOTSETDICT
350
1321
  3
PLOTSTYLNAMDICT
350
1322
  3
PSVPSCALE
350
1328
  3
PUCSBASE
350
132C
  3
PUCSORGBACK
350
1332
  3
PUCSORGBOTTOM
350
132E
  3
PUCSORGFRONT
350
1331
  3
PUCSORGLEFT
350
132F
  3
PUCSORGRIGHT
350
1330
  3
PUCSORGTOP
350
132D
  3
PUCSORTHOREF
350
132A
  3
PUCSORTHOVIEW
350
132B
  3
STYLESHEET
350
131F
  3
TSTACKALIGN
350
131C
  3
TSTACKSIZE
350
131D
  3
UCSBASE
350
1335
  3
UCSORGBACK
350
133B
  3
UCSORGBOTTOM
350
1337
  3
UCSORGFRONT
350
133A
  3
UCSORGLEFT
350
1338
  3
UCSORGRIGHT
350
1339
  3
UCSORGTOP
350
1336
  3
UCSORTHOREF
350
1333
  3
UCSORTHOVIEW
350
1334
  3
VERSIONGUID
350
1327
  0
DICTIONARY
  5
540
102
{ACAD_REACTORS
330
C
102
}
330
C
100
AcDbDictionary
  3
VERSION
350
560
  0
XRECORD
  5
133D
102
{ACAD_REACTORS
330
F34
102
}
330
F34
100
AcDbXrecord
340
1A
  0
XRECORD
  5
133C
102
{ACAD_REACTORS
330
F32
102
}
330
F32
100
AcDbXrecord
340
17
  0
GROUP
  5
6C7
102
{ACAD_REACTORS
330
D
102
}
330
D
100
AcDbGroup
300

 70
     0
 71
     1
1001
GRPNAME
1000
DMA00
  0
GROUP
  5
6C8
102
{ACAD_REACTORS
330
D
102
}
330
D
100
AcDbGroup
300

 70
     0
 71
     1
1001
GRPNAME
1000
DMA00
  0
GROUP
  5
6D4
102
{ACAD_REACTORS
330
D
102
}
330
D
100
AcDbGroup
300

 70
     0
 71
     1
1001
GRPNAME
1000
DMA00
  0
GROUP
  5
6D5
102
{ACAD_REACTORS
330
D
102
}
330
D
100
AcDbGroup
300

 70
     0
 71
     1
1001
GRPNAME
1000
DMA00
  0
GROUP
  5
5FC
102
{ACAD_REACTORS
330
D
102
}
330
D
100
AcDbGroup
300

 70
     0
 71
     1
1001
GRPNAME
1000
DREC-
1001
GPARA
1000
xsiz
1000
44.182
1000
ysiz
1000
40.677
1000
angl
1000
0
1000
ctyp
1000
0
1000
csiz
1000
5
1000
lfnt
1000
cont
1000
hcnt
1000
hoff
1000
vcnt
1000
voff
1000
opnt
1000
4
1000
dxpt
1000
0
1000
dypt
1000
0
  0
GROUP
  5
654
102
{ACAD_REACTORS
330
D
102
}
330
D
100
AcDbGroup
300

 70
     0
 71
     1
1001
GRPNAME
1000
DREC-
1001
GPARA
1000
xsiz
1000
54.592
1000
ysiz
1000
53.036
1000
angl
1000
0
1000
ctyp
1000
0
1000
csiz
1000
5
1000
lfnt
1000
cont
1000
hcnt
1000
hoff
1000
vcnt
1000
voff
1000
opnt
1000
4
1000
dxpt
1000
0
1000
dypt
1000
0
  0
GROUP
  5
673
102
{ACAD_REACTORS
330
D
102
}
330
D
100
AcDbGroup
300

 70
     0
 71
     1
1001
GRPNAME
1000
DREC-
1001
GPARA
1000
xsiz
1000
30.363
1000
ysiz
1000
36.175
1000
angl
1000
0
1000
ctyp
1000
0
1000
csiz
1000
5
1000
lfnt
1000
cont
1000
hcnt
1000
hoff
1000
vcnt
1000
voff
1000
opnt
1000
4
1000
dxpt
1000
0
1000
dypt
1000
0
  0
MLINESTYLE
  5
13
102
{ACAD_REACTORS
330
E
102
}
330
E
100
AcDbMlineStyle
  2
STANDARD
 70
     0
  3

 62
     0
 51
90.0
 52
90.0
 71
     2
 49
0.5
 62
   256
  6
BYLAYER
 49
-0.5
 62
   256
  6
BYLAYER
  0
PLOTSETTINGS
  5
758
102
{ACAD_REACTORS
330
566
102
}
330
566
100
AcDbPlotSettings
  1
A3(0.5倍)
  2
\\AWTECPC05\HP DeskJet 1120C
  4
A3
  6

 40
5.95841646
 41
13.49375153
 42
6.04309082
 43
3.67242432
 44
296.92599487
 45
419.94665527
 46
89.96
 47
127.14
 48
0.0
 49
0.0
140
0.0
141
0.0
142
1.0
143
2.0
 70
  1716
 72
     1
 73
     1
 74
     2
  7
big.ctb
 75
    17
147
0.5
148
0.0
149
0.0
  0
PLOTSETTINGS
  5
757
102
{ACAD_REACTORS
330
566
102
}
330
566
100
AcDbPlotSettings
  1
A3(1倍)
  2
\\AWTECPC05\HP DeskJet 1120C
  4
A3
  6

 40
5.95841646
 41
13.49375153
 42
6.04309082
 43
3.67242432
 44
296.92599487
 45
419.94665527
 46
37.46
 47
52.89
 48
0.0
 49
0.0
140
0.0
141
0.0
142
1.0
143
1.0
 70
  1716
 72
     1
 73
     1
 74
     2
  7
big.ctb
 75
    16
147
1.0
148
0.0
149
0.0
  0
PLOTSETTINGS
  5
707
102
{ACAD_REACTORS
330
566
102
}
330
566
100
AcDbPlotSettings
  1
A3(1倍)(2000)
  2
SII LS-1300 (D-SCAN)
  4
User258
  6

 40
3.17499995
 41
3.17499995
 42
3.17498779
 43
3.17498779
 44
419.98898315
 45
296.98950195
 46
58.32
 47
40.32
 48
0.0
 49
0.0
140
0.0
141
0.0
142
1.0
143
1.0
 70
  1716
 72
     1
 73
     0
 74
     2
  7
big.ctb
 75
    16
147
1.0
148
0.0
149
0.0
  0
PLOTSETTINGS
  5
759
102
{ACAD_REACTORS
330
566
102
}
330
566
100
AcDbPlotSettings
  1
A3(2倍)
  2
\\AWTECPC05\HP DeskJet 1120C
  4
A3
  6

 40
5.95841646
 41
13.49375153
 42
6.04309082
 43
3.67242432
 44
296.92599487
 45
419.94665527
 46
-67.54
 47
-95.61
 48
0.0
 49
0.0
140
0.0
141
0.0
142
1.0
143
0.5
 70
  1716
 72
     1
 73
     1
 74
     2
  7
big.ctb
 75
    27
147
2.0
148
0.0
149
0.0
  0
PLOTSETTINGS
  5
755
102
{ACAD_REACTORS
330
566
102
}
330
566
100
AcDbPlotSettings
  1
A4(0.5倍)
  2
\\AWTECPC05\HP DeskJet 1120C
  4
A4
  6

 40
4.18041658
 41
13.49374962
 42
4.18040466
 43
3.92642212
 44
209.97332764
 45
296.92599487
 46
48.31
 47
65.5
 48
0.0
 49
0.0
140
0.0
141
0.0
142
1.0
143
2.0
 70
  1716
 72
     1
 73
     1
 74
     2
  7
big.ctb
 75
    17
147
0.5
148
0.0
149
0.0
  0
PLOTSETTINGS
  5
754
102
{ACAD_REACTORS
330
566
102
}
330
566
100
AcDbPlotSettings
  1
A4(1倍)
  2
\\AWTECPC05\HP DeskJet 1120C
  4
A4
  6

 40
4.18041658
 41
13.49374962
 42
4.18040466
 43
3.92642212
 44
209.97332764
 45
296.92599487
 46
-4.19
 47
-8.75
 48
0.0
 49
0.0
140
0.0
141
0.0
142
1.0
143
1.0
 70
  1716
 72
     1
 73
     1
 74
     2
  7
big.ctb
 75
    16
147
1.0
148
0.0
149
0.0
  0
PLOTSETTINGS
  5
708
102
{ACAD_REACTORS
330
566
102
}
330
566
100
AcDbPlotSettings
  1
A4(1倍)(2000)
  2
SII LS-1300 (D-SCAN)
  4
User259
  6

 40
3.17499995
 41
3.17499995
 42
3.17498779
 43
3.17500305
 44
296.98950195
 45
209.99449158
 46
-3.18
 47
-3.18
 48
0.0
 49
0.0
140
0.0
141
0.0
142
1.0
143
1.0
 70
  1716
 72
     1
 73
     0
 74
     2
  7
big.ctb
 75
    16
147
1.0
148
0.0
149
0.0
  0
PLOTSETTINGS
  5
756
102
{ACAD_REACTORS
330
566
102
}
330
566
100
AcDbPlotSettings
  1
A4(2倍)
  2
\\AWTECPC05\HP DeskJet 1120C
  4
A4
  6

 40
4.18041658
 41
13.49374962
 42
4.18040466
 43
3.92642212
 44
209.97332764
 45
296.92599487
 46
-109.19
 47
-157.25
 48
0.0
 49
0.0
140
0.0
141
0.0
142
1.0
143
0.5
 70
  1716
 72
     1
 73
     1
 74
     2
  7
big.ctb
 75
    27
147
2.0
148
0.0
149
0.0
  0
ACDBPLACEHOLDER
  5
564
102
{ACAD_REACTORS
330
563
102
}
330
563
100
AcDbPlaceHolder
280
     0
  0
XRECORD
  5
1325
102
{ACAD_REACTORS
330
131B
102
}
330
131B
100
AcDbXrecord
 90
        0
  0
XRECORD
  5
1329
102
{ACAD_REACTORS
330
131B
102
}
330
131B
100
AcDbXrecord
1000
DSTYLE
1002
{
1070
    79
 70
     2
1070
   179
 70
     3
1070
   341
340
594
1070
   343
340
594
1070
   344
340
594
1070
   371
 70
    -1
1070
   372
 70
    -1
1002
}
  0
XRECORD
  5
1326
102
{ACAD_REACTORS
330
131B
102
}
330
131B
100
AcDbXrecord
  1
{51294030-9CB4-11D3-8E18-00A0C925D94D}
  0
XRECORD
  5
131E
102
{ACAD_REACTORS
330
131B
102
}
330
131B
100
AcDbXrecord
  1

  0
XRECORD
  5
1324
102
{ACAD_REACTORS
330
131B
102
}
330
131B
100
AcDbXrecord
 90
        0
  0
XRECORD
  5
1320
102
{ACAD_REACTORS
330
131B
102
}
330
131B
100
AcDbXrecord
340
565
  0
XRECORD
  5
1323
102
{ACAD_REACTORS
330
131B
102
}
330
131B
100
AcDbXrecord
 90
    10781
  0
XRECORD
  5
1321
102
{ACAD_REACTORS
330
131B
102
}
330
131B
100
AcDbXrecord
340
566
  0
XRECORD
  5
1322
102
{ACAD_REACTORS
330
131B
102
}
330
131B
100
AcDbXrecord
340
563
  0
XRECORD
  5
1328
102
{ACAD_REACTORS
330
131B
102
}
330
131B
100
AcDbXrecord
 40
0.0
  0
XRECORD
  5
132C
102
{ACAD_REACTORS
330
131B
102
}
330
131B
100
AcDbXrecord
340
0
  0
XRECORD
  5
1332
102
{ACAD_REACTORS
330
131B
102
}
330
131B
100
AcDbXrecord
 10
0.0
 20
0.0
 30
0.0
  0
XRECORD
  5
132E
102
{ACAD_REACTORS
330
131B
102
}
330
131B
100
AcDbXrecord
 10
0.0
 20
0.0
 30
0.0
  0
XRECORD
  5
1331
102
{ACAD_REACTORS
330
131B
102
}
330
131B
100
AcDbXrecord
 10
0.0
 20
0.0
 30
0.0
  0
XRECORD
  5
132F
102
{ACAD_REACTORS
330
131B
102
}
330
131B
100
AcDbXrecord
 10
0.0
 20
0.0
 30
0.0
  0
XRECORD
  5
1330
102
{ACAD_REACTORS
330
131B
102
}
330
131B
100
AcDbXrecord
 10
0.0
 20
0.0
 30
0.0
  0
XRECORD
  5
132D
102
{ACAD_REACTORS
330
131B
102
}
330
131B
100
AcDbXrecord
 10
0.0
 20
0.0
 30
0.0
  0
XRECORD
  5
132A
102
{ACAD_REACTORS
330
131B
102
}
330
131B
100
AcDbXrecord
340
0
  0
XRECORD
  5
132B
102
{ACAD_REACTORS
330
131B
102
}
330
131B
100
AcDbXrecord
 70
     0
  0
XRECORD
  5
131F
102
{ACAD_REACTORS
330
131B
102
}
330
131B
100
AcDbXrecord
  1
big.ctb
  0
XRECORD
  5
131C
102
{ACAD_REACTORS
330
131B
102
}
330
131B
100
AcDbXrecord
 90
        1
  0
XRECORD
  5
131D
102
{ACAD_REACTORS
330
131B
102
}
330
131B
100
AcDbXrecord
 90
       70
  0
XRECORD
  5
1335
102
{ACAD_REACTORS
330
131B
102
}
330
131B
100
AcDbXrecord
340
0
  0
XRECORD
  5
133B
102
{ACAD_REACTORS
330
131B
102
}
330
131B
100
AcDbXrecord
 10
0.0
 20
0.0
 30
0.0
  0
XRECORD
  5
1337
102
{ACAD_REACTORS
330
131B
102
}
330
131B
100
AcDbXrecord
 10
0.0
 20
0.0
 30
0.0
  0
XRECORD
  5
133A
102
{ACAD_REACTORS
330
131B
102
}
330
131B
100
AcDbXrecord
 10
0.0
 20
0.0
 30
0.0
  0
XRECORD
  5
1338
102
{ACAD_REACTORS
330
131B
102
}
330
131B
100
AcDbXrecord
 10
0.0
 20
0.0
 30
0.0
  0
XRECORD
  5
1339
102
{ACAD_REACTORS
330
131B
102
}
330
131B
100
AcDbXrecord
 10
0.0
 20
0.0
 30
0.0
  0
XRECORD
  5
1336
102
{ACAD_REACTORS
330
131B
102
}
330
131B
100
AcDbXrecord
 10
0.0
 20
0.0
 30
0.0
  0
XRECORD
  5
1333
102
{ACAD_REACTORS
330
131B
102
}
330
131B
100
AcDbXrecord
340
0
  0
XRECORD
  5
1334
102
{ACAD_REACTORS
330
131B
102
}
330
131B
100
AcDbXrecord
 70
     0
  0
XRECORD
  5
1327
102
{ACAD_REACTORS
330
131B
102
}
330
131B
100
AcDbXrecord
  1
{ADA8D33E-B1C4-4E1B-BC90-D1F9CD6392E7}
  0
XRECORD
  5
560
102
{ACAD_REACTORS
330
540
102
}
330
540
100
AcDbXrecord
  1
2.0.0
  0
ENDSEC
  0
EOF
