  0
SECTION
  2
HEADER
  9
$ACADVER
  1
AC1014
  9
$ACADMAINTVER
 70
     9
  9
$DWGCODEPAGE
  3
ANSI_932
  9
$INSBASE
 10
0.0
 20
0.0
 30
0.0
  9
$EXTMIN
 10
-66.41484262
 20
-31.71713736
 30
-0.00152582
  9
$EXTMAX
 10
99.01875076
 20
61.02264515
 30
0.00000003
  9
$LIMMIN
 10
0.0
 20
0.0
  9
$LIMMAX
 10
420.0
 20
297.0
  9
$ORTHOMODE
 70
     0
  9
$REGENMODE
 70
     1
  9
$FILLMODE
 70
     1
  9
$QTEXTMODE
 70
     0
  9
$MIRRTEXT
 70
     1
  9
$DRAGMODE
 70
     2
  9
$LTSCALE
 40
10.0
  9
$OSMODE
 70
   549
  9
$ATTMODE
 70
     1
  9
$TEXTSIZE
 40
3.0
  9
$TRACEWID
 40
1.0
  9
$TEXTSTYLE
  7
YOKO
  9
$CLAYER
  8
245
  9
$CELTYPE
  6
BYLAYER
  9
$CECOLOR
 62
   256
  9
$CELTSCALE
 40
1.0
  9
$DELOBJ
 70
     1
  9
$DISPSILH
 70
     0
  9
$DIMSCALE
 40
1.0
  9
$DIMASZ
 40
2.23
  9
$DIMEXO
 40
0.5
  9
$DIMDLI
 40
2.5
  9
$DIMRND
 40
0.0
  9
$DIMDLE
 40
0.0
  9
$DIMEXE
 40
1.0
  9
$DIMTP
 40
0.0
  9
$DIMTM
 40
0.0
  9
$DIMTXT
 40
2.8
  9
$DIMCEN
 40
0.0
  9
$DIMTSZ
 40
0.0
  9
$DIMTOL
 70
     0
  9
$DIMLIM
 70
     0
  9
$DIMTIH
 70
     0
  9
$DIMTOH
 70
     0
  9
$DIMSE1
 70
     0
  9
$DIMSE2
 70
     0
  9
$DIMTAD
 70
     3
  9
$DIMZIN
 70
     8
  9
$DIMBLK
  1

  9
$DIMASO
 70
     1
  9
$DIMSHO
 70
     1
  9
$DIMPOST
  1

  9
$DIMAPOST
  1

  9
$DIMALT
 70
     0
  9
$DIMALTD
 70
     2
  9
$DIMALTF
 40
25.4
  9
$DIMLFAC
 40
1.0
  9
$DIMTOFL
 70
     1
  9
$DIMTVP
 40
0.0
  9
$DIMTIX
 70
     1
  9
$DIMSOXD
 70
     0
  9
$DIMSAH
 70
     1
  9
$DIMBLK1
  1
OPEN
  9
$DIMBLK2
  1
OPEN
  9
$DIMSTYLE
  2
BIGT
  9
$DIMCLRD
 70
   256
  9
$DIMCLRE
 70
   256
  9
$DIMCLRT
 70
    40
  9
$DIMTFAC
 40
1.0
  9
$DIMGAP
 40
1.0
  9
$DIMJUST
 70
     0
  9
$DIMSD1
 70
     0
  9
$DIMSD2
 70
     0
  9
$DIMTOLJ
 70
     1
  9
$DIMTZIN
 70
     8
  9
$DIMALTZ
 70
     0
  9
$DIMALTTZ
 70
     0
  9
$DIMFIT
 70
     3
  9
$DIMUPT
 70
     0
  9
$DIMUNIT
 70
     2
  9
$DIMDEC
 70
     3
  9
$DIMTDEC
 70
     3
  9
$DIMALTU
 70
     2
  9
$DIMALTTD
 70
     2
  9
$DIMTXSTY
  7
STANDARD
  9
$DIMAUNIT
 70
     0
  9
$LUNITS
 70
     2
  9
$LUPREC
 70
     3
  9
$SKETCHINC
 40
1.0
  9
$FILLETRAD
 40
1.0
  9
$AUNITS
 70
     0
  9
$AUPREC
 70
     3
  9
$MENU
  1
.
  9
$ELEVATION
 40
0.0
  9
$PELEVATION
 40
0.0
  9
$THICKNESS
 40
0.0
  9
$LIMCHECK
 70
     0
  9
$BLIPMODE
 70
     0
  9
$CHAMFERA
 40
10.0
  9
$CHAMFERB
 40
10.0
  9
$CHAMFERC
 40
0.0
  9
$CHAMFERD
 40
0.0
  9
$SKPOLY
 70
     0
  9
$TDCREATE
 40
2455141.418494641
  9
$TDUPDATE
 40
2455383.501334629
  9
$TDINDWG
 40
0.0124316435
  9
$TDUSRTIMER
 40
0.0124316435
  9
$USRTIMER
 70
     1
  9
$ANGBASE
 50
0.0
  9
$ANGDIR
 70
     0
  9
$PDMODE
 70
     1
  9
$PDSIZE
 40
-5.0
  9
$PLINEWID
 40
0.0
  9
$COORDS
 70
     1
  9
$SPLFRAME
 70
     0
  9
$SPLINETYPE
 70
     6
  9
$SPLINESEGS
 70
     8
  9
$ATTDIA
 70
     0
  9
$ATTREQ
 70
     1
  9
$HANDLING
 70
-16383
  9
$HANDSEED
  5
1664
  9
$SURFTAB1
 70
     6
  9
$SURFTAB2
 70
     6
  9
$SURFTYPE
 70
     6
  9
$SURFU
 70
     6
  9
$SURFV
 70
     6
  9
$UCSNAME
  2

  9
$UCSORG
 10
0.0
 20
0.0
 30
0.0
  9
$UCSXDIR
 10
1.0
 20
0.0
 30
0.0
  9
$UCSYDIR
 10
0.0
 20
1.0
 30
0.0
  9
$PUCSNAME
  2

  9
$PUCSORG
 10
0.0
 20
0.0
 30
0.0
  9
$PUCSXDIR
 10
1.0
 20
0.0
 30
0.0
  9
$PUCSYDIR
 10
0.0
 20
1.0
 30
0.0
  9
$USERI1
 70
     1
  9
$USERI2
 70
     0
  9
$USERI3
 70
     0
  9
$USERI4
 70
     0
  9
$USERI5
 70
     0
  9
$USERR1
 40
0.0
  9
$USERR2
 40
0.0
  9
$USERR3
 40
0.0
  9
$USERR4
 40
0.0
  9
$USERR5
 40
0.0
  9
$WORLDVIEW
 70
     1
  9
$SHADEDGE
 70
     3
  9
$SHADEDIF
 70
    70
  9
$TILEMODE
 70
     1
  9
$MAXACTVP
 70
    16
  9
$PINSBASE
 10
0.0
 20
0.0
 30
0.0
  9
$PLIMCHECK
 70
     0
  9
$PEXTMIN
 10
1.00000000E+20
 20
1.00000000E+20
 30
1.00000000E+20
  9
$PEXTMAX
 10
-1.00000000E+20
 20
-1.00000000E+20
 30
-1.00000000E+20
  9
$PLIMMIN
 10
0.0
 20
0.0
  9
$PLIMMAX
 10
420.0
 20
297.0
  9
$UNITMODE
 70
     0
  9
$VISRETAIN
 70
     0
  9
$PLINEGEN
 70
     0
  9
$PSLTSCALE
 70
     1
  9
$TREEDEPTH
 70
  3020
  9
$PICKSTYLE
 70
     0
  9
$CMLSTYLE
  2
STANDARD
  9
$CMLJUST
 70
     0
  9
$CMLSCALE
 40
1.0
  9
$PROXYGRAPHICS
 70
     1
  9
$MEASUREMENT
 70
     1
  0
ENDSEC
  0
SECTION
  2
CLASSES
  0
CLASS
  1
XRECORD
  2
AcDbXrecord
  3
AutoCAD 2000
 90
        0
280
     0
281
     0
  0
CLASS
  1
ACDBDICTIONARYWDFLT
  2
AcDbDictionaryWithDefault
  3
AutoCAD 2000
 90
        0
280
     0
281
     0
  0
CLASS
  1
ACDBPLACEHOLDER
  2
AcDbPlaceHolder
  3
AutoCAD 2000
 90
        0
280
     0
281
     0
  0
CLASS
  1
LAYOUT
  2
AcDbLayout
  3
AutoCAD 2000
 90
        0
280
     0
281
     0
  0
CLASS
  1
PLOTSETTINGS
  2
AcDbPlotSettings
  3
AutoCAD 2000
 90
        0
280
     0
281
     0
  0
CLASS
  1
LONG_TRANSACTION
  2
AcDbLongTransaction
  3
AutoCAD 2000
 90
        0
280
     0
281
     0
  0
CLASS
  1
LWPOLYLINE
  2
AcDbPolyline
  3
AutoCAD 2000
 90
        0
280
     0
281
     1
  0
CLASS
  1
HATCH
  2
AcDbHatch
  3
AutoCAD 2000
 90
        0
280
     0
281
     1
  0
CLASS
  1
XRECORD
  2
AcDbXrecord
  3
AutoCAD 2000
 90
        0
280
     0
281
     0
  0
CLASS
  1
LONG_TRANSACTION
  2
AcDbLongTransaction
  3
AutoCAD 2000
 90
        0
280
     0
281
     0
  0
CLASS
  1
LWPOLYLINE
  2
AcDbPolyline
  3
AutoCAD 2000
 90
        0
280
     0
281
     1
  0
CLASS
  1
HATCH
  2
AcDbHatch
  3
AutoCAD 2000
 90
        0
280
     0
281
     1
  0
CLASS
  1
XRECORD
  2
AcDbXrecord
  3
AutoCAD 2000
 90
        0
280
     0
281
     0
  0
CLASS
  1
LONG_TRANSACTION
  2
AcDbLongTransaction
  3
AutoCAD 2000
 90
        0
280
     0
281
     0
  0
CLASS
  1
LWPOLYLINE
  2
AcDbPolyline
  3
AutoCAD 2000
 90
        0
280
     0
281
     1
  0
CLASS
  1
HATCH
  2
AcDbHatch
  3
AutoCAD 2000
 90
        0
280
     0
281
     1
  0
CLASS
  1
XRECORD
  2
AcDbXrecord
  3
AutoCAD 2000
 90
        0
280
     0
281
     0
  0
ENDSEC
  0
SECTION
  2
TABLES
  0
TABLE
  2
VPORT
  5
8
330
0
100
AcDbSymbolTable
 70
     4
  0
VPORT
  5
163F
330
8
100
AcDbSymbolTableRecord
100
AcDbViewportTableRecord
  2
*ACTIVE
 70
     0
 10
0.0
 20
0.0
 11
1.0
 21
1.0
 12
16.30195407
 22
14.65275389
 13
0.0
 23
0.0
 14
7.0
 24
7.0
 15
7.0
 25
7.0
 16
0.0
 26
0.0
 36
1.0
 17
0.0
 27
0.0
 37
0.0
 40
114.23096386
 41
1.45595855
 42
50.0
 43
0.0
 44
0.0
 50
0.0
 51
0.0
 71
     0
 72
  2000
 73
     1
 74
     0
 75
     0
 76
     0
 77
     0
 78
     0
  0
ENDTAB
  0
TABLE
  2
LTYPE
  5
5
330
0
100
AcDbSymbolTable
 70
     4
  0
LTYPE
  5
14
330
5
100
AcDbSymbolTableRecord
100
AcDbLinetypeTableRecord
  2
BYBLOCK
 70
     0
  3

 72
    65
 73
     0
 40
0.0
  0
LTYPE
  5
15
330
5
100
AcDbSymbolTableRecord
100
AcDbLinetypeTableRecord
  2
BYLAYER
 70
     0
  3

 72
    65
 73
     0
 40
0.0
  0
LTYPE
  5
16
330
5
100
AcDbSymbolTableRecord
100
AcDbLinetypeTableRecord
  2
CONTINUOUS
 70
     0
  3
Solid line
 72
    65
 73
     0
 40
0.0
  0
LTYPE
  5
258
330
5
100
AcDbSymbolTableRecord
100
AcDbLinetypeTableRecord
  2
CENTER2
 70
     0
  3
___ _ ___ _ ___ _ ___ _ ___ _ ___ _ ___ _ ___ _
 72
    65
 73
     4
 40
1.125
 49
0.75
 74
     0
 49
-0.125
 74
     0
 49
0.125
 74
     0
 49
-0.125
 74
     0
  0
LTYPE
  5
25C
330
5
100
AcDbSymbolTableRecord
100
AcDbLinetypeTableRecord
  2
HIDDEN2
 70
     0
  3
_ _ _ _ _ _ _ _ _ _ _ _ _ _ _ _ _ _ _ _ _ _ _ _
 72
    65
 73
     2
 40
0.1875
 49
0.125
 74
     0
 49
-0.0625
 74
     0
  0
LTYPE
  5
25D
330
5
100
AcDbSymbolTableRecord
100
AcDbLinetypeTableRecord
  2
PHANTOM2
 70
     0
  3
___ _ _ ___ _ _ ___ _ _ ___ _ _ ___ _ _ ___ _ _
 72
    65
 73
     6
 40
1.25
 49
0.625
 74
     0
 49
-0.125
 74
     0
 49
0.125
 74
     0
 49
-0.125
 74
     0
 49
0.125
 74
     0
 49
-0.125
 74
     0
  0
ENDTAB
  0
TABLE
  2
LAYER
  5
2
330
0
100
AcDbSymbolTable
 70
     8
  0
LAYER
  5
F
330
2
100
AcDbSymbolTableRecord
100
AcDbLayerTableRecord
  2
0
 70
     0
 62
     7
  6
CONTINUOUS
  0
LAYER
  5
1AA
330
2
100
AcDbSymbolTableRecord
100
AcDbLayerTableRecord
  2
240
 70
     0
 62
     4
  6
CONTINUOUS
  0
LAYER
  5
1AB
330
2
100
AcDbSymbolTableRecord
100
AcDbLayerTableRecord
  2
241
 70
     0
 62
   211
  6
CONTINUOUS
  0
LAYER
  5
1AF
330
2
100
AcDbSymbolTableRecord
100
AcDbLayerTableRecord
  2
245
 70
     0
 62
     2
  6
CENTER2
  0
LAYER
  5
21A
330
2
100
AcDbSymbolTableRecord
100
AcDbLayerTableRecord
  2
246
 70
     0
 62
     3
  6
PHANTOM2
  0
LAYER
  5
21E
330
2
100
AcDbSymbolTableRecord
100
AcDbLayerTableRecord
  2
250
 70
     0
 62
     3
  6
CONTINUOUS
  0
LAYER
  5
5C4
330
2
100
AcDbSymbolTableRecord
100
AcDbLayerTableRecord
  2
DEFPOINTS
 70
     0
 62
     7
  6
CONTINUOUS
  0
ENDTAB
  0
TABLE
  2
STYLE
  5
3
330
0
100
AcDbSymbolTable
 70
     2
  0
STYLE
  5
10
330
3
100
AcDbSymbolTableRecord
100
AcDbTextStyleTableRecord
  2
STANDARD
 70
     0
 40
0.0
 41
1.0
 50
0.0
 71
     0
 42
3.0
  3
romans.shx
  4
BIGFONT.SHX
  0
STYLE
  5
339
330
3
100
AcDbSymbolTableRecord
100
AcDbTextStyleTableRecord
  2
YOKO
 70
     0
 40
0.0
 41
1.0
 50
0.0
 71
     0
 42
3.0
  3
romans.shx
  4
extfont.shx
  0
ENDTAB
  0
TABLE
  2
VIEW
  5
6
330
0
100
AcDbSymbolTable
 70
     1
  0
VIEW
  5
163D
330
6
100
AcDbSymbolTableRecord
100
AcDbViewTableRecord
  2
OLE1
 70
     0
 40
114.23096386
 10
16.30195407
 20
14.65275389
 41
166.31554842
 11
0.0
 21
0.0
 31
1.0
 12
0.0
 22
0.0
 32
0.0
 42
50.0
 43
0.0
 44
0.0
 50
0.0
 71
     0
  0
ENDTAB
  0
TABLE
  2
UCS
  5
7
330
0
100
AcDbSymbolTable
 70
     0
  0
ENDTAB
  0
TABLE
  2
APPID
  5
9
330
0
100
AcDbSymbolTable
 70
    12
  0
APPID
  5
11
330
9
100
AcDbSymbolTableRecord
100
AcDbRegAppTableRecord
  2
ACAD
 70
     0
  0
APPID
  5
1B1
330
9
100
AcDbSymbolTableRecord
100
AcDbRegAppTableRecord
  2
GLOBAL
 70
     0
  0
APPID
  5
2A4
330
9
100
AcDbSymbolTableRecord
100
AcDbRegAppTableRecord
  2
DETAIL
 70
     0
  0
APPID
  5
5FD
330
9
100
AcDbSymbolTableRecord
100
AcDbRegAppTableRecord
  2
GRPNAME
 70
     0
  0
APPID
  5
5FE
330
9
100
AcDbSymbolTableRecord
100
AcDbRegAppTableRecord
  2
GPARA
 70
     0
  0
APPID
  5
6C4
330
9
100
AcDbSymbolTableRecord
100
AcDbRegAppTableRecord
  2
DCO15
 70
     0
  0
APPID
  5
6C5
330
9
100
AcDbSymbolTableRecord
100
AcDbRegAppTableRecord
  2
ITEMNAME
 70
     0
  0
APPID
  5
6C6
330
9
100
AcDbSymbolTableRecord
100
AcDbRegAppTableRecord
  2
GRADE_0
 70
     0
  0
APPID
  5
9E4
330
9
100
AcDbSymbolTableRecord
100
AcDbRegAppTableRecord
  2
HATCH_TYPE
 70
     0
  0
APPID
  5
9E5
330
9
100
AcDbSymbolTableRecord
100
AcDbRegAppTableRecord
  2
HATCH_DISPLAY
 70
     0
  0
APPID
  5
9E6
330
9
100
AcDbSymbolTableRecord
100
AcDbRegAppTableRecord
  2
HATCH_DISTANCE
 70
     0
  0
APPID
  5
F43
330
9
100
AcDbSymbolTableRecord
100
AcDbRegAppTableRecord
  2
CONTENTBLOCKICON
 70
     0
  0
ENDTAB
  0
TABLE
  2
DIMSTYLE
  5
A
330
0
100
AcDbSymbolTable
 70
     1
  0
DIMSTYLE
105
725
102
{ACAD_REACTORS
330
C88
330
C97
330
CA6
330
CB5
102
}
330
A
100
AcDbSymbolTableRecord
100
AcDbDimStyleTableRecord
  2
BIGT
 70
     0
  3

  4

  5

  6
OPEN
  7
OPEN
 40
1.0
 41
2.23
 42
0.5
 43
2.5
 44
1.0
 45
0.0
 46
0.0
 47
0.0
 48
0.0
140
2.8
141
0.0
142
0.0
143
25.4
144
1.0
145
0.0
146
1.0
147
1.0
 71
     0
 72
     0
 73
     0
 74
     0
 75
     0
 76
     0
 77
     3
 78
     8
170
     0
171
     2
172
     1
173
     1
174
     1
175
     0
176
   256
177
   256
178
    40
270
     2
271
     3
272
     3
273
     2
274
     2
340
10
275
     0
280
     0
281
     0
282
     0
283
     1
284
     8
285
     0
286
     0
287
     3
288
     0
  0
ENDTAB
  0
TABLE
  2
BLOCK_RECORD
  5
1
330
0
100
AcDbSymbolTable
 70
     7
  0
BLOCK_RECORD
  5
1A
102
{ACAD_XDICTIONARY
360
F41
102
}
330
1
100
AcDbSymbolTableRecord
100
AcDbBlockTableRecord
  2
*MODEL_SPACE
  0
BLOCK_RECORD
  5
17
102
{ACAD_XDICTIONARY
360
F3F
102
}
330
1
100
AcDbSymbolTableRecord
100
AcDbBlockTableRecord
  2
*PAPER_SPACE
  0
BLOCK_RECORD
  5
594
330
1
100
AcDbSymbolTableRecord
100
AcDbBlockTableRecord
  2
_OPEN
  0
BLOCK_RECORD
  5
6E3
330
1
100
AcDbSymbolTableRecord
100
AcDbBlockTableRecord
  2
矢印なし
  0
BLOCK_RECORD
  5
C89
330
1
100
AcDbSymbolTableRecord
100
AcDbBlockTableRecord
  2
*D2
  0
BLOCK_RECORD
  5
C98
330
1
100
AcDbSymbolTableRecord
100
AcDbBlockTableRecord
  2
*D3
  0
BLOCK_RECORD
  5
CA7
330
1
100
AcDbSymbolTableRecord
100
AcDbBlockTableRecord
  2
*D4
  0
BLOCK_RECORD
  5
CB6
330
1
100
AcDbSymbolTableRecord
100
AcDbBlockTableRecord
  2
*D5
  0
BLOCK_RECORD
  5
D07
330
1
100
AcDbSymbolTableRecord
100
AcDbBlockTableRecord
  2
1
1001
CONTENTBLOCKICON
1071
        0
1004
2800000020000000200000000100080000000000000400000000000000000000000000000000000000000000000080000080000000808000800000008000800080800000C0C0C000C0DCC000F0CAA6000020400000206000002080000020A0000020C0000020E00000400000004020000040400000406000004080000040A0
1004
000040C0000040E00000600000006020000060400000606000006080000060A0000060C0000060E00000800000008020000080400000806000008080000080A0000080C0000080E00000A0000000A0200000A0400000A0600000A0800000A0A00000A0C00000A0E00000C0000000C0200000C0400000C0600000C0800000C0
1004
A00000C0C00000C0E00000E0000000E0200000E0400000E0600000E0800000E0A00000E0C00000E0E00040000000400020004000400040006000400080004000A0004000C0004000E00040200000402020004020400040206000402080004020A0004020C0004020E000404000004040200040404000404060004040800040
1004
40A0004040C0004040E00040600000406020004060400040606000406080004060A0004060C0004060E00040800000408020004080400040806000408080004080A0004080C0004080E00040A0000040A0200040A0400040A0600040A0800040A0A00040A0C00040A0E00040C0000040C0200040C0400040C0600040C08000
1004
40C0A00040C0C00040C0E00040E0000040E0200040E0400040E0600040E0800040E0A00040E0C00040E0E00080000000800020008000400080006000800080008000A0008000C0008000E00080200000802020008020400080206000802080008020A0008020C0008020E00080400000804020008040400080406000804080
1004
008040A0008040C0008040E00080600000806020008060400080606000806080008060A0008060C0008060E00080800000808020008080400080806000808080008080A0008080C0008080E00080A0000080A0200080A0400080A0600080A0800080A0A00080A0C00080A0E00080C0000080C0200080C0400080C0600080C0
1004
800080C0A00080C0C00080C0E00080E0000080E0200080E0400080E0600080E0800080E0A00080E0C00080E0E000C0000000C0002000C0004000C0006000C0008000C000A000C000C000C000E000C0200000C0202000C0204000C0206000C0208000C020A000C020C000C020E000C0400000C0402000C0404000C0406000C0
1004
408000C040A000C040C000C040E000C0600000C0602000C0604000C0606000C0608000C060A000C060C000C060E000C0800000C0802000C0804000C0806000C0808000C080A000C080C000C080E000C0A00000C0A02000C0A04000C0A06000C0A08000C0A0A000C0A0C000C0A0E000C0C00000C0C02000C0C04000C0C06000
1004
C0C08000C0C0A000F0FBFF00A4A0A000808080000000FF0000FF000000FFFF00FF000000FF00FF00FFFF0000FFFFFF0000000000000000000000000000000000000000000000000000000000000000000000000000000000000000000000000000000000000000000000000000000000000000000000000000000000000000
1004
00000000000000000000000000000000000000000000000000000000000000000000000000000000000000000000000000000000000000000000000000000000000000000000000000000000000000000000000000000000000000000000000000000000000000000000000000000000000000000000000000000000000000
1004
00000000000000000000000000000000000000000000000000000000000000000000000000000000000000000000000000000000000000000000000000000000000000000000000000000000000000000000000000000000000000000000000000000000000000000000000000000000000000000000000000000000000000
1004
00FEFEFEFBFEFE000000000000000000000000000000000000000000000000FEFEFEE7FEFEE7FEE70000000000000000000000000000000000FEFEFEFEFEFE0000E700E7E7E7E7E700000000000000000000000000FEFEFEFE0000000000000000E700E7E7E7E7E7FE000000000000000000000000FE000000000000000000
1004
0000E700E7E7E7E7E700E7FEFEFEFEFEFEFE00000000FE0000000000000000000000E700E7E7E7E7E700E7000000E7E700FE000000FBFEFBFBFBFBFBFBFBFBFBFBFBE7FBE7E7E7E7E7FBE7FBFBFBE7E7E7E7FB000000FE0000000000000000000000E700E7E7E7E7E700E7FEFEFEFEFEE7E700000000FEFEFE000000000000
1004
000000E700E7E7E7E7E7FEFE0000000000000000000000000000FEFEFEFEFEFE000000E700E7E7E7E7FE00000000000000000000000000000000000000000000FEFEFEFEE7FEFEE7FEE700000000000000000000000000000000000000000000000000FEFEFEFBFEFE00000000000000000000000000000000000000000000
1004
00000000000000000000000000000000000000000000000000000000000000000000000000000000000000000000000000000000000000000000000000000000000000000000000000000000000000000000000000000000000000000000000000000000000000000000000000000000000000000000000000000000000000
1004
00000000000000000000000000000000000000000000000000000000000000000000000000000000000000000000000000000000000000000000000000000000000000000000000000000000000000000000000000000000000000000000000000000000000000000000000000000000000000000000000000000000000000
1004
0000000000000000000000000000000000000000000000000000000000000000000000000000000000000000000000000000000000000000
  0
ENDTAB
  0
ENDSEC
  0
SECTION
  2
BLOCKS
  0
BLOCK
  5
1B
330
1A
100
AcDbEntity
  8
0
100
AcDbBlockBegin
  2
*MODEL_SPACE
 70
     0
 10
0.0
 20
0.0
 30
0.0
  3
*MODEL_SPACE
  1

  0
ENDBLK
  5
1C
330
1A
100
AcDbEntity
  8
0
100
AcDbBlockEnd
  0
BLOCK
  5
18
330
17
100
AcDbEntity
 67
     1
  8
0
100
AcDbBlockBegin
  2
*PAPER_SPACE
 70
     0
 10
0.0
 20
0.0
 30
0.0
  3
*PAPER_SPACE
  1

  0
ENDBLK
  5
19
330
17
100
AcDbEntity
 67
     1
  8
0
100
AcDbBlockEnd
  0
BLOCK
  5
598
330
594
100
AcDbEntity
  8
0
100
AcDbBlockBegin
  2
_OPEN
 70
     0
 10
0.0
 20
0.0
 30
0.0
  3
_OPEN
  1

  0
LINE
  5
595
330
594
100
AcDbEntity
  8
0
  6
BYBLOCK
 62
     0
100
AcDbLine
 10
-1.0
 20
0.16666667
 30
0.0
 11
0.0
 21
0.0
 31
0.0
  0
LINE
  5
596
330
594
100
AcDbEntity
  8
0
  6
BYBLOCK
 62
     0
100
AcDbLine
 10
-1.0
 20
-0.16666667
 30
0.0
 11
0.0
 21
0.0
 31
0.0
  0
LINE
  5
597
330
594
100
AcDbEntity
  8
0
  6
BYBLOCK
 62
     0
100
AcDbLine
 10
0.0
 20
0.0
 30
0.0
 11
-1.0
 21
0.0
 31
0.0
  0
ENDBLK
  5
599
330
594
100
AcDbEntity
  8
0
100
AcDbBlockEnd
  0
BLOCK
  5
6E4
330
6E3
100
AcDbEntity
  8
0
100
AcDbBlockBegin
  2
矢印なし
 70
     0
 10
0.0
 20
0.0
 30
0.0
  3
矢印なし
  1

  0
ENDBLK
  5
6E5
330
6E3
100
AcDbEntity
  8
0
100
AcDbBlockEnd
  0
BLOCK
  5
C93
330
C89
100
AcDbEntity
  8
0
100
AcDbBlockBegin
  2
*D2
 70
     1
 10
0.0
 20
0.0
 30
0.0
  3
*D2
  1

  0
LINE
  5
CFE
330
C89
100
AcDbEntity
  8
250
  6
CONTINUOUS
100
AcDbLine
 10
85.5
 20
-10.0
 30
0.0
 11
99.0
 21
-10.0
 31
0.0
  0
LINE
  5
CFF
330
C89
100
AcDbEntity
  8
250
  6
CONTINUOUS
100
AcDbLine
 10
85.5
 20
10.0
 30
0.0
 11
99.0
 21
10.0
 31
0.0
  0
LINE
  5
D00
330
C89
100
AcDbEntity
  8
250
  6
CONTINUOUS
100
AcDbLine
 10
98.0
 20
-7.77
 30
0.0
 11
98.0
 21
7.77
 31
0.0
  0
INSERT
  5
D01
330
C89
100
AcDbEntity
  8
250
  6
CONTINUOUS
100
AcDbBlockReference
  2
_OPEN
 10
98.0
 20
-10.0
 30
0.0
 41
2.23
 42
2.23
 43
2.23
 50
270.0
  0
INSERT
  5
D02
330
C89
100
AcDbEntity
  8
250
  6
CONTINUOUS
100
AcDbBlockReference
  2
_OPEN
 10
98.0
 20
10.0
 30
0.0
 41
2.23
 42
2.23
 43
2.23
 50
90.0
  0
MTEXT
  5
D03
330
C89
100
AcDbEntity
  8
250
  6
CONTINUOUS
 62
    40
100
AcDbMText
 10
95.6
 20
0.0
 30
0.0
 40
2.8
 41
0.0
 71
     5
 72
     1
  1
\A1;{\H2.8;\U+2205}20
 11
0.0
 21
1.0
 31
0.0
1001
ACAD
1000
MTEXTBEGIN
1070
    73
1070
     1
1070
    44
1040
1.0
1070
    74
1070
     0
1000
MTEXTEND
1000
MTEXTBEGIN
1070
    73
1070
     1
1070
    44
1040
1.0
1070
    74
1070
     0
1000
MTEXTEND
1000
MTEXTBEGIN
1070
    73
1070
     1
1070
    44
1040
1.0
1070
    74
1070
     0
1000
MTEXTEND
  0
POINT
  5
D04
330
C89
100
AcDbEntity
  8
DEFPOINTS
  6
CONTINUOUS
 62
     0
100
AcDbPoint
 10
85.0
 20
-10.0
 30
0.0
  0
POINT
  5
D05
330
C89
100
AcDbEntity
  8
DEFPOINTS
  6
CONTINUOUS
 62
     0
100
AcDbPoint
 10
85.0
 20
10.0
 30
0.0
  0
POINT
  5
D06
330
C89
100
AcDbEntity
  8
DEFPOINTS
  6
CONTINUOUS
 62
     0
100
AcDbPoint
 10
98.0
 20
10.0
 30
0.0
  0
ENDBLK
  5
C94
330
C89
100
AcDbEntity
  8
0
100
AcDbBlockEnd
  0
BLOCK
  5
CA2
330
C98
100
AcDbEntity
  8
0
100
AcDbBlockBegin
  2
*D3
 70
     1
 10
0.0
 20
0.0
 30
0.0
  3
*D3
  1

  0
LINE
  5
CF5
330
C98
100
AcDbEntity
  8
250
  6
CONTINUOUS
100
AcDbLine
 10
77.0
 20
10.5
 30
0.0
 11
77.0
 21
29.0
 31
0.0
  0
LINE
  5
CF6
330
C98
100
AcDbEntity
  8
250
  6
CONTINUOUS
100
AcDbLine
 10
85.0
 20
10.5
 30
0.0
 11
85.0
 21
29.0
 31
0.0
  0
LINE
  5
CF7
330
C98
100
AcDbEntity
  8
250
  6
CONTINUOUS
100
AcDbLine
 10
79.23
 20
28.0
 30
0.0
 11
82.77
 21
28.0
 31
0.0
  0
INSERT
  5
CF8
330
C98
100
AcDbEntity
  8
250
  6
CONTINUOUS
100
AcDbBlockReference
  2
_OPEN
 10
77.0
 20
28.0
 30
0.0
 41
2.23
 42
2.23
 43
2.23
 50
180.0
  0
INSERT
  5
CF9
330
C98
100
AcDbEntity
  8
250
  6
CONTINUOUS
100
AcDbBlockReference
  2
_OPEN
 10
85.0
 20
28.0
 30
0.0
 41
2.23
 42
2.23
 43
2.23
  0
MTEXT
  5
CFA
330
C98
100
AcDbEntity
  8
250
  6
CONTINUOUS
 62
    40
100
AcDbMText
 10
81.0
 20
30.4
 30
0.0
 40
2.8
 41
0.0
 71
     5
 72
     1
  1
\A1;8
1001
ACAD
1000
MTEXTBEGIN
1070
    73
1070
     1
1070
    44
1040
1.0
1070
    74
1070
     0
1000
MTEXTEND
1000
MTEXTBEGIN
1070
    73
1070
     1
1070
    44
1040
1.0
1070
    74
1070
     0
1000
MTEXTEND
1000
MTEXTBEGIN
1070
    73
1070
     1
1070
    44
1040
1.0
1070
    74
1070
     0
1000
MTEXTEND
  0
POINT
  5
CFB
330
C98
100
AcDbEntity
  8
DEFPOINTS
  6
CONTINUOUS
 62
     0
100
AcDbPoint
 10
77.0
 20
10.0
 30
0.0
  0
POINT
  5
CFC
330
C98
100
AcDbEntity
  8
DEFPOINTS
  6
CONTINUOUS
 62
     0
100
AcDbPoint
 10
85.0
 20
10.0
 30
0.0
  0
POINT
  5
CFD
330
C98
100
AcDbEntity
  8
DEFPOINTS
  6
CONTINUOUS
 62
     0
100
AcDbPoint
 10
85.0
 20
28.0
 30
0.0
  0
ENDBLK
  5
CA3
330
C98
100
AcDbEntity
  8
0
100
AcDbBlockEnd
  0
BLOCK
  5
CB1
330
CA7
100
AcDbEntity
  8
0
100
AcDbBlockBegin
  2
*D4
 70
     1
 10
0.0
 20
0.0
 30
0.0
  3
*D4
  1

  0
LINE
  5
CE3
330
CA7
100
AcDbEntity
  8
250
  6
CONTINUOUS
100
AcDbLine
 10
50.0
 20
9.90230149
 30
0.0
 11
50.0
 21
36.0
 31
0.0
  0
LINE
  5
CE4
330
CA7
100
AcDbEntity
  8
250
  6
CONTINUOUS
100
AcDbLine
 10
85.0
 20
10.5
 30
0.0
 11
85.0
 21
36.0
 31
0.0
  0
LINE
  5
CE5
330
CA7
100
AcDbEntity
  8
250
  6
CONTINUOUS
100
AcDbLine
 10
52.23
 20
35.0
 30
0.0
 11
82.77
 21
35.0
 31
0.0
  0
INSERT
  5
CE6
330
CA7
100
AcDbEntity
  8
250
  6
CONTINUOUS
100
AcDbBlockReference
  2
_OPEN
 10
50.0
 20
35.0
 30
0.0
 41
2.23
 42
2.23
 43
2.23
 50
180.0
  0
INSERT
  5
CE7
330
CA7
100
AcDbEntity
  8
250
  6
CONTINUOUS
100
AcDbBlockReference
  2
_OPEN
 10
85.0
 20
35.0
 30
0.0
 41
2.23
 42
2.23
 43
2.23
  0
MTEXT
  5
CE8
330
CA7
100
AcDbEntity
  8
250
  6
CONTINUOUS
 62
    40
100
AcDbMText
 10
67.5
 20
37.4
 30
0.0
 40
2.8
 41
0.0
 71
     5
 72
     1
  1
\A1;35
1001
ACAD
1000
MTEXTBEGIN
1070
    73
1070
     1
1070
    44
1040
1.0
1070
    74
1070
     0
1000
MTEXTEND
1000
MTEXTBEGIN
1070
    73
1070
     1
1070
    44
1040
1.0
1070
    74
1070
     0
1000
MTEXTEND
1000
MTEXTBEGIN
1070
    73
1070
     1
1070
    44
1040
1.0
1070
    74
1070
     0
1000
MTEXTEND
  0
POINT
  5
CE9
330
CA7
100
AcDbEntity
  8
DEFPOINTS
  6
CONTINUOUS
 62
     0
100
AcDbPoint
 10
50.0
 20
9.40230149
 30
0.0
  0
POINT
  5
CEA
330
CA7
100
AcDbEntity
  8
DEFPOINTS
  6
CONTINUOUS
 62
     0
100
AcDbPoint
 10
85.0
 20
10.0
 30
0.0
  0
POINT
  5
CEB
330
CA7
100
AcDbEntity
  8
DEFPOINTS
  6
CONTINUOUS
 62
     0
100
AcDbPoint
 10
85.0
 20
35.0
 30
0.0
  0
ENDBLK
  5
CB2
330
CA7
100
AcDbEntity
  8
0
100
AcDbBlockEnd
  0
BLOCK
  5
CC0
330
CB6
100
AcDbEntity
  8
0
100
AcDbBlockBegin
  2
*D5
 70
     1
 10
0.0
 20
0.0
 30
0.0
  3
*D5
  1

  0
LINE
  5
CEC
330
CB6
100
AcDbEntity
  8
250
  6
CONTINUOUS
100
AcDbLine
 10
0.0
 20
22.725
 30
0.0
 11
0.0
 21
43.0
 31
0.0
  0
LINE
  5
CED
330
CB6
100
AcDbEntity
  8
250
  6
CONTINUOUS
100
AcDbLine
 10
85.0
 20
10.5
 30
0.0
 11
85.0
 21
43.0
 31
0.0
  0
LINE
  5
CEE
330
CB6
100
AcDbEntity
  8
250
  6
CONTINUOUS
100
AcDbLine
 10
2.23
 20
42.0
 30
0.0
 11
82.77
 21
42.0
 31
0.0
  0
INSERT
  5
CEF
330
CB6
100
AcDbEntity
  8
250
  6
CONTINUOUS
100
AcDbBlockReference
  2
_OPEN
 10
0.0
 20
42.0
 30
0.0
 41
2.23
 42
2.23
 43
2.23
 50
180.0
  0
INSERT
  5
CF0
330
CB6
100
AcDbEntity
  8
250
  6
CONTINUOUS
100
AcDbBlockReference
  2
_OPEN
 10
85.0
 20
42.0
 30
0.0
 41
2.23
 42
2.23
 43
2.23
  0
MTEXT
  5
CF1
330
CB6
100
AcDbEntity
  8
250
  6
CONTINUOUS
 62
    40
100
AcDbMText
 10
42.5
 20
44.4
 30
0.0
 40
2.8
 41
0.0
 71
     5
 72
     1
  1
\A1;85
1001
ACAD
1000
MTEXTBEGIN
1070
    73
1070
     1
1070
    44
1040
1.0
1070
    74
1070
     0
1000
MTEXTEND
1000
MTEXTBEGIN
1070
    73
1070
     1
1070
    44
1040
1.0
1070
    74
1070
     0
1000
MTEXTEND
1000
MTEXTBEGIN
1070
    73
1070
     1
1070
    44
1040
1.0
1070
    74
1070
     0
1000
MTEXTEND
  0
POINT
  5
CF2
330
CB6
100
AcDbEntity
  8
DEFPOINTS
  6
CONTINUOUS
 62
     0
100
AcDbPoint
 10
0.0
 20
22.225
 30
0.0
  0
POINT
  5
CF3
330
CB6
100
AcDbEntity
  8
DEFPOINTS
  6
CONTINUOUS
 62
     0
100
AcDbPoint
 10
85.0
 20
10.0
 30
0.0
  0
POINT
  5
CF4
330
CB6
100
AcDbEntity
  8
DEFPOINTS
  6
CONTINUOUS
 62
     0
100
AcDbPoint
 10
85.0
 20
42.0
 30
0.0
  0
ENDBLK
  5
CC1
330
CB6
100
AcDbEntity
  8
0
100
AcDbBlockEnd
  0
BLOCK
  5
D08
330
D07
100
AcDbEntity
  8
0
100
AcDbBlockBegin
  2
1
 70
     0
 10
0.0
 20
0.0
 30
0.0
  3
1
  1

  0
LINE
  5
14BF
330
D07
100
AcDbEntity
  8
245
100
AcDbLine
 10
-66.4
 20
0.0
 30
0.0
 11
86.0
 21
0.0
 31
0.0
  0
LINE
  5
14C0
330
D07
100
AcDbEntity
  8
240
  6
CONTINUOUS
100
AcDbLine
 10
21.6
 20
-31.5
 30
0.0
 11
26.0
 21
-31.5
 31
0.0
  0
LINE
  5
14C1
330
D07
100
AcDbEntity
  8
240
  6
CONTINUOUS
100
AcDbLine
 10
21.6
 20
31.5
 30
0.0
 11
26.0
 21
31.5
 31
0.0
  0
LINE
  5
14C2
330
D07
100
AcDbEntity
  8
240
  6
CONTINUOUS
100
AcDbLine
 10
1.0
 20
22.225
 30
0.0
 11
1.0
 21
30.5
 31
0.0
  0
LINE
  5
14C3
330
D07
100
AcDbEntity
  8
240
  6
CONTINUOUS
100
AcDbLine
 10
21.6
 20
31.5
 30
0.0
 11
18.71324865
 21
26.5
 31
0.0
  0
LINE
  5
14C4
330
D07
100
AcDbEntity
  8
241
  6
HIDDEN2
100
AcDbLine
 10
23.0
 20
22.5
 30
0.0
 11
23.0
 21
31.5
 31
0.0
  0
LINE
  5
14C5
330
D07
100
AcDbEntity
  8
245
  6
CENTER2
100
AcDbLine
 10
16.6
 20
-31.5
 30
0.0
 11
16.6
 21
31.5
 31
0.0
  0
LINE
  5
14C6
330
D07
100
AcDbEntity
  8
241
  6
CONTINUOUS
100
AcDbLine
 10
21.6
 20
0.0
 30
0.0
 11
21.6
 21
31.5
 31
0.0
  0
LINE
  5
14C7
330
D07
100
AcDbEntity
  8
241
  6
CONTINUOUS
100
AcDbLine
 10
11.6
 20
31.5
 30
0.0
 11
11.6
 21
0.0
 31
0.0
  0
LINE
  5
14C8
330
D07
100
AcDbEntity
  8
240
  6
CONTINUOUS
100
AcDbLine
 10
11.6
 20
31.5
 30
0.0
 11
14.48675135
 21
26.5
 31
0.0
  0
LINE
  5
14C9
330
D07
100
AcDbEntity
  8
240
  6
CONTINUOUS
100
AcDbLine
 10
0.0
 20
22.225
 30
0.0
 11
-64.03089103
 21
12.88716173
 31
0.0
  0
LINE
  5
14CA
330
D07
100
AcDbEntity
  8
240
  6
CONTINUOUS
100
AcDbLine
 10
0.0
 20
-22.225
 30
0.0
 11
-64.03089103
 21
-12.88716173
 31
0.0
  0
LINE
  5
14CB
330
D07
100
AcDbEntity
  8
240
  6
CONTINUOUS
100
AcDbLine
 10
-65.4
 20
11.30390896
 30
0.0
 11
-65.4
 21
0.0
 31
0.0
  0
LINE
  5
14CC
330
D07
100
AcDbEntity
  8
240
  6
CONTINUOUS
100
AcDbLine
 10
-65.4
 20
-11.30390896
 30
0.0
 11
-65.4
 21
0.0
 31
0.0
  0
ARC
  5
14CD
330
D07
100
AcDbEntity
  8
240
  6
CONTINUOUS
100
AcDbCircle
 10
-63.8
 20
-11.30390896
 30
0.0
 40
1.6
100
AcDbArc
 50
180.0
 51
261.70285503
  0
ARC
  5
14CE
330
D07
100
AcDbEntity
  8
240
  6
CONTINUOUS
100
AcDbCircle
 10
-63.8
 20
11.30390896
 30
0.0
 40
1.6
100
AcDbArc
 50
98.29714497
 51
180.0
  0
LINE
  5
14CF
330
D07
100
AcDbEntity
  8
241
  6
CONTINUOUS
100
AcDbLine
 10
14.48675135
 20
-26.5
 30
0.0
 11
14.48675135
 21
0.0
 31
0.0
  0
LINE
  5
14D0
330
D07
100
AcDbEntity
  8
241
  6
CONTINUOUS
100
AcDbLine
 10
18.71324865
 20
-26.5
 30
0.0
 11
18.71324865
 21
0.0
 31
0.0
  0
LINE
  5
14D1
330
D07
100
AcDbEntity
  8
241
  6
CONTINUOUS
100
AcDbLine
 10
21.6
 20
0.0
 30
0.0
 11
21.6
 21
-31.5
 31
0.0
  0
LINE
  5
14D2
330
D07
100
AcDbEntity
  8
241
  6
CONTINUOUS
100
AcDbLine
 10
11.6
 20
-31.5
 30
0.0
 11
11.6
 21
0.0
 31
0.0
  0
LINE
  5
14D3
330
D07
100
AcDbEntity
  8
241
100
AcDbLine
 10
1.0
 20
0.0
 30
0.0
 11
1.0
 21
-22.225
 31
0.0
  0
LINE
  5
14D4
330
D07
100
AcDbEntity
  8
241
  6
CONTINUOUS
100
AcDbLine
 10
0.0
 20
-22.225
 30
0.0
 11
0.0
 21
0.0
 31
0.0
  0
LINE
  5
14D5
330
D07
100
AcDbEntity
  8
240
  6
CONTINUOUS
100
AcDbLine
 10
2.0
 20
-31.5
 30
0.0
 11
11.6
 21
-31.5
 31
0.0
  0
LINE
  5
14D6
330
D07
100
AcDbEntity
  8
241
  6
HIDDEN2
100
AcDbLine
 10
23.0
 20
-22.5
 30
0.0
 11
1.0
 21
-22.5
 31
0.0
  0
LINE
  5
14D7
330
D07
100
AcDbEntity
  8
240
  6
CONTINUOUS
100
AcDbLine
 10
1.0
 20
-22.225
 30
0.0
 11
1.0
 21
-30.5
 31
0.0
  0
ARC
  5
14D8
330
D07
100
AcDbEntity
  8
240
  6
CONTINUOUS
100
AcDbCircle
 10
2.0
 20
-30.5
 30
0.0
 40
1.0
100
AcDbArc
 50
180.0
 51
270.0
  0
LINE
  5
14D9
330
D07
100
AcDbEntity
  8
240
100
AcDbLine
 10
0.0
 20
-22.225
 30
0.0
 11
1.0
 21
-22.225
 31
0.0
  0
LINE
  5
14DA
330
D07
100
AcDbEntity
  8
240
  6
CONTINUOUS
100
AcDbLine
 10
18.71324865
 20
-26.5
 30
0.0
 11
14.48675135
 21
-26.5
 31
0.0
  0
LINE
  5
14DB
330
D07
100
AcDbEntity
  8
240
  6
CONTINUOUS
100
AcDbLine
 10
14.48675135
 20
-26.5
 30
0.0
 11
11.6
 21
-31.5
 31
0.0
  0
LINE
  5
14DC
330
D07
100
AcDbEntity
  8
241
  6
HIDDEN2
100
AcDbLine
 10
23.0
 20
-22.5
 30
0.0
 11
23.0
 21
-31.5
 31
0.0
  0
LINE
  5
14DD
330
D07
100
AcDbEntity
  8
240
  6
CONTINUOUS
100
AcDbLine
 10
18.71324865
 20
-26.5
 30
0.0
 11
21.6
 21
-31.5
 31
0.0
  0
LINE
  5
14DE
330
D07
100
AcDbEntity
  8
241
100
AcDbLine
 10
1.0
 20
0.0
 30
0.0
 11
1.0
 21
22.225
 31
0.0
  0
LINE
  5
14DF
330
D07
100
AcDbEntity
  8
241
  6
CONTINUOUS
100
AcDbLine
 10
0.0
 20
22.225
 30
0.0
 11
0.0
 21
0.0
 31
0.0
  0
LINE
  5
14E0
330
D07
100
AcDbEntity
  8
241
  6
CONTINUOUS
100
AcDbLine
 10
18.71324865
 20
26.5
 30
0.0
 11
18.71324865
 21
0.0
 31
0.0
  0
LINE
  5
14E1
330
D07
100
AcDbEntity
  8
241
  6
CONTINUOUS
100
AcDbLine
 10
14.48675135
 20
26.5
 30
0.0
 11
14.48675135
 21
0.0
 31
0.0
  0
LINE
  5
14E2
330
D07
100
AcDbEntity
  8
241
  6
HIDDEN2
100
AcDbLine
 10
23.0
 20
22.5
 30
0.0
 11
1.0
 21
22.5
 31
0.0
  0
LINE
  5
14E3
330
D07
100
AcDbEntity
  8
240
100
AcDbLine
 10
0.0
 20
22.225
 30
0.0
 11
1.0
 21
22.225
 31
0.0
  0
LINE
  5
14E4
330
D07
100
AcDbEntity
  8
240
  6
CONTINUOUS
100
AcDbLine
 10
18.71324865
 20
26.5
 30
0.0
 11
14.48675135
 21
26.5
 31
0.0
  0
LINE
  5
14E5
330
D07
100
AcDbEntity
  8
240
  6
CONTINUOUS
100
AcDbLine
 10
2.0
 20
31.5
 30
0.0
 11
11.6
 21
31.5
 31
0.0
  0
ARC
  5
14E6
330
D07
100
AcDbEntity
  8
240
  6
CONTINUOUS
100
AcDbCircle
 10
2.0
 20
30.5
 30
0.0
 40
1.0
100
AcDbArc
 50
90.0
 51
180.0
  0
ARC
  5
14E7
330
D07
100
AcDbEntity
  8
240
100
AcDbCircle
 10
32.0
 20
30.0
 30
0.0
 40
5.0
100
AcDbArc
 50
179.9999824
 51
225.52984227
  0
LINE
  5
14E8
330
D07
100
AcDbEntity
  8
241
  6
CONTINUOUS
100
AcDbLine
 10
27.0
 20
0.0
 30
0.0
 11
27.0
 21
30.0
 31
0.0
  0
LINE
  5
14E9
330
D07
100
AcDbEntity
  8
241
  6
CONTINUOUS
100
AcDbLine
 10
27.0
 20
0.0
 30
0.0
 11
27.0
 21
-30.0
 31
0.0
  0
LINE
  5
14EA
330
D07
100
AcDbEntity
  8
241
100
AcDbLine
 10
32.56827687
 20
-22.43556477
 30
0.0
 11
32.56827687
 21
0.0
 31
0.0
  0
LINE
  5
14EB
330
D07
100
AcDbEntity
  8
241
100
AcDbLine
 10
31.71193811
 20
-23.27620972
 30
0.0
 11
31.71193811
 21
0.0
 31
0.0
  0
LINE
  5
14EC
330
D07
100
AcDbEntity
  8
240
100
AcDbLine
 10
41.62403782
 20
-13.5457655
 30
0.0
 11
28.49731271
 21
-26.43192182
 31
0.0
  0
ARC
  5
14ED
330
D07
100
AcDbEntity
  8
240
100
AcDbCircle
 10
32.0
 20
-30.0
 30
0.0
 40
5.0
100
AcDbArc
 50
134.47015773
 51
180.0000176
  0
ARC
  5
14EE
330
D07
100
AcDbEntity
  8
240
  6
CONTINUOUS
100
AcDbCircle
 10
26.0
 20
-30.5
 30
0.0
 40
1.0
100
AcDbArc
 50
270.0
 51
0.0
  0
LINE
  5
14EF
330
D07
100
AcDbEntity
  8
240
  6
CONTINUOUS
100
AcDbLine
 10
27.0
 20
-30.5
 30
0.0
 11
27.0
 21
-30.0
 31
0.0
  0
LINE
  5
14F0
330
D07
100
AcDbEntity
  8
240
100
AcDbLine
 10
73.87572518
 20
-9.25
 30
0.0
 11
52.13209966
 21
-9.25
 31
0.0
  0
LINE
  5
14F1
330
D07
100
AcDbEntity
  8
240
100
AcDbLine
 10
73.87572518
 20
9.25
 30
0.0
 11
52.13209966
 21
9.25
 31
0.0
  0
LINE
  5
14F2
330
D07
100
AcDbEntity
  8
241
100
AcDbLine
 10
46.0
 20
0.0
 30
0.0
 11
46.0
 21
9.25
 31
0.0
  0
LINE
  5
14F3
330
D07
100
AcDbEntity
  8
241
100
AcDbLine
 10
35.56827687
 20
19.49054469
 30
0.0
 11
35.56827687
 21
0.0
 31
0.0
  0
LINE
  5
14F4
330
D07
100
AcDbEntity
  8
241
100
AcDbLine
 10
34.71193811
 20
20.33118964
 30
0.0
 11
34.71193811
 21
0.0
 31
0.0
  0
LINE
  5
14F5
330
D07
100
AcDbEntity
  8
241
100
AcDbLine
 10
31.71193811
 20
23.27620972
 30
0.0
 11
31.71193811
 21
0.0
 31
0.0
  0
LINE
  5
14F6
330
D07
100
AcDbEntity
  8
241
100
AcDbLine
 10
32.56827687
 20
22.43556477
 30
0.0
 11
32.56827687
 21
0.0
 31
0.0
  0
ARC
  5
14F7
330
D07
100
AcDbEntity
  8
240
100
AcDbCircle
 10
52.13209966
 20
-24.25
 30
0.0
 40
15.0
100
AcDbArc
 50
90.0
 51
134.47014013
  0
LINE
  5
14F8
330
D07
100
AcDbEntity
  8
241
100
AcDbLine
 10
35.56827687
 20
-19.49054469
 30
0.0
 11
35.56827687
 21
0.0
 31
0.0
  0
LINE
  5
14F9
330
D07
100
AcDbEntity
  8
241
100
AcDbLine
 10
34.71193811
 20
-20.33118964
 30
0.0
 11
34.71193811
 21
0.0
 31
0.0
  0
LINE
  5
14FA
330
D07
100
AcDbEntity
  8
241
100
AcDbLine
 10
46.0
 20
0.0
 30
0.0
 11
46.0
 21
-9.25
 31
0.0
  0
ARC
  5
14FB
330
D07
100
AcDbEntity
  8
240
100
AcDbCircle
 10
52.13209966
 20
24.25
 30
0.0
 40
15.0
100
AcDbArc
 50
225.52985987
 51
270.0
  0
LINE
  5
14FC
330
D07
100
AcDbEntity
  8
240
100
AcDbLine
 10
41.62403782
 20
13.5457655
 30
0.0
 11
28.49731271
 21
26.43192182
 31
0.0
  0
LINE
  5
14FD
330
D07
100
AcDbEntity
  8
246
100
AcDbLine
 10
85.0
 20
-10.0
 30
0.0
 11
85.0
 21
10.0
 31
0.0
  0
LINE
  5
14FE
330
D07
100
AcDbEntity
  8
240
100
AcDbLine
 10
84.25
 20
9.39776986
 30
0.0
 11
84.25
 21
1.09735373
 31
0.0
  0
LINE
  5
14FF
330
D07
100
AcDbEntity
  8
246
100
AcDbLine
 10
77.0
 20
-10.0
 30
0.0
 11
85.0
 21
-10.0
 31
0.0
  0
LINE
  5
1500
330
D07
100
AcDbEntity
  8
240
100
AcDbLine
 10
84.25
 20
-9.39776986
 30
0.0
 11
75.18194299
 21
-9.6
 31
0.0
  0
LINE
  5
1501
330
D07
100
AcDbEntity
  8
241
100
AcDbLine
 10
68.64497901
 20
-5.06571999
 30
0.0
 11
84.25
 21
-8.8312396
 31
0.0
  0
LINE
  5
1502
330
D07
100
AcDbEntity
  8
241
100
AcDbLine
 10
73.92202417
 20
0.51405346
 30
0.0
 11
84.25
 21
-3.24502232
 31
0.0
  0
LINE
  5
1503
330
D07
100
AcDbEntity
  8
241
100
AcDbLine
 10
75.18194298
 20
2.69629684
 30
0.0
 11
84.18414098
 21
1.10896645
 31
0.0
  0
LINE
  5
1504
330
D07
100
AcDbEntity
  8
240
100
AcDbLine
 10
73.87572518
 20
-9.25
 30
0.0
 11
75.18194299
 21
-9.6
 31
0.0
  0
LINE
  5
1505
330
D07
100
AcDbEntity
  8
241
100
AcDbLine
 10
73.83712813
 20
0.36700921
 30
0.0
 11
69.92226303
 21
1.05730555
 31
0.0
  0
ARC
  5
1506
330
D07
100
AcDbEntity
  8
241
100
AcDbCircle
 10
69.37893004
 20
-2.024089
 30
0.0
 40
3.128930035431662
100
AcDbArc
 50
79.9999824
 51
256.43374474
  0
LINE
  5
1507
330
D07
100
AcDbEntity
  8
241
100
AcDbLine
 10
75.18194298
 20
2.69629684
 30
0.0
 11
73.83712813
 21
0.36700921
 31
0.0
  0
LINE
  5
1508
330
D07
100
AcDbEntity
  8
240
100
AcDbLine
 10
84.25
 20
-9.39776986
 30
0.0
 11
84.25
 21
-3.24502232
 31
0.0
  0
LINE
  5
1509
330
D07
100
AcDbEntity
  8
240
100
AcDbLine
 10
84.18414098
 20
1.10896645
 30
0.0
 11
85.0
 21
-3.518
 31
0.0
  0
LINE
  5
150A
330
D07
100
AcDbEntity
  8
240
100
AcDbLine
 10
85.0
 20
-3.518
 30
0.0
 11
84.25
 21
-3.24502232
 31
0.0
  0
LINE
  5
150B
330
D07
100
AcDbEntity
  8
240
100
AcDbLine
 10
84.25
 20
1.09735373
 30
0.0
 11
84.18414098
 21
1.10896645
 31
0.0
  0
LINE
  5
150C
330
D07
100
AcDbEntity
  8
246
100
AcDbLine
 10
77.0
 20
10.0
 30
0.0
 11
85.0
 21
10.0
 31
0.0
  0
LINE
  5
150D
330
D07
100
AcDbEntity
  8
240
100
AcDbLine
 10
84.25
 20
9.39776986
 30
0.0
 11
75.18194299
 21
9.6
 31
0.0
  0
LINE
  5
150E
330
D07
100
AcDbEntity
  8
240
100
AcDbLine
 10
73.87572518
 20
9.25
 30
0.0
 11
75.18194299
 21
9.6
 31
0.0
  0
POLYLINE
  5
150F
330
D07
100
AcDbEntity
  8
241
100
AcDb3dPolyline
 66
     1
 10
0.0
 20
0.0
 30
0.0
 70
     8
  0
VERTEX
  5
1510
330
150F
100
AcDbEntity
  8
241
100
AcDbVertex
100
AcDb3dPolylineVertex
 10
81.3511
 20
6.2117
 30
0.0
 70
    32
  0
VERTEX
  5
1511
330
150F
100
AcDbEntity
  8
241
100
AcDbVertex
100
AcDb3dPolylineVertex
 10
81.3556
 20
6.23947
 30
0.0
 70
    32
  0
VERTEX
  5
1512
330
150F
100
AcDbEntity
  8
241
100
AcDbVertex
100
AcDb3dPolylineVertex
 10
81.3593
 20
6.26737
 30
0.0
 70
    32
  0
VERTEX
  5
1513
330
150F
100
AcDbEntity
  8
241
100
AcDbVertex
100
AcDb3dPolylineVertex
 10
81.3621
 20
6.29537
 30
0.0
 70
    32
  0
VERTEX
  5
1514
330
150F
100
AcDbEntity
  8
241
100
AcDbVertex
100
AcDb3dPolylineVertex
 10
81.3642
 20
6.32346
 30
0.0
 70
    32
  0
VERTEX
  5
1515
330
150F
100
AcDbEntity
  8
241
100
AcDbVertex
100
AcDb3dPolylineVertex
 10
81.3655
 20
6.35163
 30
0.0
 70
    32
  0
VERTEX
  5
1516
330
150F
100
AcDbEntity
  8
241
100
AcDbVertex
100
AcDb3dPolylineVertex
 10
81.3659
 20
6.37985
 30
0.0
 70
    32
  0
VERTEX
  5
1517
330
150F
100
AcDbEntity
  8
241
100
AcDbVertex
100
AcDb3dPolylineVertex
 10
81.3656
 20
6.40811
 30
0.0
 70
    32
  0
VERTEX
  5
1518
330
150F
100
AcDbEntity
  8
241
100
AcDbVertex
100
AcDb3dPolylineVertex
 10
81.3644
 20
6.4364
 30
0.0
 70
    32
  0
VERTEX
  5
1519
330
150F
100
AcDbEntity
  8
241
100
AcDbVertex
100
AcDb3dPolylineVertex
 10
81.3624
 20
6.46469
 30
0.0
 70
    32
  0
VERTEX
  5
151A
330
150F
100
AcDbEntity
  8
241
100
AcDbVertex
100
AcDb3dPolylineVertex
 10
81.3596
 20
6.49297
 30
0.0
 70
    32
  0
VERTEX
  5
151B
330
150F
100
AcDbEntity
  8
241
100
AcDbVertex
100
AcDb3dPolylineVertex
 10
81.356
 20
6.52123
 30
0.0
 70
    32
  0
VERTEX
  5
151C
330
150F
100
AcDbEntity
  8
241
100
AcDbVertex
100
AcDb3dPolylineVertex
 10
81.3516
 20
6.54944
 30
0.0
 70
    32
  0
VERTEX
  5
151D
330
150F
100
AcDbEntity
  8
241
100
AcDbVertex
100
AcDb3dPolylineVertex
 10
81.3464
 20
6.57758
 30
0.0
 70
    32
  0
VERTEX
  5
151E
330
150F
100
AcDbEntity
  8
241
100
AcDbVertex
100
AcDb3dPolylineVertex
 10
81.3404
 20
6.60565
 30
0.0
 70
    32
  0
VERTEX
  5
151F
330
150F
100
AcDbEntity
  8
241
100
AcDbVertex
100
AcDb3dPolylineVertex
 10
81.3337
 20
6.63362
 30
0.0
 70
    32
  0
VERTEX
  5
1520
330
150F
100
AcDbEntity
  8
241
100
AcDbVertex
100
AcDb3dPolylineVertex
 10
81.3261
 20
6.66147
 30
0.0
 70
    32
  0
VERTEX
  5
1521
330
150F
100
AcDbEntity
  8
241
100
AcDbVertex
100
AcDb3dPolylineVertex
 10
81.3177
 20
6.6892
 30
0.0
 70
    32
  0
VERTEX
  5
1522
330
150F
100
AcDbEntity
  8
241
100
AcDbVertex
100
AcDb3dPolylineVertex
 10
81.3086
 20
6.71678
 30
0.0
 70
    32
  0
VERTEX
  5
1523
330
150F
100
AcDbEntity
  8
241
100
AcDbVertex
100
AcDb3dPolylineVertex
 10
81.2986
 20
6.7442
 30
0.0
 70
    32
  0
VERTEX
  5
1524
330
150F
100
AcDbEntity
  8
241
100
AcDbVertex
100
AcDb3dPolylineVertex
 10
81.2879
 20
6.77144
 30
0.0
 70
    32
  0
VERTEX
  5
1525
330
150F
100
AcDbEntity
  8
241
100
AcDbVertex
100
AcDb3dPolylineVertex
 10
81.2765
 20
6.79848
 30
0.0
 70
    32
  0
VERTEX
  5
1526
330
150F
100
AcDbEntity
  8
241
100
AcDbVertex
100
AcDb3dPolylineVertex
 10
81.2643
 20
6.82531
 30
0.0
 70
    32
  0
VERTEX
  5
1527
330
150F
100
AcDbEntity
  8
241
100
AcDbVertex
100
AcDb3dPolylineVertex
 10
81.2513
 20
6.85191
 30
0.0
 70
    32
  0
VERTEX
  5
1528
330
150F
100
AcDbEntity
  8
241
100
AcDbVertex
100
AcDb3dPolylineVertex
 10
81.2376
 20
6.87827
 30
0.0
 70
    32
  0
VERTEX
  5
1529
330
150F
100
AcDbEntity
  8
241
100
AcDbVertex
100
AcDb3dPolylineVertex
 10
81.2232
 20
6.90437
 30
0.0
 70
    32
  0
VERTEX
  5
152A
330
150F
100
AcDbEntity
  8
241
100
AcDbVertex
100
AcDb3dPolylineVertex
 10
81.208
 20
6.93019
 30
0.0
 70
    32
  0
VERTEX
  5
152B
330
150F
100
AcDbEntity
  8
241
100
AcDbVertex
100
AcDb3dPolylineVertex
 10
81.1922
 20
6.95572
 30
0.0
 70
    32
  0
VERTEX
  5
152C
330
150F
100
AcDbEntity
  8
241
100
AcDbVertex
100
AcDb3dPolylineVertex
 10
81.1756
 20
6.98094
 30
0.0
 70
    32
  0
VERTEX
  5
152D
330
150F
100
AcDbEntity
  8
241
100
AcDbVertex
100
AcDb3dPolylineVertex
 10
81.1583
 20
7.00584
 30
0.0
 70
    32
  0
VERTEX
  5
152E
330
150F
100
AcDbEntity
  8
241
100
AcDbVertex
100
AcDb3dPolylineVertex
 10
81.1404
 20
7.03041
 30
0.0
 70
    32
  0
VERTEX
  5
152F
330
150F
100
AcDbEntity
  8
241
100
AcDbVertex
100
AcDb3dPolylineVertex
 10
81.1217
 20
7.05462
 30
0.0
 70
    32
  0
VERTEX
  5
1530
330
150F
100
AcDbEntity
  8
241
100
AcDbVertex
100
AcDb3dPolylineVertex
 10
81.1024
 20
7.07846
 30
0.0
 70
    32
  0
VERTEX
  5
1531
330
150F
100
AcDbEntity
  8
241
100
AcDbVertex
100
AcDb3dPolylineVertex
 10
81.0825
 20
7.10193
 30
0.0
 70
    32
  0
VERTEX
  5
1532
330
150F
100
AcDbEntity
  8
241
100
AcDbVertex
100
AcDb3dPolylineVertex
 10
81.0619
 20
7.125
 30
0.0
 70
    32
  0
VERTEX
  5
1533
330
150F
100
AcDbEntity
  8
241
100
AcDbVertex
100
AcDb3dPolylineVertex
 10
81.0407
 20
7.14766
 30
0.0
 70
    32
  0
VERTEX
  5
1534
330
150F
100
AcDbEntity
  8
241
100
AcDbVertex
100
AcDb3dPolylineVertex
 10
81.0189
 20
7.16989
 30
0.0
 70
    32
  0
VERTEX
  5
1535
330
150F
100
AcDbEntity
  8
241
100
AcDbVertex
100
AcDb3dPolylineVertex
 10
80.9965
 20
7.1917
 30
0.0
 70
    32
  0
VERTEX
  5
1536
330
150F
100
AcDbEntity
  8
241
100
AcDbVertex
100
AcDb3dPolylineVertex
 10
80.9734
 20
7.21305
 30
0.0
 70
    32
  0
VERTEX
  5
1537
330
150F
100
AcDbEntity
  8
241
100
AcDbVertex
100
AcDb3dPolylineVertex
 10
80.9499
 20
7.23394
 30
0.0
 70
    32
  0
VERTEX
  5
1538
330
150F
100
AcDbEntity
  8
241
100
AcDbVertex
100
AcDb3dPolylineVertex
 10
80.9257
 20
7.25435
 30
0.0
 70
    32
  0
VERTEX
  5
1539
330
150F
100
AcDbEntity
  8
241
100
AcDbVertex
100
AcDb3dPolylineVertex
 10
80.901
 20
7.27428
 30
0.0
 70
    32
  0
VERTEX
  5
153A
330
150F
100
AcDbEntity
  8
241
100
AcDbVertex
100
AcDb3dPolylineVertex
 10
80.8758
 20
7.29371
 30
0.0
 70
    32
  0
VERTEX
  5
153B
330
150F
100
AcDbEntity
  8
241
100
AcDbVertex
100
AcDb3dPolylineVertex
 10
80.8501
 20
7.31263
 30
0.0
 70
    32
  0
VERTEX
  5
153C
330
150F
100
AcDbEntity
  8
241
100
AcDbVertex
100
AcDb3dPolylineVertex
 10
80.8239
 20
7.33103
 30
0.0
 70
    32
  0
VERTEX
  5
153D
330
150F
100
AcDbEntity
  8
241
100
AcDbVertex
100
AcDb3dPolylineVertex
 10
80.7971
 20
7.34889
 30
0.0
 70
    32
  0
VERTEX
  5
153E
330
150F
100
AcDbEntity
  8
241
100
AcDbVertex
100
AcDb3dPolylineVertex
 10
80.77
 20
7.36622
 30
0.0
 70
    32
  0
VERTEX
  5
153F
330
150F
100
AcDbEntity
  8
241
100
AcDbVertex
100
AcDb3dPolylineVertex
 10
80.7423
 20
7.38298
 30
0.0
 70
    32
  0
VERTEX
  5
1540
330
150F
100
AcDbEntity
  8
241
100
AcDbVertex
100
AcDb3dPolylineVertex
 10
80.7143
 20
7.39918
 30
0.0
 70
    32
  0
VERTEX
  5
1541
330
150F
100
AcDbEntity
  8
241
100
AcDbVertex
100
AcDb3dPolylineVertex
 10
80.6858
 20
7.41481
 30
0.0
 70
    32
  0
VERTEX
  5
1542
330
150F
100
AcDbEntity
  8
241
100
AcDbVertex
100
AcDb3dPolylineVertex
 10
80.6569
 20
7.42986
 30
0.0
 70
    32
  0
VERTEX
  5
1543
330
150F
100
AcDbEntity
  8
241
100
AcDbVertex
100
AcDb3dPolylineVertex
 10
80.6276
 20
7.44431
 30
0.0
 70
    32
  0
VERTEX
  5
1544
330
150F
100
AcDbEntity
  8
241
100
AcDbVertex
100
AcDb3dPolylineVertex
 10
80.598
 20
7.45816
 30
0.0
 70
    32
  0
VERTEX
  5
1545
330
150F
100
AcDbEntity
  8
241
100
AcDbVertex
100
AcDb3dPolylineVertex
 10
80.568
 20
7.4714
 30
0.0
 70
    32
  0
VERTEX
  5
1546
330
150F
100
AcDbEntity
  8
241
100
AcDbVertex
100
AcDb3dPolylineVertex
 10
80.5377
 20
7.48402
 30
0.0
 70
    32
  0
VERTEX
  5
1547
330
150F
100
AcDbEntity
  8
241
100
AcDbVertex
100
AcDb3dPolylineVertex
 10
80.5071
 20
7.49602
 30
0.0
 70
    32
  0
VERTEX
  5
1548
330
150F
100
AcDbEntity
  8
241
100
AcDbVertex
100
AcDb3dPolylineVertex
 10
80.4762
 20
7.50739
 30
0.0
 70
    32
  0
VERTEX
  5
1549
330
150F
100
AcDbEntity
  8
241
100
AcDbVertex
100
AcDb3dPolylineVertex
 10
80.445
 20
7.51812
 30
0.0
 70
    32
  0
VERTEX
  5
154A
330
150F
100
AcDbEntity
  8
241
100
AcDbVertex
100
AcDb3dPolylineVertex
 10
80.4136
 20
7.5282
 30
0.0
 70
    32
  0
VERTEX
  5
154B
330
150F
100
AcDbEntity
  8
241
100
AcDbVertex
100
AcDb3dPolylineVertex
 10
80.3819
 20
7.53763
 30
0.0
 70
    32
  0
VERTEX
  5
154C
330
150F
100
AcDbEntity
  8
241
100
AcDbVertex
100
AcDb3dPolylineVertex
 10
80.35
 20
7.5464
 30
0.0
 70
    32
  0
VERTEX
  5
154D
330
150F
100
AcDbEntity
  8
241
100
AcDbVertex
100
AcDb3dPolylineVertex
 10
80.3179
 20
7.55451
 30
0.0
 70
    32
  0
VERTEX
  5
154E
330
150F
100
AcDbEntity
  8
241
100
AcDbVertex
100
AcDb3dPolylineVertex
 10
80.2856
 20
7.56195
 30
0.0
 70
    32
  0
VERTEX
  5
154F
330
150F
100
AcDbEntity
  8
241
100
AcDbVertex
100
AcDb3dPolylineVertex
 10
80.2532
 20
7.56872
 30
0.0
 70
    32
  0
VERTEX
  5
1550
330
150F
100
AcDbEntity
  8
241
100
AcDbVertex
100
AcDb3dPolylineVertex
 10
80.2206
 20
7.57481
 30
0.0
 70
    32
  0
VERTEX
  5
1551
330
150F
100
AcDbEntity
  8
241
100
AcDbVertex
100
AcDb3dPolylineVertex
 10
80.1879
 20
7.58022
 30
0.0
 70
    32
  0
VERTEX
  5
1552
330
150F
100
AcDbEntity
  8
241
100
AcDbVertex
100
AcDb3dPolylineVertex
 10
80.1552
 20
7.58495
 30
0.0
 70
    32
  0
VERTEX
  5
1553
330
150F
100
AcDbEntity
  8
241
100
AcDbVertex
100
AcDb3dPolylineVertex
 10
80.1223
 20
7.589
 30
0.0
 70
    32
  0
VERTEX
  5
1554
330
150F
100
AcDbEntity
  8
241
100
AcDbVertex
100
AcDb3dPolylineVertex
 10
80.0894
 20
7.59235
 30
0.0
 70
    32
  0
VERTEX
  5
1555
330
150F
100
AcDbEntity
  8
241
100
AcDbVertex
100
AcDb3dPolylineVertex
 10
80.0564
 20
7.59502
 30
0.0
 70
    32
  0
VERTEX
  5
1556
330
150F
100
AcDbEntity
  8
241
100
AcDbVertex
100
AcDb3dPolylineVertex
 10
80.0234
 20
7.59699
 30
0.0
 70
    32
  0
VERTEX
  5
1557
330
150F
100
AcDbEntity
  8
241
100
AcDbVertex
100
AcDb3dPolylineVertex
 10
79.9904
 20
7.59827
 30
0.0
 70
    32
  0
VERTEX
  5
1558
330
150F
100
AcDbEntity
  8
241
100
AcDbVertex
100
AcDb3dPolylineVertex
 10
79.9574
 20
7.59886
 30
0.0
 70
    32
  0
VERTEX
  5
1559
330
150F
100
AcDbEntity
  8
241
100
AcDbVertex
100
AcDb3dPolylineVertex
 10
79.9245
 20
7.59875
 30
0.0
 70
    32
  0
VERTEX
  5
155A
330
150F
100
AcDbEntity
  8
241
100
AcDbVertex
100
AcDb3dPolylineVertex
 10
79.8916
 20
7.59795
 30
0.0
 70
    32
  0
VERTEX
  5
155B
330
150F
100
AcDbEntity
  8
241
100
AcDbVertex
100
AcDb3dPolylineVertex
 10
79.8588
 20
7.59645
 30
0.0
 70
    32
  0
VERTEX
  5
155C
330
150F
100
AcDbEntity
  8
241
100
AcDbVertex
100
AcDb3dPolylineVertex
 10
79.8261
 20
7.59426
 30
0.0
 70
    32
  0
VERTEX
  5
155D
330
150F
100
AcDbEntity
  8
241
100
AcDbVertex
100
AcDb3dPolylineVertex
 10
79.7936
 20
7.59138
 30
0.0
 70
    32
  0
VERTEX
  5
155E
330
150F
100
AcDbEntity
  8
241
100
AcDbVertex
100
AcDb3dPolylineVertex
 10
79.7611
 20
7.58781
 30
0.0
 70
    32
  0
VERTEX
  5
155F
330
150F
100
AcDbEntity
  8
241
100
AcDbVertex
100
AcDb3dPolylineVertex
 10
79.7288
 20
7.58355
 30
0.0
 70
    32
  0
VERTEX
  5
1560
330
150F
100
AcDbEntity
  8
241
100
AcDbVertex
100
AcDb3dPolylineVertex
 10
79.6967
 20
7.57861
 30
0.0
 70
    32
  0
VERTEX
  5
1561
330
150F
100
AcDbEntity
  8
241
100
AcDbVertex
100
AcDb3dPolylineVertex
 10
79.6648
 20
7.57298
 30
0.0
 70
    32
  0
VERTEX
  5
1562
330
150F
100
AcDbEntity
  8
241
100
AcDbVertex
100
AcDb3dPolylineVertex
 10
79.6331
 20
7.56667
 30
0.0
 70
    32
  0
VERTEX
  5
1563
330
150F
100
AcDbEntity
  8
241
100
AcDbVertex
100
AcDb3dPolylineVertex
 10
79.6016
 20
7.55969
 30
0.0
 70
    32
  0
VERTEX
  5
1564
330
150F
100
AcDbEntity
  8
241
100
AcDbVertex
100
AcDb3dPolylineVertex
 10
79.5704
 20
7.55204
 30
0.0
 70
    32
  0
VERTEX
  5
1565
330
150F
100
AcDbEntity
  8
241
100
AcDbVertex
100
AcDb3dPolylineVertex
 10
79.5395
 20
7.54373
 30
0.0
 70
    32
  0
VERTEX
  5
1566
330
150F
100
AcDbEntity
  8
241
100
AcDbVertex
100
AcDb3dPolylineVertex
 10
79.5088
 20
7.53475
 30
0.0
 70
    32
  0
VERTEX
  5
1567
330
150F
100
AcDbEntity
  8
241
100
AcDbVertex
100
AcDb3dPolylineVertex
 10
79.4785
 20
7.52512
 30
0.0
 70
    32
  0
VERTEX
  5
1568
330
150F
100
AcDbEntity
  8
241
100
AcDbVertex
100
AcDb3dPolylineVertex
 10
79.4485
 20
7.51483
 30
0.0
 70
    32
  0
VERTEX
  5
1569
330
150F
100
AcDbEntity
  8
241
100
AcDbVertex
100
AcDb3dPolylineVertex
 10
79.4188
 20
7.50391
 30
0.0
 70
    32
  0
VERTEX
  5
156A
330
150F
100
AcDbEntity
  8
241
100
AcDbVertex
100
AcDb3dPolylineVertex
 10
79.3895
 20
7.49234
 30
0.0
 70
    32
  0
VERTEX
  5
156B
330
150F
100
AcDbEntity
  8
241
100
AcDbVertex
100
AcDb3dPolylineVertex
 10
79.3606
 20
7.48015
 30
0.0
 70
    32
  0
VERTEX
  5
156C
330
150F
100
AcDbEntity
  8
241
100
AcDbVertex
100
AcDb3dPolylineVertex
 10
79.332
 20
7.46733
 30
0.0
 70
    32
  0
VERTEX
  5
156D
330
150F
100
AcDbEntity
  8
241
100
AcDbVertex
100
AcDb3dPolylineVertex
 10
79.3039
 20
7.4539
 30
0.0
 70
    32
  0
VERTEX
  5
156E
330
150F
100
AcDbEntity
  8
241
100
AcDbVertex
100
AcDb3dPolylineVertex
 10
79.2763
 20
7.43986
 30
0.0
 70
    32
  0
VERTEX
  5
156F
330
150F
100
AcDbEntity
  8
241
100
AcDbVertex
100
AcDb3dPolylineVertex
 10
79.249
 20
7.42522
 30
0.0
 70
    32
  0
VERTEX
  5
1570
330
150F
100
AcDbEntity
  8
241
100
AcDbVertex
100
AcDb3dPolylineVertex
 10
79.2223
 20
7.40999
 30
0.0
 70
    32
  0
VERTEX
  5
1571
330
150F
100
AcDbEntity
  8
241
100
AcDbVertex
100
AcDb3dPolylineVertex
 10
79.196
 20
7.39418
 30
0.0
 70
    32
  0
VERTEX
  5
1572
330
150F
100
AcDbEntity
  8
241
100
AcDbVertex
100
AcDb3dPolylineVertex
 10
79.1702
 20
7.3778
 30
0.0
 70
    32
  0
VERTEX
  5
1573
330
150F
100
AcDbEntity
  8
241
100
AcDbVertex
100
AcDb3dPolylineVertex
 10
79.1449
 20
7.36086
 30
0.0
 70
    32
  0
VERTEX
  5
1574
330
150F
100
AcDbEntity
  8
241
100
AcDbVertex
100
AcDb3dPolylineVertex
 10
79.1202
 20
7.34337
 30
0.0
 70
    32
  0
VERTEX
  5
1575
330
150F
100
AcDbEntity
  8
241
100
AcDbVertex
100
AcDb3dPolylineVertex
 10
79.096
 20
7.32534
 30
0.0
 70
    32
  0
VERTEX
  5
1576
330
150F
100
AcDbEntity
  8
241
100
AcDbVertex
100
AcDb3dPolylineVertex
 10
79.0723
 20
7.30677
 30
0.0
 70
    32
  0
VERTEX
  5
1577
330
150F
100
AcDbEntity
  8
241
100
AcDbVertex
100
AcDb3dPolylineVertex
 10
79.0492
 20
7.28769
 30
0.0
 70
    32
  0
VERTEX
  5
1578
330
150F
100
AcDbEntity
  8
241
100
AcDbVertex
100
AcDb3dPolylineVertex
 10
79.0268
 20
7.26811
 30
0.0
 70
    32
  0
VERTEX
  5
1579
330
150F
100
AcDbEntity
  8
241
100
AcDbVertex
100
AcDb3dPolylineVertex
 10
79.0049
 20
7.24802
 30
0.0
 70
    32
  0
VERTEX
  5
157A
330
150F
100
AcDbEntity
  8
241
100
AcDbVertex
100
AcDb3dPolylineVertex
 10
78.9836
 20
7.22746
 30
0.0
 70
    32
  0
VERTEX
  5
157B
330
150F
100
AcDbEntity
  8
241
100
AcDbVertex
100
AcDb3dPolylineVertex
 10
78.9629
 20
7.20642
 30
0.0
 70
    32
  0
VERTEX
  5
157C
330
150F
100
AcDbEntity
  8
241
100
AcDbVertex
100
AcDb3dPolylineVertex
 10
78.9429
 20
7.18493
 30
0.0
 70
    32
  0
VERTEX
  5
157D
330
150F
100
AcDbEntity
  8
241
100
AcDbVertex
100
AcDb3dPolylineVertex
 10
78.9236
 20
7.16299
 30
0.0
 70
    32
  0
VERTEX
  5
157E
330
150F
100
AcDbEntity
  8
241
100
AcDbVertex
100
AcDb3dPolylineVertex
 10
78.9049
 20
7.14062
 30
0.0
 70
    32
  0
VERTEX
  5
157F
330
150F
100
AcDbEntity
  8
241
100
AcDbVertex
100
AcDb3dPolylineVertex
 10
78.8868
 20
7.11783
 30
0.0
 70
    32
  0
VERTEX
  5
1580
330
150F
100
AcDbEntity
  8
241
100
AcDbVertex
100
AcDb3dPolylineVertex
 10
78.8695
 20
7.09464
 30
0.0
 70
    32
  0
VERTEX
  5
1581
330
150F
100
AcDbEntity
  8
241
100
AcDbVertex
100
AcDb3dPolylineVertex
 10
78.8528
 20
7.07105
 30
0.0
 70
    32
  0
VERTEX
  5
1582
330
150F
100
AcDbEntity
  8
241
100
AcDbVertex
100
AcDb3dPolylineVertex
 10
78.8369
 20
7.04709
 30
0.0
 70
    32
  0
VERTEX
  5
1583
330
150F
100
AcDbEntity
  8
241
100
AcDbVertex
100
AcDb3dPolylineVertex
 10
78.8217
 20
7.02277
 30
0.0
 70
    32
  0
VERTEX
  5
1584
330
150F
100
AcDbEntity
  8
241
100
AcDbVertex
100
AcDb3dPolylineVertex
 10
78.8071
 20
6.9981
 30
0.0
 70
    32
  0
VERTEX
  5
1585
330
150F
100
AcDbEntity
  8
241
100
AcDbVertex
100
AcDb3dPolylineVertex
 10
78.7934
 20
6.97309
 30
0.0
 70
    32
  0
VERTEX
  5
1586
330
150F
100
AcDbEntity
  8
241
100
AcDbVertex
100
AcDb3dPolylineVertex
 10
78.7803
 20
6.94777
 30
0.0
 70
    32
  0
VERTEX
  5
1587
330
150F
100
AcDbEntity
  8
241
100
AcDbVertex
100
AcDb3dPolylineVertex
 10
78.768
 20
6.92215
 30
0.0
 70
    32
  0
VERTEX
  5
1588
330
150F
100
AcDbEntity
  8
241
100
AcDbVertex
100
AcDb3dPolylineVertex
 10
78.7565
 20
6.89624
 30
0.0
 70
    32
  0
VERTEX
  5
1589
330
150F
100
AcDbEntity
  8
241
100
AcDbVertex
100
AcDb3dPolylineVertex
 10
78.7457
 20
6.87006
 30
0.0
 70
    32
  0
VERTEX
  5
158A
330
150F
100
AcDbEntity
  8
241
100
AcDbVertex
100
AcDb3dPolylineVertex
 10
78.7357
 20
6.84363
 30
0.0
 70
    32
  0
VERTEX
  5
158B
330
150F
100
AcDbEntity
  8
241
100
AcDbVertex
100
AcDb3dPolylineVertex
 10
78.7265
 20
6.81695
 30
0.0
 70
    32
  0
VERTEX
  5
158C
330
150F
100
AcDbEntity
  8
241
100
AcDbVertex
100
AcDb3dPolylineVertex
 10
78.718
 20
6.79005
 30
0.0
 70
    32
  0
VERTEX
  5
158D
330
150F
100
AcDbEntity
  8
241
100
AcDbVertex
100
AcDb3dPolylineVertex
 10
78.7104
 20
6.76295
 30
0.0
 70
    32
  0
VERTEX
  5
158E
330
150F
100
AcDbEntity
  8
241
100
AcDbVertex
100
AcDb3dPolylineVertex
 10
78.7035
 20
6.73565
 30
0.0
 70
    32
  0
VERTEX
  5
158F
330
150F
100
AcDbEntity
  8
241
100
AcDbVertex
100
AcDb3dPolylineVertex
 10
78.6974
 20
6.70818
 30
0.0
 70
    32
  0
VERTEX
  5
1590
330
150F
100
AcDbEntity
  8
241
100
AcDbVertex
100
AcDb3dPolylineVertex
 10
78.6921
 20
6.68055
 30
0.0
 70
    32
  0
SEQEND
  5
1591
330
150F
100
AcDbEntity
  8
241
  0
POLYLINE
  5
1592
330
D07
100
AcDbEntity
  8
241
100
AcDb3dPolyline
 66
     1
 10
0.0
 20
0.0
 30
0.0
 70
     8
  0
VERTEX
  5
1593
330
1592
100
AcDbEntity
  8
241
100
AcDbVertex
100
AcDb3dPolylineVertex
 10
78.6921
 20
6.68055
 30
0.0
 70
    32
  0
VERTEX
  5
1594
330
1592
100
AcDbEntity
  8
241
100
AcDbVertex
100
AcDb3dPolylineVertex
 10
78.6857
 20
6.64161
 30
0.0
 70
    32
  0
VERTEX
  5
1595
330
1592
100
AcDbEntity
  8
241
100
AcDbVertex
100
AcDb3dPolylineVertex
 10
78.68
 20
6.60255
 30
0.0
 70
    32
  0
VERTEX
  5
1596
330
1592
100
AcDbEntity
  8
241
100
AcDbVertex
100
AcDb3dPolylineVertex
 10
78.6752
 20
6.5634
 30
0.0
 70
    32
  0
VERTEX
  5
1597
330
1592
100
AcDbEntity
  8
241
100
AcDbVertex
100
AcDb3dPolylineVertex
 10
78.6712
 20
6.52418
 30
0.0
 70
    32
  0
VERTEX
  5
1598
330
1592
100
AcDbEntity
  8
241
100
AcDbVertex
100
AcDb3dPolylineVertex
 10
78.6679
 20
6.48491
 30
0.0
 70
    32
  0
VERTEX
  5
1599
330
1592
100
AcDbEntity
  8
241
100
AcDbVertex
100
AcDb3dPolylineVertex
 10
78.6655
 20
6.44562
 30
0.0
 70
    32
  0
VERTEX
  5
159A
330
1592
100
AcDbEntity
  8
241
100
AcDbVertex
100
AcDb3dPolylineVertex
 10
78.664
 20
6.40633
 30
0.0
 70
    32
  0
VERTEX
  5
159B
330
1592
100
AcDbEntity
  8
241
100
AcDbVertex
100
AcDb3dPolylineVertex
 10
78.6632
 20
6.36706
 30
0.0
 70
    32
  0
VERTEX
  5
159C
330
1592
100
AcDbEntity
  8
241
100
AcDbVertex
100
AcDb3dPolylineVertex
 10
78.6632
 20
6.32784
 30
0.0
 70
    32
  0
VERTEX
  5
159D
330
1592
100
AcDbEntity
  8
241
100
AcDbVertex
100
AcDb3dPolylineVertex
 10
78.6641
 20
6.28869
 30
0.0
 70
    32
  0
VERTEX
  5
159E
330
1592
100
AcDbEntity
  8
241
100
AcDbVertex
100
AcDb3dPolylineVertex
 10
78.6658
 20
6.24964
 30
0.0
 70
    32
  0
VERTEX
  5
159F
330
1592
100
AcDbEntity
  8
241
100
AcDbVertex
100
AcDb3dPolylineVertex
 10
78.6683
 20
6.2107
 30
0.0
 70
    32
  0
VERTEX
  5
15A0
330
1592
100
AcDbEntity
  8
241
100
AcDbVertex
100
AcDb3dPolylineVertex
 10
78.6716
 20
6.1719
 30
0.0
 70
    32
  0
VERTEX
  5
15A1
330
1592
100
AcDbEntity
  8
241
100
AcDbVertex
100
AcDb3dPolylineVertex
 10
78.6758
 20
6.13328
 30
0.0
 70
    32
  0
VERTEX
  5
15A2
330
1592
100
AcDbEntity
  8
241
100
AcDbVertex
100
AcDb3dPolylineVertex
 10
78.6807
 20
6.09484
 30
0.0
 70
    32
  0
VERTEX
  5
15A3
330
1592
100
AcDbEntity
  8
241
100
AcDbVertex
100
AcDb3dPolylineVertex
 10
78.6865
 20
6.05661
 30
0.0
 70
    32
  0
VERTEX
  5
15A4
330
1592
100
AcDbEntity
  8
241
100
AcDbVertex
100
AcDb3dPolylineVertex
 10
78.693
 20
6.01861
 30
0.0
 70
    32
  0
VERTEX
  5
15A5
330
1592
100
AcDbEntity
  8
241
100
AcDbVertex
100
AcDb3dPolylineVertex
 10
78.7004
 20
5.98087
 30
0.0
 70
    32
  0
VERTEX
  5
15A6
330
1592
100
AcDbEntity
  8
241
100
AcDbVertex
100
AcDb3dPolylineVertex
 10
78.7085
 20
5.94342
 30
0.0
 70
    32
  0
VERTEX
  5
15A7
330
1592
100
AcDbEntity
  8
241
100
AcDbVertex
100
AcDb3dPolylineVertex
 10
78.7175
 20
5.90626
 30
0.0
 70
    32
  0
VERTEX
  5
15A8
330
1592
100
AcDbEntity
  8
241
100
AcDbVertex
100
AcDb3dPolylineVertex
 10
78.7272
 20
5.86944
 30
0.0
 70
    32
  0
VERTEX
  5
15A9
330
1592
100
AcDbEntity
  8
241
100
AcDbVertex
100
AcDb3dPolylineVertex
 10
78.7377
 20
5.83295
 30
0.0
 70
    32
  0
VERTEX
  5
15AA
330
1592
100
AcDbEntity
  8
241
100
AcDbVertex
100
AcDb3dPolylineVertex
 10
78.749
 20
5.79684
 30
0.0
 70
    32
  0
VERTEX
  5
15AB
330
1592
100
AcDbEntity
  8
241
100
AcDbVertex
100
AcDb3dPolylineVertex
 10
78.761
 20
5.76112
 30
0.0
 70
    32
  0
VERTEX
  5
15AC
330
1592
100
AcDbEntity
  8
241
100
AcDbVertex
100
AcDb3dPolylineVertex
 10
78.7738
 20
5.72581
 30
0.0
 70
    32
  0
VERTEX
  5
15AD
330
1592
100
AcDbEntity
  8
241
100
AcDbVertex
100
AcDb3dPolylineVertex
 10
78.7874
 20
5.69094
 30
0.0
 70
    32
  0
VERTEX
  5
15AE
330
1592
100
AcDbEntity
  8
241
100
AcDbVertex
100
AcDb3dPolylineVertex
 10
78.8017
 20
5.65652
 30
0.0
 70
    32
  0
VERTEX
  5
15AF
330
1592
100
AcDbEntity
  8
241
100
AcDbVertex
100
AcDb3dPolylineVertex
 10
78.8167
 20
5.62258
 30
0.0
 70
    32
  0
VERTEX
  5
15B0
330
1592
100
AcDbEntity
  8
241
100
AcDbVertex
100
AcDb3dPolylineVertex
 10
78.8325
 20
5.58913
 30
0.0
 70
    32
  0
VERTEX
  5
15B1
330
1592
100
AcDbEntity
  8
241
100
AcDbVertex
100
AcDb3dPolylineVertex
 10
78.849
 20
5.5562
 30
0.0
 70
    32
  0
VERTEX
  5
15B2
330
1592
100
AcDbEntity
  8
241
100
AcDbVertex
100
AcDb3dPolylineVertex
 10
78.8662
 20
5.5238
 30
0.0
 70
    32
  0
VERTEX
  5
15B3
330
1592
100
AcDbEntity
  8
241
100
AcDbVertex
100
AcDb3dPolylineVertex
 10
78.8841
 20
5.49196
 30
0.0
 70
    32
  0
VERTEX
  5
15B4
330
1592
100
AcDbEntity
  8
241
100
AcDbVertex
100
AcDb3dPolylineVertex
 10
78.9026
 20
5.4607
 30
0.0
 70
    32
  0
VERTEX
  5
15B5
330
1592
100
AcDbEntity
  8
241
100
AcDbVertex
100
AcDb3dPolylineVertex
 10
78.9219
 20
5.43003
 30
0.0
 70
    32
  0
VERTEX
  5
15B6
330
1592
100
AcDbEntity
  8
241
100
AcDbVertex
100
AcDb3dPolylineVertex
 10
78.9418
 20
5.39997
 30
0.0
 70
    32
  0
VERTEX
  5
15B7
330
1592
100
AcDbEntity
  8
241
100
AcDbVertex
100
AcDb3dPolylineVertex
 10
78.9623
 20
5.37054
 30
0.0
 70
    32
  0
VERTEX
  5
15B8
330
1592
100
AcDbEntity
  8
241
100
AcDbVertex
100
AcDb3dPolylineVertex
 10
78.9835
 20
5.34176
 30
0.0
 70
    32
  0
VERTEX
  5
15B9
330
1592
100
AcDbEntity
  8
241
100
AcDbVertex
100
AcDb3dPolylineVertex
 10
79.0053
 20
5.31364
 30
0.0
 70
    32
  0
VERTEX
  5
15BA
330
1592
100
AcDbEntity
  8
241
100
AcDbVertex
100
AcDb3dPolylineVertex
 10
79.0278
 20
5.28621
 30
0.0
 70
    32
  0
VERTEX
  5
15BB
330
1592
100
AcDbEntity
  8
241
100
AcDbVertex
100
AcDb3dPolylineVertex
 10
79.0508
 20
5.25947
 30
0.0
 70
    32
  0
VERTEX
  5
15BC
330
1592
100
AcDbEntity
  8
241
100
AcDbVertex
100
AcDb3dPolylineVertex
 10
79.0744
 20
5.23345
 30
0.0
 70
    32
  0
VERTEX
  5
15BD
330
1592
100
AcDbEntity
  8
241
100
AcDbVertex
100
AcDb3dPolylineVertex
 10
79.0986
 20
5.20816
 30
0.0
 70
    32
  0
VERTEX
  5
15BE
330
1592
100
AcDbEntity
  8
241
100
AcDbVertex
100
AcDb3dPolylineVertex
 10
79.1233
 20
5.18362
 30
0.0
 70
    32
  0
VERTEX
  5
15BF
330
1592
100
AcDbEntity
  8
241
100
AcDbVertex
100
AcDb3dPolylineVertex
 10
79.1486
 20
5.15983
 30
0.0
 70
    32
  0
VERTEX
  5
15C0
330
1592
100
AcDbEntity
  8
241
100
AcDbVertex
100
AcDb3dPolylineVertex
 10
79.1744
 20
5.13682
 30
0.0
 70
    32
  0
VERTEX
  5
15C1
330
1592
100
AcDbEntity
  8
241
100
AcDbVertex
100
AcDb3dPolylineVertex
 10
79.2007
 20
5.1146
 30
0.0
 70
    32
  0
VERTEX
  5
15C2
330
1592
100
AcDbEntity
  8
241
100
AcDbVertex
100
AcDb3dPolylineVertex
 10
79.2275
 20
5.09318
 30
0.0
 70
    32
  0
VERTEX
  5
15C3
330
1592
100
AcDbEntity
  8
241
100
AcDbVertex
100
AcDb3dPolylineVertex
 10
79.2548
 20
5.07258
 30
0.0
 70
    32
  0
VERTEX
  5
15C4
330
1592
100
AcDbEntity
  8
241
100
AcDbVertex
100
AcDb3dPolylineVertex
 10
79.2826
 20
5.0528
 30
0.0
 70
    32
  0
VERTEX
  5
15C5
330
1592
100
AcDbEntity
  8
241
100
AcDbVertex
100
AcDb3dPolylineVertex
 10
79.3108
 20
5.03387
 30
0.0
 70
    32
  0
VERTEX
  5
15C6
330
1592
100
AcDbEntity
  8
241
100
AcDbVertex
100
AcDb3dPolylineVertex
 10
79.3394
 20
5.01578
 30
0.0
 70
    32
  0
VERTEX
  5
15C7
330
1592
100
AcDbEntity
  8
241
100
AcDbVertex
100
AcDb3dPolylineVertex
 10
79.3684
 20
4.99856
 30
0.0
 70
    32
  0
VERTEX
  5
15C8
330
1592
100
AcDbEntity
  8
241
100
AcDbVertex
100
AcDb3dPolylineVertex
 10
79.3979
 20
4.98221
 30
0.0
 70
    32
  0
VERTEX
  5
15C9
330
1592
100
AcDbEntity
  8
241
100
AcDbVertex
100
AcDb3dPolylineVertex
 10
79.4277
 20
4.96673
 30
0.0
 70
    32
  0
VERTEX
  5
15CA
330
1592
100
AcDbEntity
  8
241
100
AcDbVertex
100
AcDb3dPolylineVertex
 10
79.4578
 20
4.95216
 30
0.0
 70
    32
  0
VERTEX
  5
15CB
330
1592
100
AcDbEntity
  8
241
100
AcDbVertex
100
AcDb3dPolylineVertex
 10
79.4883
 20
4.93848
 30
0.0
 70
    32
  0
VERTEX
  5
15CC
330
1592
100
AcDbEntity
  8
241
100
AcDbVertex
100
AcDb3dPolylineVertex
 10
79.5192
 20
4.9257
 30
0.0
 70
    32
  0
VERTEX
  5
15CD
330
1592
100
AcDbEntity
  8
241
100
AcDbVertex
100
AcDb3dPolylineVertex
 10
79.5503
 20
4.91385
 30
0.0
 70
    32
  0
VERTEX
  5
15CE
330
1592
100
AcDbEntity
  8
241
100
AcDbVertex
100
AcDb3dPolylineVertex
 10
79.5817
 20
4.90292
 30
0.0
 70
    32
  0
VERTEX
  5
15CF
330
1592
100
AcDbEntity
  8
241
100
AcDbVertex
100
AcDb3dPolylineVertex
 10
79.6134
 20
4.89291
 30
0.0
 70
    32
  0
VERTEX
  5
15D0
330
1592
100
AcDbEntity
  8
241
100
AcDbVertex
100
AcDb3dPolylineVertex
 10
79.6453
 20
4.88385
 30
0.0
 70
    32
  0
VERTEX
  5
15D1
330
1592
100
AcDbEntity
  8
241
100
AcDbVertex
100
AcDb3dPolylineVertex
 10
79.6775
 20
4.87572
 30
0.0
 70
    32
  0
VERTEX
  5
15D2
330
1592
100
AcDbEntity
  8
241
100
AcDbVertex
100
AcDb3dPolylineVertex
 10
79.7098
 20
4.86854
 30
0.0
 70
    32
  0
VERTEX
  5
15D3
330
1592
100
AcDbEntity
  8
241
100
AcDbVertex
100
AcDb3dPolylineVertex
 10
79.7423
 20
4.86231
 30
0.0
 70
    32
  0
VERTEX
  5
15D4
330
1592
100
AcDbEntity
  8
241
100
AcDbVertex
100
AcDb3dPolylineVertex
 10
79.7751
 20
4.85703
 30
0.0
 70
    32
  0
VERTEX
  5
15D5
330
1592
100
AcDbEntity
  8
241
100
AcDbVertex
100
AcDb3dPolylineVertex
 10
79.8079
 20
4.85271
 30
0.0
 70
    32
  0
VERTEX
  5
15D6
330
1592
100
AcDbEntity
  8
241
100
AcDbVertex
100
AcDb3dPolylineVertex
 10
79.8409
 20
4.84935
 30
0.0
 70
    32
  0
VERTEX
  5
15D7
330
1592
100
AcDbEntity
  8
241
100
AcDbVertex
100
AcDb3dPolylineVertex
 10
79.874
 20
4.84696
 30
0.0
 70
    32
  0
VERTEX
  5
15D8
330
1592
100
AcDbEntity
  8
241
100
AcDbVertex
100
AcDb3dPolylineVertex
 10
79.9072
 20
4.84552
 30
0.0
 70
    32
  0
VERTEX
  5
15D9
330
1592
100
AcDbEntity
  8
241
100
AcDbVertex
100
AcDb3dPolylineVertex
 10
79.9404
 20
4.84505
 30
0.0
 70
    32
  0
VERTEX
  5
15DA
330
1592
100
AcDbEntity
  8
241
100
AcDbVertex
100
AcDb3dPolylineVertex
 10
79.9738
 20
4.84555
 30
0.0
 70
    32
  0
VERTEX
  5
15DB
330
1592
100
AcDbEntity
  8
241
100
AcDbVertex
100
AcDb3dPolylineVertex
 10
80.0071
 20
4.84701
 30
0.0
 70
    32
  0
VERTEX
  5
15DC
330
1592
100
AcDbEntity
  8
241
100
AcDbVertex
100
AcDb3dPolylineVertex
 10
80.0404
 20
4.84943
 30
0.0
 70
    32
  0
VERTEX
  5
15DD
330
1592
100
AcDbEntity
  8
241
100
AcDbVertex
100
AcDb3dPolylineVertex
 10
80.0738
 20
4.85281
 30
0.0
 70
    32
  0
VERTEX
  5
15DE
330
1592
100
AcDbEntity
  8
241
100
AcDbVertex
100
AcDb3dPolylineVertex
 10
80.1071
 20
4.85716
 30
0.0
 70
    32
  0
VERTEX
  5
15DF
330
1592
100
AcDbEntity
  8
241
100
AcDbVertex
100
AcDb3dPolylineVertex
 10
80.1403
 20
4.86246
 30
0.0
 70
    32
  0
VERTEX
  5
15E0
330
1592
100
AcDbEntity
  8
241
100
AcDbVertex
100
AcDb3dPolylineVertex
 10
80.1735
 20
4.86871
 30
0.0
 70
    32
  0
VERTEX
  5
15E1
330
1592
100
AcDbEntity
  8
241
100
AcDbVertex
100
AcDb3dPolylineVertex
 10
80.2066
 20
4.87592
 30
0.0
 70
    32
  0
VERTEX
  5
15E2
330
1592
100
AcDbEntity
  8
241
100
AcDbVertex
100
AcDb3dPolylineVertex
 10
80.2395
 20
4.88407
 30
0.0
 70
    32
  0
VERTEX
  5
15E3
330
1592
100
AcDbEntity
  8
241
100
AcDbVertex
100
AcDb3dPolylineVertex
 10
80.2724
 20
4.89316
 30
0.0
 70
    32
  0
VERTEX
  5
15E4
330
1592
100
AcDbEntity
  8
241
100
AcDbVertex
100
AcDb3dPolylineVertex
 10
80.3051
 20
4.90319
 30
0.0
 70
    32
  0
VERTEX
  5
15E5
330
1592
100
AcDbEntity
  8
241
100
AcDbVertex
100
AcDb3dPolylineVertex
 10
80.3376
 20
4.91414
 30
0.0
 70
    32
  0
VERTEX
  5
15E6
330
1592
100
AcDbEntity
  8
241
100
AcDbVertex
100
AcDb3dPolylineVertex
 10
80.3699
 20
4.92602
 30
0.0
 70
    32
  0
VERTEX
  5
15E7
330
1592
100
AcDbEntity
  8
241
100
AcDbVertex
100
AcDb3dPolylineVertex
 10
80.402
 20
4.93882
 30
0.0
 70
    32
  0
VERTEX
  5
15E8
330
1592
100
AcDbEntity
  8
241
100
AcDbVertex
100
AcDb3dPolylineVertex
 10
80.4339
 20
4.95252
 30
0.0
 70
    32
  0
VERTEX
  5
15E9
330
1592
100
AcDbEntity
  8
241
100
AcDbVertex
100
AcDb3dPolylineVertex
 10
80.4656
 20
4.96712
 30
0.0
 70
    32
  0
VERTEX
  5
15EA
330
1592
100
AcDbEntity
  8
241
100
AcDbVertex
100
AcDb3dPolylineVertex
 10
80.497
 20
4.98262
 30
0.0
 70
    32
  0
VERTEX
  5
15EB
330
1592
100
AcDbEntity
  8
241
100
AcDbVertex
100
AcDb3dPolylineVertex
 10
80.528
 20
4.99899
 30
0.0
 70
    32
  0
VERTEX
  5
15EC
330
1592
100
AcDbEntity
  8
241
100
AcDbVertex
100
AcDb3dPolylineVertex
 10
80.5588
 20
5.01624
 30
0.0
 70
    32
  0
VERTEX
  5
15ED
330
1592
100
AcDbEntity
  8
241
100
AcDbVertex
100
AcDb3dPolylineVertex
 10
80.5893
 20
5.03435
 30
0.0
 70
    32
  0
VERTEX
  5
15EE
330
1592
100
AcDbEntity
  8
241
100
AcDbVertex
100
AcDb3dPolylineVertex
 10
80.6194
 20
5.0533
 30
0.0
 70
    32
  0
VERTEX
  5
15EF
330
1592
100
AcDbEntity
  8
241
100
AcDbVertex
100
AcDb3dPolylineVertex
 10
80.6492
 20
5.0731
 30
0.0
 70
    32
  0
VERTEX
  5
15F0
330
1592
100
AcDbEntity
  8
241
100
AcDbVertex
100
AcDb3dPolylineVertex
 10
80.6785
 20
5.09373
 30
0.0
 70
    32
  0
VERTEX
  5
15F1
330
1592
100
AcDbEntity
  8
241
100
AcDbVertex
100
AcDb3dPolylineVertex
 10
80.7075
 20
5.11516
 30
0.0
 70
    32
  0
VERTEX
  5
15F2
330
1592
100
AcDbEntity
  8
241
100
AcDbVertex
100
AcDb3dPolylineVertex
 10
80.7361
 20
5.13741
 30
0.0
 70
    32
  0
VERTEX
  5
15F3
330
1592
100
AcDbEntity
  8
241
100
AcDbVertex
100
AcDb3dPolylineVertex
 10
80.7642
 20
5.16043
 30
0.0
 70
    32
  0
VERTEX
  5
15F4
330
1592
100
AcDbEntity
  8
241
100
AcDbVertex
100
AcDb3dPolylineVertex
 10
80.7919
 20
5.18424
 30
0.0
 70
    32
  0
VERTEX
  5
15F5
330
1592
100
AcDbEntity
  8
241
100
AcDbVertex
100
AcDb3dPolylineVertex
 10
80.8192
 20
5.2088
 30
0.0
 70
    32
  0
VERTEX
  5
15F6
330
1592
100
AcDbEntity
  8
241
100
AcDbVertex
100
AcDb3dPolylineVertex
 10
80.8459
 20
5.23411
 30
0.0
 70
    32
  0
VERTEX
  5
15F7
330
1592
100
AcDbEntity
  8
241
100
AcDbVertex
100
AcDb3dPolylineVertex
 10
80.8722
 20
5.26015
 30
0.0
 70
    32
  0
VERTEX
  5
15F8
330
1592
100
AcDbEntity
  8
241
100
AcDbVertex
100
AcDb3dPolylineVertex
 10
80.8979
 20
5.2869
 30
0.0
 70
    32
  0
VERTEX
  5
15F9
330
1592
100
AcDbEntity
  8
241
100
AcDbVertex
100
AcDb3dPolylineVertex
 10
80.9231
 20
5.31436
 30
0.0
 70
    32
  0
VERTEX
  5
15FA
330
1592
100
AcDbEntity
  8
241
100
AcDbVertex
100
AcDb3dPolylineVertex
 10
80.9478
 20
5.34249
 30
0.0
 70
    32
  0
VERTEX
  5
15FB
330
1592
100
AcDbEntity
  8
241
100
AcDbVertex
100
AcDb3dPolylineVertex
 10
80.9719
 20
5.37129
 30
0.0
 70
    32
  0
VERTEX
  5
15FC
330
1592
100
AcDbEntity
  8
241
100
AcDbVertex
100
AcDb3dPolylineVertex
 10
80.9954
 20
5.40073
 30
0.0
 70
    32
  0
VERTEX
  5
15FD
330
1592
100
AcDbEntity
  8
241
100
AcDbVertex
100
AcDb3dPolylineVertex
 10
81.0184
 20
5.43081
 30
0.0
 70
    32
  0
VERTEX
  5
15FE
330
1592
100
AcDbEntity
  8
241
100
AcDbVertex
100
AcDb3dPolylineVertex
 10
81.0407
 20
5.4615
 30
0.0
 70
    32
  0
VERTEX
  5
15FF
330
1592
100
AcDbEntity
  8
241
100
AcDbVertex
100
AcDb3dPolylineVertex
 10
81.0625
 20
5.49278
 30
0.0
 70
    32
  0
VERTEX
  5
1600
330
1592
100
AcDbEntity
  8
241
100
AcDbVertex
100
AcDb3dPolylineVertex
 10
81.0836
 20
5.52463
 30
0.0
 70
    32
  0
VERTEX
  5
1601
330
1592
100
AcDbEntity
  8
241
100
AcDbVertex
100
AcDb3dPolylineVertex
 10
81.1041
 20
5.55704
 30
0.0
 70
    32
  0
VERTEX
  5
1602
330
1592
100
AcDbEntity
  8
241
100
AcDbVertex
100
AcDb3dPolylineVertex
 10
81.1239
 20
5.58998
 30
0.0
 70
    32
  0
VERTEX
  5
1603
330
1592
100
AcDbEntity
  8
241
100
AcDbVertex
100
AcDb3dPolylineVertex
 10
81.143
 20
5.62345
 30
0.0
 70
    32
  0
VERTEX
  5
1604
330
1592
100
AcDbEntity
  8
241
100
AcDbVertex
100
AcDb3dPolylineVertex
 10
81.1615
 20
5.6574
 30
0.0
 70
    32
  0
VERTEX
  5
1605
330
1592
100
AcDbEntity
  8
241
100
AcDbVertex
100
AcDb3dPolylineVertex
 10
81.1793
 20
5.69183
 30
0.0
 70
    32
  0
VERTEX
  5
1606
330
1592
100
AcDbEntity
  8
241
100
AcDbVertex
100
AcDb3dPolylineVertex
 10
81.1964
 20
5.72672
 30
0.0
 70
    32
  0
VERTEX
  5
1607
330
1592
100
AcDbEntity
  8
241
100
AcDbVertex
100
AcDb3dPolylineVertex
 10
81.2128
 20
5.76204
 30
0.0
 70
    32
  0
VERTEX
  5
1608
330
1592
100
AcDbEntity
  8
241
100
AcDbVertex
100
AcDb3dPolylineVertex
 10
81.2285
 20
5.79777
 30
0.0
 70
    32
  0
VERTEX
  5
1609
330
1592
100
AcDbEntity
  8
241
100
AcDbVertex
100
AcDb3dPolylineVertex
 10
81.2434
 20
5.83389
 30
0.0
 70
    32
  0
VERTEX
  5
160A
330
1592
100
AcDbEntity
  8
241
100
AcDbVertex
100
AcDb3dPolylineVertex
 10
81.2576
 20
5.87038
 30
0.0
 70
    32
  0
VERTEX
  5
160B
330
1592
100
AcDbEntity
  8
241
100
AcDbVertex
100
AcDb3dPolylineVertex
 10
81.2711
 20
5.90722
 30
0.0
 70
    32
  0
VERTEX
  5
160C
330
1592
100
AcDbEntity
  8
241
100
AcDbVertex
100
AcDb3dPolylineVertex
 10
81.2838
 20
5.94438
 30
0.0
 70
    32
  0
VERTEX
  5
160D
330
1592
100
AcDbEntity
  8
241
100
AcDbVertex
100
AcDb3dPolylineVertex
 10
81.2957
 20
5.98184
 30
0.0
 70
    32
  0
VERTEX
  5
160E
330
1592
100
AcDbEntity
  8
241
100
AcDbVertex
100
AcDb3dPolylineVertex
 10
81.3069
 20
6.01959
 30
0.0
 70
    32
  0
VERTEX
  5
160F
330
1592
100
AcDbEntity
  8
241
100
AcDbVertex
100
AcDb3dPolylineVertex
 10
81.3173
 20
6.05759
 30
0.0
 70
    32
  0
VERTEX
  5
1610
330
1592
100
AcDbEntity
  8
241
100
AcDbVertex
100
AcDb3dPolylineVertex
 10
81.327
 20
6.09582
 30
0.0
 70
    32
  0
VERTEX
  5
1611
330
1592
100
AcDbEntity
  8
241
100
AcDbVertex
100
AcDb3dPolylineVertex
 10
81.3358
 20
6.13427
 30
0.0
 70
    32
  0
VERTEX
  5
1612
330
1592
100
AcDbEntity
  8
241
100
AcDbVertex
100
AcDb3dPolylineVertex
 10
81.3439
 20
6.1729
 30
0.0
 70
    32
  0
VERTEX
  5
1613
330
1592
100
AcDbEntity
  8
241
100
AcDbVertex
100
AcDb3dPolylineVertex
 10
81.3511
 20
6.2117
 30
0.0
 70
    32
  0
SEQEND
  5
1614
330
1592
100
AcDbEntity
  8
241
  0
ARC
  5
1615
330
D07
100
AcDbEntity
  8
240
  6
CONTINUOUS
100
AcDbCircle
 10
26.0
 20
30.5
 30
0.0
 40
1.0
100
AcDbArc
 50
0.0
 51
90.0
  0
LINE
  5
1616
330
D07
100
AcDbEntity
  8
240
  6
CONTINUOUS
100
AcDbLine
 10
27.0
 20
30.5
 30
0.0
 11
27.0
 21
30.0
 31
0.0
  0
ENDBLK
  5
D09
330
D07
100
AcDbEntity
  8
0
100
AcDbBlockEnd
  0
ENDSEC
  0
SECTION
  2
ENTITIES
  0
INSERT
  5
6E6
330
1A
100
AcDbEntity
  8
245
100
AcDbBlockReference
  2
矢印なし
 10
175.62382697
 20
90.55123572
 30
0.0
  0
TEXT
  5
A21
330
1A
100
AcDbEntity
  8
241
100
AcDbText
 10
-65.4
 20
56.0
 30
0.0
 40
5.0
  1
BBT40-FCR20083-85
  7
YOKO
 11
-65.4
 21
56.0
 31
0.0
100
AcDbText
 73
     1
  0
DIMENSION
  5
C88
330
1A
100
AcDbEntity
  8
250
  6
CONTINUOUS
100
AcDbDimension
  2
*D2
 10
98.0
 20
10.0
 30
0.0
 11
95.6
 21
0.0
 31
0.0
 70
    32
  1
{\H2.8;\U+2205}<>
  3
BIGT
100
AcDbAlignedDimension
 13
85.0
 23
-10.0
 33
0.0
 14
85.0
 24
10.0
 34
0.0
 50
90.0
100
AcDbRotatedDimension
  0
DIMENSION
  5
C97
330
1A
100
AcDbEntity
  8
250
  6
CONTINUOUS
100
AcDbDimension
  2
*D3
 10
85.0
 20
28.0
 30
0.0
 11
81.0
 21
30.4
 31
0.0
 70
    32
  3
BIGT
100
AcDbAlignedDimension
 13
77.0
 23
10.0
 33
0.0
 14
85.0
 24
10.0
 34
0.0
100
AcDbRotatedDimension
  0
DIMENSION
  5
CA6
330
1A
100
AcDbEntity
  8
250
  6
CONTINUOUS
100
AcDbDimension
  2
*D4
 10
85.0
 20
35.0
 30
0.0
 11
67.5
 21
37.4
 31
0.0
 70
    32
  3
BIGT
100
AcDbAlignedDimension
 13
50.0
 23
9.40230149
 33
0.0
 14
85.0
 24
10.0
 34
0.0
100
AcDbRotatedDimension
  0
DIMENSION
  5
CB5
330
1A
100
AcDbEntity
  8
250
  6
CONTINUOUS
100
AcDbDimension
  2
*D5
 10
85.0
 20
42.0
 30
0.0
 11
42.5
 21
44.4
 31
0.0
 70
    32
  3
BIGT
100
AcDbAlignedDimension
 13
0.0
 23
22.225
 33
0.0
 14
85.0
 24
10.0
 34
0.0
100
AcDbRotatedDimension
  0
LEADER
  5
1177
330
1A
100
AcDbEntity
  8
250
  6
CONTINUOUS
100
AcDbLeader
  3
BIGT
 76
     2
 10
-26.64442081
 20
-18.3393553
 30
0.0
 10
-32.4583971
 20
-28.40945762
 30
0.0
1001
ACAD
1000
DSTYLE
1002
{
1070
     6
1000
OPEN
1070
   343
1005
594
1002
}
  0
MTEXT
  5
1178
330
1A
100
AcDbEntity
  8
250
  6
CONTINUOUS
 62
    40
100
AcDbMText
 10
-47.39173044
 20
-27.40945762
 30
0.0
 40
2.8
 41
0.0
 71
     7
 72
     1
  1
BBT40
  7
YOKO
1001
ITEMNAME
1000
LNSP3
1001
ACAD
1000
MTEXTBEGIN
1070
    73
1070
     1
1070
    44
1040
1.0
1070
    74
1070
     0
1000
MTEXTEND
1000
MTEXTBEGIN
1070
    73
1070
     1
1070
    44
1040
1.0
1070
    74
1070
     0
1000
MTEXTEND
1000
MTEXTBEGIN
1070
    73
1070
     1
1070
    44
1040
1.0
1070
    74
1070
     0
1000
MTEXTEND
  0
LINE
  5
117B
330
1A
100
AcDbEntity
  8
250
  6
CONTINUOUS
100
AcDbLine
 10
-32.4583971
 20
-28.40945762
 30
0.0
 11
-50.19173044
 21
-28.40945762
 31
0.0
1001
ITEMNAME
1000
LNSP2
  0
INSERT
  5
1617
330
1A
100
AcDbEntity
  8
245
100
AcDbBlockReference
  2
1
 10
0.0
 20
0.0
 30
0.0
  0
VIEWPORT
  5
22
330
17
100
AcDbEntity
 67
     1
  8
0
100
AcDbViewport
 10
261.51769912
 20
148.5
 30
0.0
 40
523.03539823
 41
297.0
 68
     1
 69
     1
1001
ACAD
1000
MVIEW
1002
{
1070
    16
1010
0.0
1020
0.0
1030
0.0
1010
0.0
1020
0.0
1030
1.0
1040
0.0
1040
297.0
1040
261.51769912
1040
148.5
1040
50.0
1040
0.0
1040
0.0
1070
     0
1070
   100
1070
     1
1070
     1
1070
     0
1070
     0
1070
     0
1070
     0
1040
0.0
1040
0.0
1040
0.0
1040
1.0
1040
1.0
1040
10.0
1040
10.0
1070
     0
1002
{
1002
}
1002
}
  0
ENDSEC
  0
SECTION
  2
OBJECTS
  0
DICTIONARY
  5
C
330
0
100
AcDbDictionary
  3
ACAD_GROUP
350
D
  3
ACAD_LAYOUT
350
565
  3
ACAD_MLINESTYLE
350
E
  3
ACAD_PLOTSETTINGS
350
566
  3
ACAD_PLOTSTYLENAME
350
563
  3
ACDBHEADERROUNDTRIPXREC
350
1640
  3
GRADE_DWG
350
540
  0
DICTIONARY
  5
F41
330
1A
100
AcDbDictionary
280
     1
  3
ACAD_LAYOUTSELFREF
360
1662
  0
DICTIONARY
  5
F3F
330
17
100
AcDbDictionary
280
     1
  3
ACAD_LAYOUTSELFREF
360
1661
  0
DICTIONARY
  5
D
102
{ACAD_REACTORS
330
C
102
}
330
C
100
AcDbDictionary
  3
*A1
350
6C7
  3
*A2
350
6C8
  3
*A3
350
6D4
  3
*A4
350
6D5
  3
DREC-1
350
5FC
  3
DREC-2
350
654
  3
DREC-3
350
673
  0
DICTIONARY
  5
565
102
{ACAD_REACTORS
330
C
102
}
330
C
100
AcDbDictionary
  0
DICTIONARY
  5
E
102
{ACAD_REACTORS
330
C
102
}
330
C
100
AcDbDictionary
  3
STANDARD
350
13
  0
DICTIONARY
  5
566
102
{ACAD_REACTORS
330
C
102
}
330
C
100
AcDbDictionary
  3
A3_0_5倍_
350
758
  3
A3_1倍_
350
757
  3
A3_1倍__2000_
350
707
  3
A3_2倍_
350
759
  3
A4_0_5倍_
350
755
  3
A4_1倍_
350
754
  3
A4_1倍__2000_
350
708
  3
A4_2倍_
350
756
  0
ACDBDICTIONARYWDFLT
  5
563
102
{ACAD_REACTORS
330
C
102
}
330
C
100
AcDbDictionary
281
     1
  3
Normal
350
564
100
AcDbDictionaryWithDefault
340
564
  0
DICTIONARY
  5
1640
102
{ACAD_REACTORS
330
C
102
}
330
C
100
AcDbDictionary
  3
CEPSNTYPE
350
164A
  3
DIMSTYLEDATA
350
164E
  3
FINGERPRINTGUID
350
164B
  3
HYPERLINKBASE
350
1643
  3
INSUNITS
350
1649
  3
LAYOUTDICT
350
1645
  3
LWETCUNION
350
1648
  3
PLOTSETDICT
350
1646
  3
PLOTSTYLNAMDICT
350
1647
  3
PSVPSCALE
350
164D
  3
PUCSBASE
350
1651
  3
PUCSORGBACK
350
1657
  3
PUCSORGBOTTOM
350
1653
  3
PUCSORGFRONT
350
1656
  3
PUCSORGLEFT
350
1654
  3
PUCSORGRIGHT
350
1655
  3
PUCSORGTOP
350
1652
  3
PUCSORTHOREF
350
164F
  3
PUCSORTHOVIEW
350
1650
  3
STYLESHEET
350
1644
  3
TSTACKALIGN
350
1641
  3
TSTACKSIZE
350
1642
  3
UCSBASE
350
165A
  3
UCSORGBACK
350
1660
  3
UCSORGBOTTOM
350
165C
  3
UCSORGFRONT
350
165F
  3
UCSORGLEFT
350
165D
  3
UCSORGRIGHT
350
165E
  3
UCSORGTOP
350
165B
  3
UCSORTHOREF
350
1658
  3
UCSORTHOVIEW
350
1659
  3
VERSIONGUID
350
164C
  0
DICTIONARY
  5
540
102
{ACAD_REACTORS
330
C
102
}
330
C
100
AcDbDictionary
  3
VERSION
350
560
  0
XRECORD
  5
1662
102
{ACAD_REACTORS
330
F41
102
}
330
F41
100
AcDbXrecord
340
1A
  0
XRECORD
  5
1661
102
{ACAD_REACTORS
330
F3F
102
}
330
F3F
100
AcDbXrecord
340
17
  0
GROUP
  5
6C7
102
{ACAD_REACTORS
330
D
102
}
330
D
100
AcDbGroup
300

 70
     0
 71
     1
1001
GRPNAME
1000
DMA00
  0
GROUP
  5
6C8
102
{ACAD_REACTORS
330
D
102
}
330
D
100
AcDbGroup
300

 70
     0
 71
     1
1001
GRPNAME
1000
DMA00
  0
GROUP
  5
6D4
102
{ACAD_REACTORS
330
D
102
}
330
D
100
AcDbGroup
300

 70
     0
 71
     1
1001
GRPNAME
1000
DMA00
  0
GROUP
  5
6D5
102
{ACAD_REACTORS
330
D
102
}
330
D
100
AcDbGroup
300

 70
     0
 71
     1
1001
GRPNAME
1000
DMA00
  0
GROUP
  5
5FC
102
{ACAD_REACTORS
330
D
102
}
330
D
100
AcDbGroup
300

 70
     0
 71
     1
1001
GRPNAME
1000
DREC-
1001
GPARA
1000
xsiz
1000
44.182
1000
ysiz
1000
40.677
1000
angl
1000
0
1000
ctyp
1000
0
1000
csiz
1000
5
1000
lfnt
1000
cont
1000
hcnt
1000
hoff
1000
vcnt
1000
voff
1000
opnt
1000
4
1000
dxpt
1000
0
1000
dypt
1000
0
  0
GROUP
  5
654
102
{ACAD_REACTORS
330
D
102
}
330
D
100
AcDbGroup
300

 70
     0
 71
     1
1001
GRPNAME
1000
DREC-
1001
GPARA
1000
xsiz
1000
54.592
1000
ysiz
1000
53.036
1000
angl
1000
0
1000
ctyp
1000
0
1000
csiz
1000
5
1000
lfnt
1000
cont
1000
hcnt
1000
hoff
1000
vcnt
1000
voff
1000
opnt
1000
4
1000
dxpt
1000
0
1000
dypt
1000
0
  0
GROUP
  5
673
102
{ACAD_REACTORS
330
D
102
}
330
D
100
AcDbGroup
300

 70
     0
 71
     1
1001
GRPNAME
1000
DREC-
1001
GPARA
1000
xsiz
1000
30.363
1000
ysiz
1000
36.175
1000
angl
1000
0
1000
ctyp
1000
0
1000
csiz
1000
5
1000
lfnt
1000
cont
1000
hcnt
1000
hoff
1000
vcnt
1000
voff
1000
opnt
1000
4
1000
dxpt
1000
0
1000
dypt
1000
0
  0
MLINESTYLE
  5
13
102
{ACAD_REACTORS
330
E
102
}
330
E
100
AcDbMlineStyle
  2
STANDARD
 70
     0
  3

 62
     0
 51
90.0
 52
90.0
 71
     2
 49
0.5
 62
   256
  6
BYLAYER
 49
-0.5
 62
   256
  6
BYLAYER
  0
PLOTSETTINGS
  5
758
102
{ACAD_REACTORS
330
566
102
}
330
566
100
AcDbPlotSettings
  1
A3(0.5倍)
  2
\\AWTECPC05\HP DeskJet 1120C
  4
A3
  6

 40
5.95841646
 41
13.49375153
 42
6.04309082
 43
3.67242432
 44
296.92599487
 45
419.94665527
 46
89.96
 47
127.14
 48
0.0
 49
0.0
140
0.0
141
0.0
142
1.0
143
2.0
 70
  1716
 72
     1
 73
     1
 74
     2
  7
big.ctb
 75
    17
147
0.5
148
0.0
149
0.0
  0
PLOTSETTINGS
  5
757
102
{ACAD_REACTORS
330
566
102
}
330
566
100
AcDbPlotSettings
  1
A3(1倍)
  2
\\AWTECPC05\HP DeskJet 1120C
  4
A3
  6

 40
5.95841646
 41
13.49375153
 42
6.04309082
 43
3.67242432
 44
296.92599487
 45
419.94665527
 46
37.46
 47
52.89
 48
0.0
 49
0.0
140
0.0
141
0.0
142
1.0
143
1.0
 70
  1716
 72
     1
 73
     1
 74
     2
  7
big.ctb
 75
    16
147
1.0
148
0.0
149
0.0
  0
PLOTSETTINGS
  5
707
102
{ACAD_REACTORS
330
566
102
}
330
566
100
AcDbPlotSettings
  1
A3(1倍)(2000)
  2
SII LS-1300 (D-SCAN)
  4
User258
  6

 40
3.17499995
 41
3.17499995
 42
3.17498779
 43
3.17498779
 44
419.98898315
 45
296.98950195
 46
58.32
 47
40.32
 48
0.0
 49
0.0
140
0.0
141
0.0
142
1.0
143
1.0
 70
  1716
 72
     1
 73
     0
 74
     2
  7
big.ctb
 75
    16
147
1.0
148
0.0
149
0.0
  0
PLOTSETTINGS
  5
759
102
{ACAD_REACTORS
330
566
102
}
330
566
100
AcDbPlotSettings
  1
A3(2倍)
  2
\\AWTECPC05\HP DeskJet 1120C
  4
A3
  6

 40
5.95841646
 41
13.49375153
 42
6.04309082
 43
3.67242432
 44
296.92599487
 45
419.94665527
 46
-67.54
 47
-95.61
 48
0.0
 49
0.0
140
0.0
141
0.0
142
1.0
143
0.5
 70
  1716
 72
     1
 73
     1
 74
     2
  7
big.ctb
 75
    27
147
2.0
148
0.0
149
0.0
  0
PLOTSETTINGS
  5
755
102
{ACAD_REACTORS
330
566
102
}
330
566
100
AcDbPlotSettings
  1
A4(0.5倍)
  2
\\AWTECPC05\HP DeskJet 1120C
  4
A4
  6

 40
4.18041658
 41
13.49374962
 42
4.18040466
 43
3.92642212
 44
209.97332764
 45
296.92599487
 46
48.31
 47
65.5
 48
0.0
 49
0.0
140
0.0
141
0.0
142
1.0
143
2.0
 70
  1716
 72
     1
 73
     1
 74
     2
  7
big.ctb
 75
    17
147
0.5
148
0.0
149
0.0
  0
PLOTSETTINGS
  5
754
102
{ACAD_REACTORS
330
566
102
}
330
566
100
AcDbPlotSettings
  1
A4(1倍)
  2
\\AWTECPC05\HP DeskJet 1120C
  4
A4
  6

 40
4.18041658
 41
13.49374962
 42
4.18040466
 43
3.92642212
 44
209.97332764
 45
296.92599487
 46
-4.19
 47
-8.75
 48
0.0
 49
0.0
140
0.0
141
0.0
142
1.0
143
1.0
 70
  1716
 72
     1
 73
     1
 74
     2
  7
big.ctb
 75
    16
147
1.0
148
0.0
149
0.0
  0
PLOTSETTINGS
  5
708
102
{ACAD_REACTORS
330
566
102
}
330
566
100
AcDbPlotSettings
  1
A4(1倍)(2000)
  2
SII LS-1300 (D-SCAN)
  4
User259
  6

 40
3.17499995
 41
3.17499995
 42
3.17498779
 43
3.17500305
 44
296.98950195
 45
209.99449158
 46
-3.18
 47
-3.18
 48
0.0
 49
0.0
140
0.0
141
0.0
142
1.0
143
1.0
 70
  1716
 72
     1
 73
     0
 74
     2
  7
big.ctb
 75
    16
147
1.0
148
0.0
149
0.0
  0
PLOTSETTINGS
  5
756
102
{ACAD_REACTORS
330
566
102
}
330
566
100
AcDbPlotSettings
  1
A4(2倍)
  2
\\AWTECPC05\HP DeskJet 1120C
  4
A4
  6

 40
4.18041658
 41
13.49374962
 42
4.18040466
 43
3.92642212
 44
209.97332764
 45
296.92599487
 46
-109.19
 47
-157.25
 48
0.0
 49
0.0
140
0.0
141
0.0
142
1.0
143
0.5
 70
  1716
 72
     1
 73
     1
 74
     2
  7
big.ctb
 75
    27
147
2.0
148
0.0
149
0.0
  0
ACDBPLACEHOLDER
  5
564
102
{ACAD_REACTORS
330
563
102
}
330
563
100
AcDbPlaceHolder
280
     0
  0
XRECORD
  5
164A
102
{ACAD_REACTORS
330
1640
102
}
330
1640
100
AcDbXrecord
 90
        0
  0
XRECORD
  5
164E
102
{ACAD_REACTORS
330
1640
102
}
330
1640
100
AcDbXrecord
1000
DSTYLE
1002
{
1070
    79
 70
     2
1070
   179
 70
     3
1070
   341
340
594
1070
   343
340
594
1070
   344
340
594
1070
   371
 70
    -1
1070
   372
 70
    -1
1002
}
  0
XRECORD
  5
164B
102
{ACAD_REACTORS
330
1640
102
}
330
1640
100
AcDbXrecord
  1
{51294030-9CB4-11D3-8E18-00A0C925D94D}
  0
XRECORD
  5
1643
102
{ACAD_REACTORS
330
1640
102
}
330
1640
100
AcDbXrecord
  1

  0
XRECORD
  5
1649
102
{ACAD_REACTORS
330
1640
102
}
330
1640
100
AcDbXrecord
 90
        0
  0
XRECORD
  5
1645
102
{ACAD_REACTORS
330
1640
102
}
330
1640
100
AcDbXrecord
340
565
  0
XRECORD
  5
1648
102
{ACAD_REACTORS
330
1640
102
}
330
1640
100
AcDbXrecord
 90
    10781
  0
XRECORD
  5
1646
102
{ACAD_REACTORS
330
1640
102
}
330
1640
100
AcDbXrecord
340
566
  0
XRECORD
  5
1647
102
{ACAD_REACTORS
330
1640
102
}
330
1640
100
AcDbXrecord
340
563
  0
XRECORD
  5
164D
102
{ACAD_REACTORS
330
1640
102
}
330
1640
100
AcDbXrecord
 40
0.0
  0
XRECORD
  5
1651
102
{ACAD_REACTORS
330
1640
102
}
330
1640
100
AcDbXrecord
340
0
  0
XRECORD
  5
1657
102
{ACAD_REACTORS
330
1640
102
}
330
1640
100
AcDbXrecord
 10
0.0
 20
0.0
 30
0.0
  0
XRECORD
  5
1653
102
{ACAD_REACTORS
330
1640
102
}
330
1640
100
AcDbXrecord
 10
0.0
 20
0.0
 30
0.0
  0
XRECORD
  5
1656
102
{ACAD_REACTORS
330
1640
102
}
330
1640
100
AcDbXrecord
 10
0.0
 20
0.0
 30
0.0
  0
XRECORD
  5
1654
102
{ACAD_REACTORS
330
1640
102
}
330
1640
100
AcDbXrecord
 10
0.0
 20
0.0
 30
0.0
  0
XRECORD
  5
1655
102
{ACAD_REACTORS
330
1640
102
}
330
1640
100
AcDbXrecord
 10
0.0
 20
0.0
 30
0.0
  0
XRECORD
  5
1652
102
{ACAD_REACTORS
330
1640
102
}
330
1640
100
AcDbXrecord
 10
0.0
 20
0.0
 30
0.0
  0
XRECORD
  5
164F
102
{ACAD_REACTORS
330
1640
102
}
330
1640
100
AcDbXrecord
340
0
  0
XRECORD
  5
1650
102
{ACAD_REACTORS
330
1640
102
}
330
1640
100
AcDbXrecord
 70
     0
  0
XRECORD
  5
1644
102
{ACAD_REACTORS
330
1640
102
}
330
1640
100
AcDbXrecord
  1
big.ctb
  0
XRECORD
  5
1641
102
{ACAD_REACTORS
330
1640
102
}
330
1640
100
AcDbXrecord
 90
        1
  0
XRECORD
  5
1642
102
{ACAD_REACTORS
330
1640
102
}
330
1640
100
AcDbXrecord
 90
       70
  0
XRECORD
  5
165A
102
{ACAD_REACTORS
330
1640
102
}
330
1640
100
AcDbXrecord
340
0
  0
XRECORD
  5
1660
102
{ACAD_REACTORS
330
1640
102
}
330
1640
100
AcDbXrecord
 10
0.0
 20
0.0
 30
0.0
  0
XRECORD
  5
165C
102
{ACAD_REACTORS
330
1640
102
}
330
1640
100
AcDbXrecord
 10
0.0
 20
0.0
 30
0.0
  0
XRECORD
  5
165F
102
{ACAD_REACTORS
330
1640
102
}
330
1640
100
AcDbXrecord
 10
0.0
 20
0.0
 30
0.0
  0
XRECORD
  5
165D
102
{ACAD_REACTORS
330
1640
102
}
330
1640
100
AcDbXrecord
 10
0.0
 20
0.0
 30
0.0
  0
XRECORD
  5
165E
102
{ACAD_REACTORS
330
1640
102
}
330
1640
100
AcDbXrecord
 10
0.0
 20
0.0
 30
0.0
  0
XRECORD
  5
165B
102
{ACAD_REACTORS
330
1640
102
}
330
1640
100
AcDbXrecord
 10
0.0
 20
0.0
 30
0.0
  0
XRECORD
  5
1658
102
{ACAD_REACTORS
330
1640
102
}
330
1640
100
AcDbXrecord
340
0
  0
XRECORD
  5
1659
102
{ACAD_REACTORS
330
1640
102
}
330
1640
100
AcDbXrecord
 70
     0
  0
XRECORD
  5
164C
102
{ACAD_REACTORS
330
1640
102
}
330
1640
100
AcDbXrecord
  1
{CA194FAE-AB44-4A88-AA32-EE85AFDFC36D}
  0
XRECORD
  5
560
102
{ACAD_REACTORS
330
540
102
}
330
540
100
AcDbXrecord
  1
2.0.0
  0
ENDSEC
  0
EOF
