  0
SECTION
  2
HEADER
  9
$ACADVER
  1
AC1014
  9
$ACADMAINTVER
 70
     9
  9
$DWGCODEPAGE
  3
ANSI_932
  9
$INSBASE
 10
0.0
 20
0.0
 30
0.0
  9
$EXTMIN
 10
-66.41484262
 20
-31.71713736
 30
-0.00152582
  9
$EXTMAX
 10
134.01289142
 20
61.02264515
 30
0.00000003
  9
$LIMMIN
 10
0.0
 20
0.0
  9
$LIMMAX
 10
420.0
 20
297.0
  9
$ORTHOMODE
 70
     0
  9
$REGENMODE
 70
     1
  9
$FILLMODE
 70
     1
  9
$QTEXTMODE
 70
     0
  9
$MIRRTEXT
 70
     1
  9
$DRAGMODE
 70
     2
  9
$LTSCALE
 40
10.0
  9
$OSMODE
 70
   549
  9
$ATTMODE
 70
     1
  9
$TEXTSIZE
 40
3.0
  9
$TRACEWID
 40
1.0
  9
$TEXTSTYLE
  7
YOKO
  9
$CLAYER
  8
245
  9
$CELTYPE
  6
BYLAYER
  9
$CECOLOR
 62
   256
  9
$CELTSCALE
 40
1.0
  9
$DELOBJ
 70
     1
  9
$DISPSILH
 70
     0
  9
$DIMSCALE
 40
1.0
  9
$DIMASZ
 40
2.23
  9
$DIMEXO
 40
0.5
  9
$DIMDLI
 40
2.5
  9
$DIMRND
 40
0.0
  9
$DIMDLE
 40
0.0
  9
$DIMEXE
 40
1.0
  9
$DIMTP
 40
0.0
  9
$DIMTM
 40
0.0
  9
$DIMTXT
 40
2.8
  9
$DIMCEN
 40
0.0
  9
$DIMTSZ
 40
0.0
  9
$DIMTOL
 70
     0
  9
$DIMLIM
 70
     0
  9
$DIMTIH
 70
     0
  9
$DIMTOH
 70
     0
  9
$DIMSE1
 70
     0
  9
$DIMSE2
 70
     0
  9
$DIMTAD
 70
     3
  9
$DIMZIN
 70
     8
  9
$DIMBLK
  1

  9
$DIMASO
 70
     1
  9
$DIMSHO
 70
     1
  9
$DIMPOST
  1

  9
$DIMAPOST
  1

  9
$DIMALT
 70
     0
  9
$DIMALTD
 70
     2
  9
$DIMALTF
 40
25.4
  9
$DIMLFAC
 40
1.0
  9
$DIMTOFL
 70
     1
  9
$DIMTVP
 40
0.0
  9
$DIMTIX
 70
     1
  9
$DIMSOXD
 70
     0
  9
$DIMSAH
 70
     1
  9
$DIMBLK1
  1
OPEN
  9
$DIMBLK2
  1
OPEN
  9
$DIMSTYLE
  2
BIGT
  9
$DIMCLRD
 70
   256
  9
$DIMCLRE
 70
   256
  9
$DIMCLRT
 70
    40
  9
$DIMTFAC
 40
1.0
  9
$DIMGAP
 40
1.0
  9
$DIMJUST
 70
     0
  9
$DIMSD1
 70
     0
  9
$DIMSD2
 70
     0
  9
$DIMTOLJ
 70
     1
  9
$DIMTZIN
 70
     8
  9
$DIMALTZ
 70
     0
  9
$DIMALTTZ
 70
     0
  9
$DIMFIT
 70
     3
  9
$DIMUPT
 70
     0
  9
$DIMUNIT
 70
     2
  9
$DIMDEC
 70
     3
  9
$DIMTDEC
 70
     3
  9
$DIMALTU
 70
     2
  9
$DIMALTTD
 70
     2
  9
$DIMTXSTY
  7
STANDARD
  9
$DIMAUNIT
 70
     0
  9
$LUNITS
 70
     2
  9
$LUPREC
 70
     3
  9
$SKETCHINC
 40
1.0
  9
$FILLETRAD
 40
1.6
  9
$AUNITS
 70
     0
  9
$AUPREC
 70
     3
  9
$MENU
  1
.
  9
$ELEVATION
 40
0.0
  9
$PELEVATION
 40
0.0
  9
$THICKNESS
 40
0.0
  9
$LIMCHECK
 70
     0
  9
$BLIPMODE
 70
     0
  9
$CHAMFERA
 40
10.0
  9
$CHAMFERB
 40
10.0
  9
$CHAMFERC
 40
0.0
  9
$CHAMFERD
 40
0.0
  9
$SKPOLY
 70
     0
  9
$TDCREATE
 40
2455141.420955579
  9
$TDUPDATE
 40
2455383.420058588
  9
$TDINDWG
 40
0.0035266667
  9
$TDUSRTIMER
 40
0.0035266667
  9
$USRTIMER
 70
     1
  9
$ANGBASE
 50
0.0
  9
$ANGDIR
 70
     0
  9
$PDMODE
 70
     1
  9
$PDSIZE
 40
-5.0
  9
$PLINEWID
 40
0.0
  9
$COORDS
 70
     0
  9
$SPLFRAME
 70
     0
  9
$SPLINETYPE
 70
     6
  9
$SPLINESEGS
 70
     8
  9
$ATTDIA
 70
     0
  9
$ATTREQ
 70
     1
  9
$HANDLING
 70
-16383
  9
$HANDSEED
  5
1200
  9
$SURFTAB1
 70
     6
  9
$SURFTAB2
 70
     6
  9
$SURFTYPE
 70
     6
  9
$SURFU
 70
     6
  9
$SURFV
 70
     6
  9
$UCSNAME
  2

  9
$UCSORG
 10
0.0
 20
0.0
 30
0.0
  9
$UCSXDIR
 10
1.0
 20
0.0
 30
0.0
  9
$UCSYDIR
 10
0.0
 20
1.0
 30
0.0
  9
$PUCSNAME
  2

  9
$PUCSORG
 10
0.0
 20
0.0
 30
0.0
  9
$PUCSXDIR
 10
1.0
 20
0.0
 30
0.0
  9
$PUCSYDIR
 10
0.0
 20
1.0
 30
0.0
  9
$USERI1
 70
     1
  9
$USERI2
 70
     0
  9
$USERI3
 70
     0
  9
$USERI4
 70
     0
  9
$USERI5
 70
     0
  9
$USERR1
 40
0.0
  9
$USERR2
 40
0.0
  9
$USERR3
 40
0.0
  9
$USERR4
 40
0.0
  9
$USERR5
 40
0.0
  9
$WORLDVIEW
 70
     1
  9
$SHADEDGE
 70
     3
  9
$SHADEDIF
 70
    70
  9
$TILEMODE
 70
     1
  9
$MAXACTVP
 70
    16
  9
$PINSBASE
 10
0.0
 20
0.0
 30
0.0
  9
$PLIMCHECK
 70
     0
  9
$PEXTMIN
 10
1.00000000E+20
 20
1.00000000E+20
 30
1.00000000E+20
  9
$PEXTMAX
 10
-1.00000000E+20
 20
-1.00000000E+20
 30
-1.00000000E+20
  9
$PLIMMIN
 10
0.0
 20
0.0
  9
$PLIMMAX
 10
420.0
 20
297.0
  9
$UNITMODE
 70
     0
  9
$VISRETAIN
 70
     0
  9
$PLINEGEN
 70
     0
  9
$PSLTSCALE
 70
     1
  9
$TREEDEPTH
 70
  3020
  9
$PICKSTYLE
 70
     0
  9
$CMLSTYLE
  2
STANDARD
  9
$CMLJUST
 70
     0
  9
$CMLSCALE
 40
1.0
  9
$PROXYGRAPHICS
 70
     1
  9
$MEASUREMENT
 70
     1
  0
ENDSEC
  0
SECTION
  2
CLASSES
  0
CLASS
  1
XRECORD
  2
AcDbXrecord
  3
AutoCAD 2000
 90
        0
280
     0
281
     0
  0
CLASS
  1
ACDBDICTIONARYWDFLT
  2
AcDbDictionaryWithDefault
  3
AutoCAD 2000
 90
        0
280
     0
281
     0
  0
CLASS
  1
ACDBPLACEHOLDER
  2
AcDbPlaceHolder
  3
AutoCAD 2000
 90
        0
280
     0
281
     0
  0
CLASS
  1
LAYOUT
  2
AcDbLayout
  3
AutoCAD 2000
 90
        0
280
     0
281
     0
  0
CLASS
  1
PLOTSETTINGS
  2
AcDbPlotSettings
  3
AutoCAD 2000
 90
        0
280
     0
281
     0
  0
CLASS
  1
LONG_TRANSACTION
  2
AcDbLongTransaction
  3
AutoCAD 2000
 90
        0
280
     0
281
     0
  0
CLASS
  1
LWPOLYLINE
  2
AcDbPolyline
  3
AutoCAD 2000
 90
        0
280
     0
281
     1
  0
CLASS
  1
HATCH
  2
AcDbHatch
  3
AutoCAD 2000
 90
        0
280
     0
281
     1
  0
CLASS
  1
XRECORD
  2
AcDbXrecord
  3
AutoCAD 2000
 90
        0
280
     0
281
     0
  0
CLASS
  1
LONG_TRANSACTION
  2
AcDbLongTransaction
  3
AutoCAD 2000
 90
        0
280
     0
281
     0
  0
CLASS
  1
LWPOLYLINE
  2
AcDbPolyline
  3
AutoCAD 2000
 90
        0
280
     0
281
     1
  0
CLASS
  1
HATCH
  2
AcDbHatch
  3
AutoCAD 2000
 90
        0
280
     0
281
     1
  0
CLASS
  1
XRECORD
  2
AcDbXrecord
  3
AutoCAD 2000
 90
        0
280
     0
281
     0
  0
ENDSEC
  0
SECTION
  2
TABLES
  0
TABLE
  2
VPORT
  5
8
330
0
100
AcDbSymbolTable
 70
     2
  0
VPORT
  5
11DB
330
8
100
AcDbSymbolTableRecord
100
AcDbViewportTableRecord
  2
*ACTIVE
 70
     0
 10
0.0
 20
0.0
 11
1.0
 21
1.0
 12
33.7990244
 22
14.65275389
 13
0.0
 23
0.0
 14
7.0
 24
7.0
 15
7.0
 25
7.0
 16
0.0
 26
0.0
 36
1.0
 17
0.0
 27
0.0
 37
0.0
 40
138.39422077
 41
1.45595855
 42
50.0
 43
0.0
 44
0.0
 50
0.0
 51
0.0
 71
     0
 72
  2000
 73
     1
 74
     0
 75
     0
 76
     0
 77
     0
 78
     0
  0
ENDTAB
  0
TABLE
  2
LTYPE
  5
5
330
0
100
AcDbSymbolTable
 70
     4
  0
LTYPE
  5
14
330
5
100
AcDbSymbolTableRecord
100
AcDbLinetypeTableRecord
  2
BYBLOCK
 70
     0
  3

 72
    65
 73
     0
 40
0.0
  0
LTYPE
  5
15
330
5
100
AcDbSymbolTableRecord
100
AcDbLinetypeTableRecord
  2
BYLAYER
 70
     0
  3

 72
    65
 73
     0
 40
0.0
  0
LTYPE
  5
16
330
5
100
AcDbSymbolTableRecord
100
AcDbLinetypeTableRecord
  2
CONTINUOUS
 70
     0
  3
Solid line
 72
    65
 73
     0
 40
0.0
  0
LTYPE
  5
258
330
5
100
AcDbSymbolTableRecord
100
AcDbLinetypeTableRecord
  2
CENTER2
 70
     0
  3
___ _ ___ _ ___ _ ___ _ ___ _ ___ _ ___ _ ___ _
 72
    65
 73
     4
 40
1.125
 49
0.75
 74
     0
 49
-0.125
 74
     0
 49
0.125
 74
     0
 49
-0.125
 74
     0
  0
LTYPE
  5
25C
330
5
100
AcDbSymbolTableRecord
100
AcDbLinetypeTableRecord
  2
HIDDEN2
 70
     0
  3
_ _ _ _ _ _ _ _ _ _ _ _ _ _ _ _ _ _ _ _ _ _ _ _
 72
    65
 73
     2
 40
0.1875
 49
0.125
 74
     0
 49
-0.0625
 74
     0
  0
LTYPE
  5
25D
330
5
100
AcDbSymbolTableRecord
100
AcDbLinetypeTableRecord
  2
PHANTOM2
 70
     0
  3
___ _ _ ___ _ _ ___ _ _ ___ _ _ ___ _ _ ___ _ _
 72
    65
 73
     6
 40
1.25
 49
0.625
 74
     0
 49
-0.125
 74
     0
 49
0.125
 74
     0
 49
-0.125
 74
     0
 49
0.125
 74
     0
 49
-0.125
 74
     0
  0
ENDTAB
  0
TABLE
  2
LAYER
  5
2
330
0
100
AcDbSymbolTable
 70
    11
  0
LAYER
  5
F
330
2
100
AcDbSymbolTableRecord
100
AcDbLayerTableRecord
  2
0
 70
     0
 62
     7
  6
CONTINUOUS
  0
LAYER
  5
1AA
330
2
100
AcDbSymbolTableRecord
100
AcDbLayerTableRecord
  2
240
 70
     0
 62
     4
  6
CONTINUOUS
  0
LAYER
  5
1AB
330
2
100
AcDbSymbolTableRecord
100
AcDbLayerTableRecord
  2
241
 70
     0
 62
   211
  6
CONTINUOUS
  0
LAYER
  5
1AF
330
2
100
AcDbSymbolTableRecord
100
AcDbLayerTableRecord
  2
245
 70
     0
 62
     2
  6
CENTER2
  0
LAYER
  5
21A
330
2
100
AcDbSymbolTableRecord
100
AcDbLayerTableRecord
  2
246
 70
     0
 62
     3
  6
PHANTOM2
  0
LAYER
  5
21E
330
2
100
AcDbSymbolTableRecord
100
AcDbLayerTableRecord
  2
250
 70
     0
 62
     3
  6
CONTINUOUS
  0
LAYER
  5
5C4
330
2
100
AcDbSymbolTableRecord
100
AcDbLayerTableRecord
  2
DEFPOINTS
 70
     0
 62
     7
  6
CONTINUOUS
  0
ENDTAB
  0
TABLE
  2
STYLE
  5
3
330
0
100
AcDbSymbolTable
 70
     2
  0
STYLE
  5
10
330
3
100
AcDbSymbolTableRecord
100
AcDbTextStyleTableRecord
  2
STANDARD
 70
     0
 40
0.0
 41
1.0
 50
0.0
 71
     0
 42
3.0
  3
romans.shx
  4
BIGFONT.SHX
  0
STYLE
  5
339
330
3
100
AcDbSymbolTableRecord
100
AcDbTextStyleTableRecord
  2
YOKO
 70
     0
 40
0.0
 41
1.0
 50
0.0
 71
     0
 42
3.0
  3
romans.shx
  4
extfont.shx
  0
ENDTAB
  0
TABLE
  2
VIEW
  5
6
330
0
100
AcDbSymbolTable
 70
     0
  0
ENDTAB
  0
TABLE
  2
UCS
  5
7
330
0
100
AcDbSymbolTable
 70
     0
  0
ENDTAB
  0
TABLE
  2
APPID
  5
9
330
0
100
AcDbSymbolTable
 70
     9
  0
APPID
  5
11
330
9
100
AcDbSymbolTableRecord
100
AcDbRegAppTableRecord
  2
ACAD
 70
     0
  0
APPID
  5
1B1
330
9
100
AcDbSymbolTableRecord
100
AcDbRegAppTableRecord
  2
GLOBAL
 70
     0
  0
APPID
  5
2A4
330
9
100
AcDbSymbolTableRecord
100
AcDbRegAppTableRecord
  2
DETAIL
 70
     0
  0
APPID
  5
5FD
330
9
100
AcDbSymbolTableRecord
100
AcDbRegAppTableRecord
  2
GRPNAME
 70
     0
  0
APPID
  5
5FE
330
9
100
AcDbSymbolTableRecord
100
AcDbRegAppTableRecord
  2
GPARA
 70
     0
  0
APPID
  5
6C4
330
9
100
AcDbSymbolTableRecord
100
AcDbRegAppTableRecord
  2
DCO15
 70
     0
  0
APPID
  5
6C5
330
9
100
AcDbSymbolTableRecord
100
AcDbRegAppTableRecord
  2
ITEMNAME
 70
     0
  0
APPID
  5
6C6
330
9
100
AcDbSymbolTableRecord
100
AcDbRegAppTableRecord
  2
GRADE_0
 70
     0
  0
APPID
  5
DF5
330
9
100
AcDbSymbolTableRecord
100
AcDbRegAppTableRecord
  2
CONTENTBLOCKICON
 70
     0
  0
ENDTAB
  0
TABLE
  2
DIMSTYLE
  5
A
330
0
100
AcDbSymbolTable
 70
     4
  0
DIMSTYLE
105
725
102
{ACAD_REACTORS
330
B42
330
B51
330
B60
330
B6F
102
}
330
A
100
AcDbSymbolTableRecord
100
AcDbDimStyleTableRecord
  2
BIGT
 70
     0
  3

  4

  5

  6
OPEN
  7
OPEN
 40
1.0
 41
2.23
 42
0.5
 43
2.5
 44
1.0
 45
0.0
 46
0.0
 47
0.0
 48
0.0
140
2.8
141
0.0
142
0.0
143
25.4
144
1.0
145
0.0
146
1.0
147
1.0
 71
     0
 72
     0
 73
     0
 74
     0
 75
     0
 76
     0
 77
     3
 78
     8
170
     0
171
     2
172
     1
173
     1
174
     1
175
     0
176
   256
177
   256
178
    40
270
     2
271
     3
272
     3
273
     2
274
     2
340
10
275
     0
280
     0
281
     0
282
     0
283
     1
284
     8
285
     0
286
     0
287
     3
288
     0
  0
ENDTAB
  0
TABLE
  2
BLOCK_RECORD
  5
1
330
0
100
AcDbSymbolTable
 70
     8
  0
BLOCK_RECORD
  5
1A
102
{ACAD_XDICTIONARY
360
DF3
102
}
330
1
100
AcDbSymbolTableRecord
100
AcDbBlockTableRecord
  2
*MODEL_SPACE
  0
BLOCK_RECORD
  5
17
102
{ACAD_XDICTIONARY
360
DF1
102
}
330
1
100
AcDbSymbolTableRecord
100
AcDbBlockTableRecord
  2
*PAPER_SPACE
  0
BLOCK_RECORD
  5
594
330
1
100
AcDbSymbolTableRecord
100
AcDbBlockTableRecord
  2
_OPEN
  0
BLOCK_RECORD
  5
6E3
330
1
100
AcDbSymbolTableRecord
100
AcDbBlockTableRecord
  2
矢印なし
  0
BLOCK_RECORD
  5
B43
330
1
100
AcDbSymbolTableRecord
100
AcDbBlockTableRecord
  2
*D2
  0
BLOCK_RECORD
  5
B52
330
1
100
AcDbSymbolTableRecord
100
AcDbBlockTableRecord
  2
*D3
  0
BLOCK_RECORD
  5
B61
330
1
100
AcDbSymbolTableRecord
100
AcDbBlockTableRecord
  2
*D4
  0
BLOCK_RECORD
  5
B70
330
1
100
AcDbSymbolTableRecord
100
AcDbBlockTableRecord
  2
*D5
  0
BLOCK_RECORD
  5
BBC
330
1
100
AcDbSymbolTableRecord
100
AcDbBlockTableRecord
  2
1
1001
CONTENTBLOCKICON
1071
        0
1004
2800000020000000200000000100080000000000000400000000000000000000000000000000000000000000000080000080000000808000800000008000800080800000C0C0C000C0DCC000F0CAA6000020400000206000002080000020A0000020C0000020E00000400000004020000040400000406000004080000040A0
1004
000040C0000040E00000600000006020000060400000606000006080000060A0000060C0000060E00000800000008020000080400000806000008080000080A0000080C0000080E00000A0000000A0200000A0400000A0600000A0800000A0A00000A0C00000A0E00000C0000000C0200000C0400000C0600000C0800000C0
1004
A00000C0C00000C0E00000E0000000E0200000E0400000E0600000E0800000E0A00000E0C00000E0E00040000000400020004000400040006000400080004000A0004000C0004000E00040200000402020004020400040206000402080004020A0004020C0004020E000404000004040200040404000404060004040800040
1004
40A0004040C0004040E00040600000406020004060400040606000406080004060A0004060C0004060E00040800000408020004080400040806000408080004080A0004080C0004080E00040A0000040A0200040A0400040A0600040A0800040A0A00040A0C00040A0E00040C0000040C0200040C0400040C0600040C08000
1004
40C0A00040C0C00040C0E00040E0000040E0200040E0400040E0600040E0800040E0A00040E0C00040E0E00080000000800020008000400080006000800080008000A0008000C0008000E00080200000802020008020400080206000802080008020A0008020C0008020E00080400000804020008040400080406000804080
1004
008040A0008040C0008040E00080600000806020008060400080606000806080008060A0008060C0008060E00080800000808020008080400080806000808080008080A0008080C0008080E00080A0000080A0200080A0400080A0600080A0800080A0A00080A0C00080A0E00080C0000080C0200080C0400080C0600080C0
1004
800080C0A00080C0C00080C0E00080E0000080E0200080E0400080E0600080E0800080E0A00080E0C00080E0E000C0000000C0002000C0004000C0006000C0008000C000A000C000C000C000E000C0200000C0202000C0204000C0206000C0208000C020A000C020C000C020E000C0400000C0402000C0404000C0406000C0
1004
408000C040A000C040C000C040E000C0600000C0602000C0604000C0606000C0608000C060A000C060C000C060E000C0800000C0802000C0804000C0806000C0808000C080A000C080C000C080E000C0A00000C0A02000C0A04000C0A06000C0A08000C0A0A000C0A0C000C0A0E000C0C00000C0C02000C0C04000C0C06000
1004
C0C08000C0C0A000F0FBFF00A4A0A000808080000000FF0000FF000000FFFF00FF000000FF00FF00FFFF0000FFFFFF0000000000000000000000000000000000000000000000000000000000000000000000000000000000000000000000000000000000000000000000000000000000000000000000000000000000000000
1004
00000000000000000000000000000000000000000000000000000000000000000000000000000000000000000000000000000000000000000000000000000000000000000000000000000000000000000000000000000000000000000000000000000000000000000000000000000000000000000000000000000000000000
1004
00000000000000000000000000000000000000000000000000000000000000000000000000000000000000000000000000000000000000000000000000000000000000000000000000000000000000000000000000000000000000000000000000000000000000000000000000000000000000000000000000000000000000
1004
00000000000000000000000000000000000000000000000000000000000000FEFEFBFEFE000000000000000000000000000000000000000000000000FEFEFEFEE7FEE7FEFE00000000000000000000000000000000000000FEFEFEFE0000E7E7E7E7E7E7E7FEFEFEFE000000000000000000000000FEFEFE000000000000E7
1004
E7E7E7E7E7E700000000FEFEFEFEFEFEFEFE00000000FE0000000000000000E7E7E7E7E7E7E700000000000000E700E7E7E7000000FBFEFBFBFBFBFBFBFBFBE7E7E7E7E7E7E7FBFBFBFBFBFBFBE7FBE7E7E7FB000000FEFEFE000000000000E7E7E7E7E7E7E70000000000FEFEFEFEFEE7E700000000000000FEFEFEFE0000
1004
E7E7E7E7E7E7E700FEFEFEFE000000000000000000000000000000000000FEFEFEFEE7FEE7E7E7FE00000000000000000000000000000000000000000000000000FEFEFBFEFE000000000000000000000000000000000000000000000000000000000000000000000000000000000000000000000000000000000000000000
1004
00000000000000000000000000000000000000000000000000000000000000000000000000000000000000000000000000000000000000000000000000000000000000000000000000000000000000000000000000000000000000000000000000000000000000000000000000000000000000000000000000000000000000
1004
00000000000000000000000000000000000000000000000000000000000000000000000000000000000000000000000000000000000000000000000000000000000000000000000000000000000000000000000000000000000000000000000000000000000000000000000000000000000000000000000000000000000000
1004
0000000000000000000000000000000000000000000000000000000000000000000000000000000000000000000000000000000000000000
  0
ENDTAB
  0
ENDSEC
  0
SECTION
  2
BLOCKS
  0
BLOCK
  5
1B
330
1A
100
AcDbEntity
  8
0
100
AcDbBlockBegin
  2
*MODEL_SPACE
 70
     0
 10
0.0
 20
0.0
 30
0.0
  3
*MODEL_SPACE
  1

  0
ENDBLK
  5
1C
330
1A
100
AcDbEntity
  8
0
100
AcDbBlockEnd
  0
BLOCK
  5
18
330
17
100
AcDbEntity
 67
     1
  8
0
100
AcDbBlockBegin
  2
*PAPER_SPACE
 70
     0
 10
0.0
 20
0.0
 30
0.0
  3
*PAPER_SPACE
  1

  0
ENDBLK
  5
19
330
17
100
AcDbEntity
 67
     1
  8
0
100
AcDbBlockEnd
  0
BLOCK
  5
598
330
594
100
AcDbEntity
  8
0
100
AcDbBlockBegin
  2
_OPEN
 70
     0
 10
0.0
 20
0.0
 30
0.0
  3
_OPEN
  1

  0
LINE
  5
595
330
594
100
AcDbEntity
  8
0
  6
BYBLOCK
 62
     0
100
AcDbLine
 10
-1.0
 20
0.16666667
 30
0.0
 11
0.0
 21
0.0
 31
0.0
  0
LINE
  5
596
330
594
100
AcDbEntity
  8
0
  6
BYBLOCK
 62
     0
100
AcDbLine
 10
-1.0
 20
-0.16666667
 30
0.0
 11
0.0
 21
0.0
 31
0.0
  0
LINE
  5
597
330
594
100
AcDbEntity
  8
0
  6
BYBLOCK
 62
     0
100
AcDbLine
 10
0.0
 20
0.0
 30
0.0
 11
-1.0
 21
0.0
 31
0.0
  0
ENDBLK
  5
599
330
594
100
AcDbEntity
  8
0
100
AcDbBlockEnd
  0
BLOCK
  5
6E4
330
6E3
100
AcDbEntity
  8
0
100
AcDbBlockBegin
  2
矢印なし
 70
     0
 10
0.0
 20
0.0
 30
0.0
  3
矢印なし
  1

  0
ENDBLK
  5
6E5
330
6E3
100
AcDbEntity
  8
0
100
AcDbBlockEnd
  0
BLOCK
  5
B4D
330
B43
100
AcDbEntity
  8
0
100
AcDbBlockBegin
  2
*D2
 70
     1
 10
0.0
 20
0.0
 30
0.0
  3
*D2
  1

  0
LINE
  5
BB3
330
B43
100
AcDbEntity
  8
250
  6
CONTINUOUS
100
AcDbLine
 10
120.5
 20
-10.0
 30
0.0
 11
134.0
 21
-10.0
 31
0.0
  0
LINE
  5
BB4
330
B43
100
AcDbEntity
  8
250
  6
CONTINUOUS
100
AcDbLine
 10
120.5
 20
10.0
 30
0.0
 11
134.0
 21
10.0
 31
0.0
  0
LINE
  5
BB5
330
B43
100
AcDbEntity
  8
250
  6
CONTINUOUS
100
AcDbLine
 10
133.0
 20
-7.77
 30
0.0
 11
133.0
 21
7.77
 31
0.0
  0
INSERT
  5
BB6
330
B43
100
AcDbEntity
  8
250
  6
CONTINUOUS
100
AcDbBlockReference
  2
_OPEN
 10
133.0
 20
-10.0
 30
0.0
 41
2.23
 42
2.23
 43
2.23
 50
270.0
  0
INSERT
  5
BB7
330
B43
100
AcDbEntity
  8
250
  6
CONTINUOUS
100
AcDbBlockReference
  2
_OPEN
 10
133.0
 20
10.0
 30
0.0
 41
2.23
 42
2.23
 43
2.23
 50
90.0
  0
MTEXT
  5
BB8
330
B43
100
AcDbEntity
  8
250
  6
CONTINUOUS
 62
    40
100
AcDbMText
 10
130.6
 20
0.0
 30
0.0
 40
2.8
 41
0.0
 71
     5
 72
     1
  1
\A1;{\H2.8;\U+2205}20
 11
0.0
 21
1.0
 31
0.0
1001
ACAD
1000
MTEXTBEGIN
1070
    73
1070
     1
1070
    44
1040
1.0
1070
    74
1070
     0
1000
MTEXTEND
1000
MTEXTBEGIN
1070
    73
1070
     1
1070
    44
1040
1.0
1070
    74
1070
     0
1000
MTEXTEND
  0
POINT
  5
BB9
330
B43
100
AcDbEntity
  8
DEFPOINTS
  6
CONTINUOUS
 62
     0
100
AcDbPoint
 10
120.0
 20
-10.0
 30
0.0
  0
POINT
  5
BBA
330
B43
100
AcDbEntity
  8
DEFPOINTS
  6
CONTINUOUS
 62
     0
100
AcDbPoint
 10
120.0
 20
10.0
 30
0.0
  0
POINT
  5
BBB
330
B43
100
AcDbEntity
  8
DEFPOINTS
  6
CONTINUOUS
 62
     0
100
AcDbPoint
 10
133.0
 20
10.0
 30
0.0
  0
ENDBLK
  5
B4E
330
B43
100
AcDbEntity
  8
0
100
AcDbBlockEnd
  0
BLOCK
  5
B5C
330
B52
100
AcDbEntity
  8
0
100
AcDbBlockBegin
  2
*D3
 70
     1
 10
0.0
 20
0.0
 30
0.0
  3
*D3
  1

  0
LINE
  5
BA1
330
B52
100
AcDbEntity
  8
250
  6
CONTINUOUS
100
AcDbLine
 10
112.0
 20
10.5
 30
0.0
 11
112.0
 21
29.0
 31
0.0
  0
LINE
  5
BA2
330
B52
100
AcDbEntity
  8
250
  6
CONTINUOUS
100
AcDbLine
 10
120.0
 20
10.5
 30
0.0
 11
120.0
 21
29.0
 31
0.0
  0
LINE
  5
BA3
330
B52
100
AcDbEntity
  8
250
  6
CONTINUOUS
100
AcDbLine
 10
114.23
 20
28.0
 30
0.0
 11
117.77
 21
28.0
 31
0.0
  0
INSERT
  5
BA4
330
B52
100
AcDbEntity
  8
250
  6
CONTINUOUS
100
AcDbBlockReference
  2
_OPEN
 10
112.0
 20
28.0
 30
0.0
 41
2.23
 42
2.23
 43
2.23
 50
180.0
  0
INSERT
  5
BA5
330
B52
100
AcDbEntity
  8
250
  6
CONTINUOUS
100
AcDbBlockReference
  2
_OPEN
 10
120.0
 20
28.0
 30
0.0
 41
2.23
 42
2.23
 43
2.23
  0
MTEXT
  5
BA6
330
B52
100
AcDbEntity
  8
250
  6
CONTINUOUS
 62
    40
100
AcDbMText
 10
116.0
 20
30.4
 30
0.0
 40
2.8
 41
0.0
 71
     5
 72
     1
  1
\A1;8
1001
ACAD
1000
MTEXTBEGIN
1070
    73
1070
     1
1070
    44
1040
1.0
1070
    74
1070
     0
1000
MTEXTEND
1000
MTEXTBEGIN
1070
    73
1070
     1
1070
    44
1040
1.0
1070
    74
1070
     0
1000
MTEXTEND
  0
POINT
  5
BA7
330
B52
100
AcDbEntity
  8
DEFPOINTS
  6
CONTINUOUS
 62
     0
100
AcDbPoint
 10
112.0
 20
10.0
 30
0.0
  0
POINT
  5
BA8
330
B52
100
AcDbEntity
  8
DEFPOINTS
  6
CONTINUOUS
 62
     0
100
AcDbPoint
 10
120.0
 20
10.0
 30
0.0
  0
POINT
  5
BA9
330
B52
100
AcDbEntity
  8
DEFPOINTS
  6
CONTINUOUS
 62
     0
100
AcDbPoint
 10
120.0
 20
28.0
 30
0.0
  0
ENDBLK
  5
B5D
330
B52
100
AcDbEntity
  8
0
100
AcDbBlockEnd
  0
BLOCK
  5
B6B
330
B61
100
AcDbEntity
  8
0
100
AcDbBlockBegin
  2
*D4
 70
     1
 10
0.0
 20
0.0
 30
0.0
  3
*D4
  1

  0
LINE
  5
BAA
330
B61
100
AcDbEntity
  8
250
  6
CONTINUOUS
100
AcDbLine
 10
90.0
 20
10.01216156
 30
0.0
 11
90.0
 21
36.0
 31
0.0
  0
LINE
  5
BAB
330
B61
100
AcDbEntity
  8
250
  6
CONTINUOUS
100
AcDbLine
 10
120.0
 20
10.5
 30
0.0
 11
120.0
 21
36.0
 31
0.0
  0
LINE
  5
BAC
330
B61
100
AcDbEntity
  8
250
  6
CONTINUOUS
100
AcDbLine
 10
92.23
 20
35.0
 30
0.0
 11
117.77
 21
35.0
 31
0.0
  0
INSERT
  5
BAD
330
B61
100
AcDbEntity
  8
250
  6
CONTINUOUS
100
AcDbBlockReference
  2
_OPEN
 10
90.0
 20
35.0
 30
0.0
 41
2.23
 42
2.23
 43
2.23
 50
180.0
  0
INSERT
  5
BAE
330
B61
100
AcDbEntity
  8
250
  6
CONTINUOUS
100
AcDbBlockReference
  2
_OPEN
 10
120.0
 20
35.0
 30
0.0
 41
2.23
 42
2.23
 43
2.23
  0
MTEXT
  5
BAF
330
B61
100
AcDbEntity
  8
250
  6
CONTINUOUS
 62
    40
100
AcDbMText
 10
105.0
 20
37.4
 30
0.0
 40
2.8
 41
0.0
 71
     5
 72
     1
  1
\A1;30
1001
ACAD
1000
MTEXTBEGIN
1070
    73
1070
     1
1070
    44
1040
1.0
1070
    74
1070
     0
1000
MTEXTEND
1000
MTEXTBEGIN
1070
    73
1070
     1
1070
    44
1040
1.0
1070
    74
1070
     0
1000
MTEXTEND
  0
POINT
  5
BB0
330
B61
100
AcDbEntity
  8
DEFPOINTS
  6
CONTINUOUS
 62
     0
100
AcDbPoint
 10
90.0
 20
9.51216156
 30
0.0
  0
POINT
  5
BB1
330
B61
100
AcDbEntity
  8
DEFPOINTS
  6
CONTINUOUS
 62
     0
100
AcDbPoint
 10
120.0
 20
10.0
 30
0.0
  0
POINT
  5
BB2
330
B61
100
AcDbEntity
  8
DEFPOINTS
  6
CONTINUOUS
 62
     0
100
AcDbPoint
 10
120.0
 20
35.0
 30
0.0
  0
ENDBLK
  5
B6C
330
B61
100
AcDbEntity
  8
0
100
AcDbBlockEnd
  0
BLOCK
  5
B7A
330
B70
100
AcDbEntity
  8
0
100
AcDbBlockBegin
  2
*D5
 70
     1
 10
0.0
 20
0.0
 30
0.0
  3
*D5
  1

  0
LINE
  5
B98
330
B70
100
AcDbEntity
  8
250
  6
CONTINUOUS
100
AcDbLine
 10
0.0
 20
22.725
 30
0.0
 11
0.0
 21
43.0
 31
0.0
  0
LINE
  5
B99
330
B70
100
AcDbEntity
  8
250
  6
CONTINUOUS
100
AcDbLine
 10
120.0
 20
10.5
 30
0.0
 11
120.0
 21
43.0
 31
0.0
  0
LINE
  5
B9A
330
B70
100
AcDbEntity
  8
250
  6
CONTINUOUS
100
AcDbLine
 10
2.23
 20
42.0
 30
0.0
 11
117.77
 21
42.0
 31
0.0
  0
INSERT
  5
B9B
330
B70
100
AcDbEntity
  8
250
  6
CONTINUOUS
100
AcDbBlockReference
  2
_OPEN
 10
0.0
 20
42.0
 30
0.0
 41
2.23
 42
2.23
 43
2.23
 50
180.0
  0
INSERT
  5
B9C
330
B70
100
AcDbEntity
  8
250
  6
CONTINUOUS
100
AcDbBlockReference
  2
_OPEN
 10
120.0
 20
42.0
 30
0.0
 41
2.23
 42
2.23
 43
2.23
  0
MTEXT
  5
B9D
330
B70
100
AcDbEntity
  8
250
  6
CONTINUOUS
 62
    40
100
AcDbMText
 10
60.0
 20
44.4
 30
0.0
 40
2.8
 41
0.0
 71
     5
 72
     1
  1
\A1;120
1001
ACAD
1000
MTEXTBEGIN
1070
    73
1070
     1
1070
    44
1040
1.0
1070
    74
1070
     0
1000
MTEXTEND
1000
MTEXTBEGIN
1070
    73
1070
     1
1070
    44
1040
1.0
1070
    74
1070
     0
1000
MTEXTEND
  0
POINT
  5
B9E
330
B70
100
AcDbEntity
  8
DEFPOINTS
  6
CONTINUOUS
 62
     0
100
AcDbPoint
 10
0.0
 20
22.225
 30
0.0
  0
POINT
  5
B9F
330
B70
100
AcDbEntity
  8
DEFPOINTS
  6
CONTINUOUS
 62
     0
100
AcDbPoint
 10
120.0
 20
10.0
 30
0.0
  0
POINT
  5
BA0
330
B70
100
AcDbEntity
  8
DEFPOINTS
  6
CONTINUOUS
 62
     0
100
AcDbPoint
 10
120.0
 20
42.0
 30
0.0
  0
ENDBLK
  5
B7B
330
B70
100
AcDbEntity
  8
0
100
AcDbBlockEnd
  0
BLOCK
  5
BBD
330
BBC
100
AcDbEntity
  8
0
100
AcDbBlockBegin
  2
1
 70
     0
 10
0.0
 20
0.0
 30
0.0
  3
1
  1

  0
LINE
  5
1082
330
BBC
100
AcDbEntity
  8
240
  6
CONTINUOUS
100
AcDbLine
 10
21.6
 20
31.5
 30
0.0
 11
26.0
 21
31.5
 31
0.0
  0
LINE
  5
1083
330
BBC
100
AcDbEntity
  8
240
  6
CONTINUOUS
100
AcDbLine
 10
21.6
 20
-31.5
 30
0.0
 11
26.0
 21
-31.5
 31
0.0
  0
LINE
  5
1084
330
BBC
100
AcDbEntity
  8
245
100
AcDbLine
 10
121.0
 20
0.0
 30
0.0
 11
-66.4
 21
0.0
 31
0.0
  0
LINE
  5
1085
330
BBC
100
AcDbEntity
  8
241
  6
HIDDEN2
100
AcDbLine
 10
23.0
 20
22.5
 30
0.0
 11
23.0
 21
31.5
 31
0.0
  0
LINE
  5
1086
330
BBC
100
AcDbEntity
  8
240
  6
CONTINUOUS
100
AcDbLine
 10
21.6
 20
31.5
 30
0.0
 11
18.71324865
 21
26.5
 31
0.0
  0
LINE
  5
1087
330
BBC
100
AcDbEntity
  8
240
  6
CONTINUOUS
100
AcDbLine
 10
1.0
 20
22.225
 30
0.0
 11
1.0
 21
30.5
 31
0.0
  0
LINE
  5
1088
330
BBC
100
AcDbEntity
  8
240
  6
CONTINUOUS
100
AcDbLine
 10
11.6
 20
31.5
 30
0.0
 11
14.48675135
 21
26.5
 31
0.0
  0
LINE
  5
1089
330
BBC
100
AcDbEntity
  8
241
  6
CONTINUOUS
100
AcDbLine
 10
11.6
 20
31.5
 30
0.0
 11
11.6
 21
0.0
 31
0.0
  0
LINE
  5
108A
330
BBC
100
AcDbEntity
  8
241
  6
CONTINUOUS
100
AcDbLine
 10
21.6
 20
0.0
 30
0.0
 11
21.6
 21
31.5
 31
0.0
  0
LINE
  5
108B
330
BBC
100
AcDbEntity
  8
245
  6
CENTER2
100
AcDbLine
 10
16.6
 20
-31.5
 30
0.0
 11
16.6
 21
31.5
 31
0.0
  0
LINE
  5
108C
330
BBC
100
AcDbEntity
  8
240
  6
CONTINUOUS
100
AcDbLine
 10
0.0
 20
-22.225
 30
0.0
 11
-64.03089103
 21
-12.88716173
 31
0.0
  0
LINE
  5
108D
330
BBC
100
AcDbEntity
  8
240
  6
CONTINUOUS
100
AcDbLine
 10
0.0
 20
22.225
 30
0.0
 11
-64.03089103
 21
12.88716173
 31
0.0
  0
LINE
  5
108E
330
BBC
100
AcDbEntity
  8
240
  6
CONTINUOUS
100
AcDbLine
 10
-65.4
 20
11.30390896
 30
0.0
 11
-65.4
 21
0.0
 31
0.0
  0
LINE
  5
108F
330
BBC
100
AcDbEntity
  8
240
  6
CONTINUOUS
100
AcDbLine
 10
-65.4
 20
-11.30390896
 30
0.0
 11
-65.4
 21
0.0
 31
0.0
  0
ARC
  5
1090
330
BBC
100
AcDbEntity
  8
240
  6
CONTINUOUS
100
AcDbCircle
 10
-63.8
 20
-11.30390896
 30
0.0
 40
1.6
100
AcDbArc
 50
180.0
 51
261.70285503
  0
ARC
  5
1091
330
BBC
100
AcDbEntity
  8
240
  6
CONTINUOUS
100
AcDbCircle
 10
-63.8
 20
11.30390896
 30
0.0
 40
1.6
100
AcDbArc
 50
98.29714497
 51
180.0
  0
LINE
  5
1092
330
BBC
100
AcDbEntity
  8
241
  6
CONTINUOUS
100
AcDbLine
 10
0.0
 20
-22.225
 30
0.0
 11
0.0
 21
0.0
 31
0.0
  0
LINE
  5
1093
330
BBC
100
AcDbEntity
  8
241
100
AcDbLine
 10
1.0
 20
0.0
 30
0.0
 11
1.0
 21
-22.225
 31
0.0
  0
LINE
  5
1094
330
BBC
100
AcDbEntity
  8
241
  6
CONTINUOUS
100
AcDbLine
 10
11.6
 20
-31.5
 30
0.0
 11
11.6
 21
0.0
 31
0.0
  0
LINE
  5
1095
330
BBC
100
AcDbEntity
  8
241
  6
CONTINUOUS
100
AcDbLine
 10
21.6
 20
0.0
 30
0.0
 11
21.6
 21
-31.5
 31
0.0
  0
LINE
  5
1096
330
BBC
100
AcDbEntity
  8
241
  6
CONTINUOUS
100
AcDbLine
 10
18.71324865
 20
-26.5
 30
0.0
 11
18.71324865
 21
0.0
 31
0.0
  0
LINE
  5
1097
330
BBC
100
AcDbEntity
  8
241
  6
CONTINUOUS
100
AcDbLine
 10
14.48675135
 20
-26.5
 30
0.0
 11
14.48675135
 21
0.0
 31
0.0
  0
LINE
  5
1098
330
BBC
100
AcDbEntity
  8
241
  6
HIDDEN2
100
AcDbLine
 10
23.0
 20
-22.5
 30
0.0
 11
1.0
 21
-22.5
 31
0.0
  0
LINE
  5
1099
330
BBC
100
AcDbEntity
  8
240
  6
CONTINUOUS
100
AcDbLine
 10
2.0
 20
-31.5
 30
0.0
 11
11.6
 21
-31.5
 31
0.0
  0
LINE
  5
109A
330
BBC
100
AcDbEntity
  8
240
  6
CONTINUOUS
100
AcDbLine
 10
1.0
 20
-22.225
 30
0.0
 11
1.0
 21
-30.5
 31
0.0
  0
ARC
  5
109B
330
BBC
100
AcDbEntity
  8
240
  6
CONTINUOUS
100
AcDbCircle
 10
2.0
 20
-30.5
 30
0.0
 40
1.0
100
AcDbArc
 50
180.0
 51
270.0
  0
LINE
  5
109C
330
BBC
100
AcDbEntity
  8
240
100
AcDbLine
 10
0.0
 20
-22.225
 30
0.0
 11
1.0
 21
-22.225
 31
0.0
  0
LINE
  5
109D
330
BBC
100
AcDbEntity
  8
240
  6
CONTINUOUS
100
AcDbLine
 10
18.71324865
 20
-26.5
 30
0.0
 11
14.48675135
 21
-26.5
 31
0.0
  0
LINE
  5
109E
330
BBC
100
AcDbEntity
  8
240
  6
CONTINUOUS
100
AcDbLine
 10
14.48675135
 20
-26.5
 30
0.0
 11
11.6
 21
-31.5
 31
0.0
  0
LINE
  5
109F
330
BBC
100
AcDbEntity
  8
240
  6
CONTINUOUS
100
AcDbLine
 10
18.71324865
 20
-26.5
 30
0.0
 11
21.6
 21
-31.5
 31
0.0
  0
LINE
  5
10A0
330
BBC
100
AcDbEntity
  8
241
  6
HIDDEN2
100
AcDbLine
 10
23.0
 20
-22.5
 30
0.0
 11
23.0
 21
-31.5
 31
0.0
  0
LINE
  5
10A1
330
BBC
100
AcDbEntity
  8
241
  6
CONTINUOUS
100
AcDbLine
 10
14.48675135
 20
26.5
 30
0.0
 11
14.48675135
 21
0.0
 31
0.0
  0
LINE
  5
10A2
330
BBC
100
AcDbEntity
  8
241
  6
CONTINUOUS
100
AcDbLine
 10
18.71324865
 20
26.5
 30
0.0
 11
18.71324865
 21
0.0
 31
0.0
  0
LINE
  5
10A3
330
BBC
100
AcDbEntity
  8
241
  6
CONTINUOUS
100
AcDbLine
 10
0.0
 20
22.225
 30
0.0
 11
0.0
 21
0.0
 31
0.0
  0
LINE
  5
10A4
330
BBC
100
AcDbEntity
  8
241
100
AcDbLine
 10
1.0
 20
0.0
 30
0.0
 11
1.0
 21
22.225
 31
0.0
  0
LINE
  5
10A5
330
BBC
100
AcDbEntity
  8
241
  6
HIDDEN2
100
AcDbLine
 10
23.0
 20
22.5
 30
0.0
 11
1.0
 21
22.5
 31
0.0
  0
LINE
  5
10A6
330
BBC
100
AcDbEntity
  8
240
100
AcDbLine
 10
0.0
 20
22.225
 30
0.0
 11
1.0
 21
22.225
 31
0.0
  0
LINE
  5
10A7
330
BBC
100
AcDbEntity
  8
240
  6
CONTINUOUS
100
AcDbLine
 10
18.71324865
 20
26.5
 30
0.0
 11
14.48675135
 21
26.5
 31
0.0
  0
LINE
  5
10A8
330
BBC
100
AcDbEntity
  8
240
  6
CONTINUOUS
100
AcDbLine
 10
2.0
 20
31.5
 30
0.0
 11
11.6
 21
31.5
 31
0.0
  0
ARC
  5
10A9
330
BBC
100
AcDbEntity
  8
240
  6
CONTINUOUS
100
AcDbCircle
 10
2.0
 20
30.5
 30
0.0
 40
1.0
100
AcDbArc
 50
90.0
 51
180.0
  0
LINE
  5
10AA
330
BBC
100
AcDbEntity
  8
241
  6
CONTINUOUS
100
AcDbLine
 10
27.0
 20
0.0
 30
0.0
 11
27.0
 21
30.0
 31
0.0
  0
ARC
  5
10AB
330
BBC
100
AcDbEntity
  8
240
100
AcDbCircle
 10
32.0
 20
30.0
 30
0.0
 40
5.0
100
AcDbArc
 50
179.9999824
 51
254.97062662
  0
LINE
  5
10AC
330
BBC
100
AcDbEntity
  8
240
100
AcDbLine
 10
108.87572518
 20
9.25
 30
0.0
 11
93.95739372
 21
9.25
 31
0.0
  0
LINE
  5
10AD
330
BBC
100
AcDbEntity
  8
240
100
AcDbLine
 10
108.87572518
 20
-9.25
 30
0.0
 11
93.95739372
 21
-9.25
 31
0.0
  0
ARC
  5
10AE
330
BBC
100
AcDbEntity
  8
241
100
AcDbCircle
 10
104.37893004
 20
-2.024089
 30
0.0
 40
3.128930035431663
100
AcDbArc
 50
79.9999824
 51
256.43374474
  0
LINE
  5
10AF
330
BBC
100
AcDbEntity
  8
241
  6
CONTINUOUS
100
AcDbLine
 10
31.21307302
 20
-25.03419632
 30
0.0
 11
31.21307302
 21
0.0
 31
0.0
1001
GRPNAME
1000
PASTMD01
  0
LINE
  5
10B0
330
BBC
100
AcDbEntity
  8
241
  6
CONTINUOUS
100
AcDbLine
 10
32.37202473
 20
-24.72301963
 30
0.0
 11
32.37202473
 21
0.0
 31
0.0
1001
GRPNAME
1000
PASTMD01
  0
LINE
  5
10B1
330
BBC
100
AcDbEntity
  8
241
  6
CONTINUOUS
100
AcDbLine
 10
35.21307302
 20
-23.96020269
 30
0.0
 11
35.21307302
 21
0.0
 31
0.0
1001
GRPNAME
1000
PASTMD01
  0
LINE
  5
10B2
330
BBC
100
AcDbEntity
  8
241
  6
CONTINUOUS
100
AcDbLine
 10
36.37202473
 20
-23.649026
 30
0.0
 11
36.37202473
 21
0.0
 31
0.0
1001
GRPNAME
1000
PASTMD01
  0
LINE
  5
10B3
330
BBC
100
AcDbEntity
  8
240
100
AcDbLine
 10
86.17797648
 20
-10.27620723
 30
0.0
 11
30.70343046
 21
-25.17103454
 31
0.0
  0
LINE
  5
10B4
330
BBC
100
AcDbEntity
  8
241
  6
CONTINUOUS
100
AcDbLine
 10
27.0
 20
0.0
 30
0.0
 11
27.0
 21
-30.0
 31
0.0
  0
ARC
  5
10B5
330
BBC
100
AcDbEntity
  8
240
100
AcDbCircle
 10
32.0
 20
-30.0
 30
0.0
 40
5.0
100
AcDbArc
 50
105.02937338
 51
180.0000176
  0
LINE
  5
10B6
330
BBC
100
AcDbEntity
  8
240
  6
CONTINUOUS
100
AcDbLine
 10
27.0
 20
-30.5
 30
0.0
 11
27.0
 21
-30.0
 31
0.0
  0
ARC
  5
10B7
330
BBC
100
AcDbEntity
  8
240
  6
CONTINUOUS
100
AcDbCircle
 10
26.0
 20
-30.5
 30
0.0
 40
1.0
100
AcDbArc
 50
270.0
 51
0.0
  0
LINE
  5
10B8
330
BBC
100
AcDbEntity
  8
240
100
AcDbLine
 10
86.17797648
 20
10.27620723
 30
0.0
 11
30.70343046
 21
25.17103454
 31
0.0
  0
LINE
  5
10B9
330
BBC
100
AcDbEntity
  8
241
  6
CONTINUOUS
100
AcDbLine
 10
36.37202473
 20
23.649026
 30
0.0
 11
36.37202473
 21
0.0
 31
0.0
1001
GRPNAME
1000
PASTMD01
  0
LINE
  5
10BA
330
BBC
100
AcDbEntity
  8
241
  6
CONTINUOUS
100
AcDbLine
 10
35.21307302
 20
23.96020269
 30
0.0
 11
35.21307302
 21
0.0
 31
0.0
1001
GRPNAME
1000
PASTMD01
  0
LINE
  5
10BB
330
BBC
100
AcDbEntity
  8
241
  6
CONTINUOUS
100
AcDbLine
 10
32.37202473
 20
24.72301963
 30
0.0
 11
32.37202473
 21
0.0
 31
0.0
1001
GRPNAME
1000
PASTMD01
  0
LINE
  5
10BC
330
BBC
100
AcDbEntity
  8
241
  6
CONTINUOUS
100
AcDbLine
 10
31.21307302
 20
25.03419632
 30
0.0
 11
31.21307302
 21
0.0
 31
0.0
1001
GRPNAME
1000
PASTMD01
  0
LINE
  5
10BD
330
BBC
100
AcDbEntity
  8
241
100
AcDbLine
 10
90.0
 20
9.25
 30
0.0
 11
90.0
 21
0.0
 31
0.0
  0
LINE
  5
10BE
330
BBC
100
AcDbEntity
  8
241
100
AcDbLine
 10
90.0
 20
-9.25
 30
0.0
 11
90.0
 21
0.0
 31
0.0
  0
ARC
  5
10BF
330
BBC
100
AcDbEntity
  8
240
100
AcDbCircle
 10
93.95739372
 20
-39.25
 30
0.0
 40
30.0
100
AcDbArc
 50
90.0
 51
105.02935578
  0
ARC
  5
10C0
330
BBC
100
AcDbEntity
  8
240
100
AcDbCircle
 10
93.95739372
 20
39.25
 30
0.0
 40
30.0
100
AcDbArc
 50
254.97064422
 51
270.0
  0
LINE
  5
10C1
330
BBC
100
AcDbEntity
  8
240
100
AcDbLine
 10
119.25
 20
9.39776986
 30
0.0
 11
119.25
 21
1.09735373
 31
0.0
  0
LINE
  5
10C2
330
BBC
100
AcDbEntity
  8
246
100
AcDbLine
 10
120.0
 20
-10.0
 30
0.0
 11
120.0
 21
10.0
 31
0.0
  0
LINE
  5
10C3
330
BBC
100
AcDbEntity
  8
240
100
AcDbLine
 10
120.0
 20
-3.518
 30
0.0
 11
119.25
 21
-3.24502232
 31
0.0
  0
LINE
  5
10C4
330
BBC
100
AcDbEntity
  8
240
100
AcDbLine
 10
119.18414098
 20
1.10896645
 30
0.0
 11
120.0
 21
-3.518
 31
0.0
  0
LINE
  5
10C5
330
BBC
100
AcDbEntity
  8
246
100
AcDbLine
 10
112.0
 20
-10.0
 30
0.0
 11
120.0
 21
-10.0
 31
0.0
  0
LINE
  5
10C6
330
BBC
100
AcDbEntity
  8
241
100
AcDbLine
 10
103.64497901
 20
-5.06571999
 30
0.0
 11
119.25
 21
-8.8312396
 31
0.0
  0
LINE
  5
10C7
330
BBC
100
AcDbEntity
  8
240
100
AcDbLine
 10
119.25
 20
-9.39776986
 30
0.0
 11
119.25
 21
-3.24502232
 31
0.0
  0
LINE
  5
10C8
330
BBC
100
AcDbEntity
  8
240
100
AcDbLine
 10
119.25
 20
-9.39776986
 30
0.0
 11
110.18194299
 21
-9.6
 31
0.0
  0
LINE
  5
10C9
330
BBC
100
AcDbEntity
  8
240
100
AcDbLine
 10
108.87572518
 20
-9.25
 30
0.0
 11
110.18194299
 21
-9.6
 31
0.0
  0
LINE
  5
10CA
330
BBC
100
AcDbEntity
  8
241
100
AcDbLine
 10
110.18194298
 20
2.69629684
 30
0.0
 11
119.18414098
 21
1.10896645
 31
0.0
  0
LINE
  5
10CB
330
BBC
100
AcDbEntity
  8
241
100
AcDbLine
 10
108.92202417
 20
0.51405346
 30
0.0
 11
119.25
 21
-3.24502232
 31
0.0
  0
LINE
  5
10CC
330
BBC
100
AcDbEntity
  8
241
100
AcDbLine
 10
108.83712813
 20
0.36700921
 30
0.0
 11
104.92226303
 21
1.05730555
 31
0.0
  0
LINE
  5
10CD
330
BBC
100
AcDbEntity
  8
241
100
AcDbLine
 10
110.18194298
 20
2.69629684
 30
0.0
 11
108.83712813
 21
0.36700921
 31
0.0
  0
LINE
  5
10CE
330
BBC
100
AcDbEntity
  8
240
100
AcDbLine
 10
119.25
 20
1.09735373
 30
0.0
 11
119.18414098
 21
1.10896645
 31
0.0
  0
LINE
  5
10CF
330
BBC
100
AcDbEntity
  8
246
100
AcDbLine
 10
112.0
 20
10.0
 30
0.0
 11
120.0
 21
10.0
 31
0.0
  0
LINE
  5
10D0
330
BBC
100
AcDbEntity
  8
240
100
AcDbLine
 10
119.25
 20
9.39776986
 30
0.0
 11
110.18194299
 21
9.6
 31
0.0
  0
LINE
  5
10D1
330
BBC
100
AcDbEntity
  8
240
100
AcDbLine
 10
108.87572518
 20
9.25
 30
0.0
 11
110.18194299
 21
9.6
 31
0.0
  0
POLYLINE
  5
10D2
330
BBC
100
AcDbEntity
  8
241
100
AcDb3dPolyline
 66
     1
 10
0.0
 20
0.0
 30
0.0
 70
     8
  0
VERTEX
  5
10D3
330
10D2
100
AcDbEntity
  8
241
100
AcDbVertex
100
AcDb3dPolylineVertex
 10
113.692
 20
6.68055
 30
0.0
 70
    32
  0
VERTEX
  5
10D4
330
10D2
100
AcDbEntity
  8
241
100
AcDbVertex
100
AcDb3dPolylineVertex
 10
113.686
 20
6.64161
 30
0.0
 70
    32
  0
VERTEX
  5
10D5
330
10D2
100
AcDbEntity
  8
241
100
AcDbVertex
100
AcDb3dPolylineVertex
 10
113.68
 20
6.60255
 30
0.0
 70
    32
  0
VERTEX
  5
10D6
330
10D2
100
AcDbEntity
  8
241
100
AcDbVertex
100
AcDb3dPolylineVertex
 10
113.675
 20
6.5634
 30
0.0
 70
    32
  0
VERTEX
  5
10D7
330
10D2
100
AcDbEntity
  8
241
100
AcDbVertex
100
AcDb3dPolylineVertex
 10
113.671
 20
6.52418
 30
0.0
 70
    32
  0
VERTEX
  5
10D8
330
10D2
100
AcDbEntity
  8
241
100
AcDbVertex
100
AcDb3dPolylineVertex
 10
113.668
 20
6.48491
 30
0.0
 70
    32
  0
VERTEX
  5
10D9
330
10D2
100
AcDbEntity
  8
241
100
AcDbVertex
100
AcDb3dPolylineVertex
 10
113.666
 20
6.44562
 30
0.0
 70
    32
  0
VERTEX
  5
10DA
330
10D2
100
AcDbEntity
  8
241
100
AcDbVertex
100
AcDb3dPolylineVertex
 10
113.664
 20
6.40633
 30
0.0
 70
    32
  0
VERTEX
  5
10DB
330
10D2
100
AcDbEntity
  8
241
100
AcDbVertex
100
AcDb3dPolylineVertex
 10
113.663
 20
6.36706
 30
0.0
 70
    32
  0
VERTEX
  5
10DC
330
10D2
100
AcDbEntity
  8
241
100
AcDbVertex
100
AcDb3dPolylineVertex
 10
113.663
 20
6.32784
 30
0.0
 70
    32
  0
VERTEX
  5
10DD
330
10D2
100
AcDbEntity
  8
241
100
AcDbVertex
100
AcDb3dPolylineVertex
 10
113.664
 20
6.28869
 30
0.0
 70
    32
  0
VERTEX
  5
10DE
330
10D2
100
AcDbEntity
  8
241
100
AcDbVertex
100
AcDb3dPolylineVertex
 10
113.666
 20
6.24964
 30
0.0
 70
    32
  0
VERTEX
  5
10DF
330
10D2
100
AcDbEntity
  8
241
100
AcDbVertex
100
AcDb3dPolylineVertex
 10
113.668
 20
6.2107
 30
0.0
 70
    32
  0
VERTEX
  5
10E0
330
10D2
100
AcDbEntity
  8
241
100
AcDbVertex
100
AcDb3dPolylineVertex
 10
113.672
 20
6.1719
 30
0.0
 70
    32
  0
VERTEX
  5
10E1
330
10D2
100
AcDbEntity
  8
241
100
AcDbVertex
100
AcDb3dPolylineVertex
 10
113.676
 20
6.13328
 30
0.0
 70
    32
  0
VERTEX
  5
10E2
330
10D2
100
AcDbEntity
  8
241
100
AcDbVertex
100
AcDb3dPolylineVertex
 10
113.681
 20
6.09484
 30
0.0
 70
    32
  0
VERTEX
  5
10E3
330
10D2
100
AcDbEntity
  8
241
100
AcDbVertex
100
AcDb3dPolylineVertex
 10
113.686
 20
6.05661
 30
0.0
 70
    32
  0
VERTEX
  5
10E4
330
10D2
100
AcDbEntity
  8
241
100
AcDbVertex
100
AcDb3dPolylineVertex
 10
113.693
 20
6.01861
 30
0.0
 70
    32
  0
VERTEX
  5
10E5
330
10D2
100
AcDbEntity
  8
241
100
AcDbVertex
100
AcDb3dPolylineVertex
 10
113.7
 20
5.98087
 30
0.0
 70
    32
  0
VERTEX
  5
10E6
330
10D2
100
AcDbEntity
  8
241
100
AcDbVertex
100
AcDb3dPolylineVertex
 10
113.709
 20
5.94342
 30
0.0
 70
    32
  0
VERTEX
  5
10E7
330
10D2
100
AcDbEntity
  8
241
100
AcDbVertex
100
AcDb3dPolylineVertex
 10
113.717
 20
5.90626
 30
0.0
 70
    32
  0
VERTEX
  5
10E8
330
10D2
100
AcDbEntity
  8
241
100
AcDbVertex
100
AcDb3dPolylineVertex
 10
113.727
 20
5.86944
 30
0.0
 70
    32
  0
VERTEX
  5
10E9
330
10D2
100
AcDbEntity
  8
241
100
AcDbVertex
100
AcDb3dPolylineVertex
 10
113.738
 20
5.83295
 30
0.0
 70
    32
  0
VERTEX
  5
10EA
330
10D2
100
AcDbEntity
  8
241
100
AcDbVertex
100
AcDb3dPolylineVertex
 10
113.749
 20
5.79684
 30
0.0
 70
    32
  0
VERTEX
  5
10EB
330
10D2
100
AcDbEntity
  8
241
100
AcDbVertex
100
AcDb3dPolylineVertex
 10
113.761
 20
5.76112
 30
0.0
 70
    32
  0
VERTEX
  5
10EC
330
10D2
100
AcDbEntity
  8
241
100
AcDbVertex
100
AcDb3dPolylineVertex
 10
113.774
 20
5.72581
 30
0.0
 70
    32
  0
VERTEX
  5
10ED
330
10D2
100
AcDbEntity
  8
241
100
AcDbVertex
100
AcDb3dPolylineVertex
 10
113.787
 20
5.69094
 30
0.0
 70
    32
  0
VERTEX
  5
10EE
330
10D2
100
AcDbEntity
  8
241
100
AcDbVertex
100
AcDb3dPolylineVertex
 10
113.802
 20
5.65652
 30
0.0
 70
    32
  0
VERTEX
  5
10EF
330
10D2
100
AcDbEntity
  8
241
100
AcDbVertex
100
AcDb3dPolylineVertex
 10
113.817
 20
5.62258
 30
0.0
 70
    32
  0
VERTEX
  5
10F0
330
10D2
100
AcDbEntity
  8
241
100
AcDbVertex
100
AcDb3dPolylineVertex
 10
113.833
 20
5.58913
 30
0.0
 70
    32
  0
VERTEX
  5
10F1
330
10D2
100
AcDbEntity
  8
241
100
AcDbVertex
100
AcDb3dPolylineVertex
 10
113.849
 20
5.5562
 30
0.0
 70
    32
  0
VERTEX
  5
10F2
330
10D2
100
AcDbEntity
  8
241
100
AcDbVertex
100
AcDb3dPolylineVertex
 10
113.866
 20
5.5238
 30
0.0
 70
    32
  0
VERTEX
  5
10F3
330
10D2
100
AcDbEntity
  8
241
100
AcDbVertex
100
AcDb3dPolylineVertex
 10
113.884
 20
5.49196
 30
0.0
 70
    32
  0
VERTEX
  5
10F4
330
10D2
100
AcDbEntity
  8
241
100
AcDbVertex
100
AcDb3dPolylineVertex
 10
113.903
 20
5.4607
 30
0.0
 70
    32
  0
VERTEX
  5
10F5
330
10D2
100
AcDbEntity
  8
241
100
AcDbVertex
100
AcDb3dPolylineVertex
 10
113.922
 20
5.43003
 30
0.0
 70
    32
  0
VERTEX
  5
10F6
330
10D2
100
AcDbEntity
  8
241
100
AcDbVertex
100
AcDb3dPolylineVertex
 10
113.942
 20
5.39997
 30
0.0
 70
    32
  0
VERTEX
  5
10F7
330
10D2
100
AcDbEntity
  8
241
100
AcDbVertex
100
AcDb3dPolylineVertex
 10
113.962
 20
5.37054
 30
0.0
 70
    32
  0
VERTEX
  5
10F8
330
10D2
100
AcDbEntity
  8
241
100
AcDbVertex
100
AcDb3dPolylineVertex
 10
113.984
 20
5.34176
 30
0.0
 70
    32
  0
VERTEX
  5
10F9
330
10D2
100
AcDbEntity
  8
241
100
AcDbVertex
100
AcDb3dPolylineVertex
 10
114.005
 20
5.31364
 30
0.0
 70
    32
  0
VERTEX
  5
10FA
330
10D2
100
AcDbEntity
  8
241
100
AcDbVertex
100
AcDb3dPolylineVertex
 10
114.028
 20
5.28621
 30
0.0
 70
    32
  0
VERTEX
  5
10FB
330
10D2
100
AcDbEntity
  8
241
100
AcDbVertex
100
AcDb3dPolylineVertex
 10
114.051
 20
5.25947
 30
0.0
 70
    32
  0
VERTEX
  5
10FC
330
10D2
100
AcDbEntity
  8
241
100
AcDbVertex
100
AcDb3dPolylineVertex
 10
114.074
 20
5.23345
 30
0.0
 70
    32
  0
VERTEX
  5
10FD
330
10D2
100
AcDbEntity
  8
241
100
AcDbVertex
100
AcDb3dPolylineVertex
 10
114.099
 20
5.20816
 30
0.0
 70
    32
  0
VERTEX
  5
10FE
330
10D2
100
AcDbEntity
  8
241
100
AcDbVertex
100
AcDb3dPolylineVertex
 10
114.123
 20
5.18362
 30
0.0
 70
    32
  0
VERTEX
  5
10FF
330
10D2
100
AcDbEntity
  8
241
100
AcDbVertex
100
AcDb3dPolylineVertex
 10
114.149
 20
5.15983
 30
0.0
 70
    32
  0
VERTEX
  5
1100
330
10D2
100
AcDbEntity
  8
241
100
AcDbVertex
100
AcDb3dPolylineVertex
 10
114.174
 20
5.13682
 30
0.0
 70
    32
  0
VERTEX
  5
1101
330
10D2
100
AcDbEntity
  8
241
100
AcDbVertex
100
AcDb3dPolylineVertex
 10
114.201
 20
5.1146
 30
0.0
 70
    32
  0
VERTEX
  5
1102
330
10D2
100
AcDbEntity
  8
241
100
AcDbVertex
100
AcDb3dPolylineVertex
 10
114.228
 20
5.09318
 30
0.0
 70
    32
  0
VERTEX
  5
1103
330
10D2
100
AcDbEntity
  8
241
100
AcDbVertex
100
AcDb3dPolylineVertex
 10
114.255
 20
5.07258
 30
0.0
 70
    32
  0
VERTEX
  5
1104
330
10D2
100
AcDbEntity
  8
241
100
AcDbVertex
100
AcDb3dPolylineVertex
 10
114.283
 20
5.0528
 30
0.0
 70
    32
  0
VERTEX
  5
1105
330
10D2
100
AcDbEntity
  8
241
100
AcDbVertex
100
AcDb3dPolylineVertex
 10
114.311
 20
5.03387
 30
0.0
 70
    32
  0
VERTEX
  5
1106
330
10D2
100
AcDbEntity
  8
241
100
AcDbVertex
100
AcDb3dPolylineVertex
 10
114.339
 20
5.01578
 30
0.0
 70
    32
  0
VERTEX
  5
1107
330
10D2
100
AcDbEntity
  8
241
100
AcDbVertex
100
AcDb3dPolylineVertex
 10
114.368
 20
4.99856
 30
0.0
 70
    32
  0
VERTEX
  5
1108
330
10D2
100
AcDbEntity
  8
241
100
AcDbVertex
100
AcDb3dPolylineVertex
 10
114.398
 20
4.98221
 30
0.0
 70
    32
  0
VERTEX
  5
1109
330
10D2
100
AcDbEntity
  8
241
100
AcDbVertex
100
AcDb3dPolylineVertex
 10
114.428
 20
4.96673
 30
0.0
 70
    32
  0
VERTEX
  5
110A
330
10D2
100
AcDbEntity
  8
241
100
AcDbVertex
100
AcDb3dPolylineVertex
 10
114.458
 20
4.95216
 30
0.0
 70
    32
  0
VERTEX
  5
110B
330
10D2
100
AcDbEntity
  8
241
100
AcDbVertex
100
AcDb3dPolylineVertex
 10
114.488
 20
4.93848
 30
0.0
 70
    32
  0
VERTEX
  5
110C
330
10D2
100
AcDbEntity
  8
241
100
AcDbVertex
100
AcDb3dPolylineVertex
 10
114.519
 20
4.9257
 30
0.0
 70
    32
  0
VERTEX
  5
110D
330
10D2
100
AcDbEntity
  8
241
100
AcDbVertex
100
AcDb3dPolylineVertex
 10
114.55
 20
4.91385
 30
0.0
 70
    32
  0
VERTEX
  5
110E
330
10D2
100
AcDbEntity
  8
241
100
AcDbVertex
100
AcDb3dPolylineVertex
 10
114.582
 20
4.90292
 30
0.0
 70
    32
  0
VERTEX
  5
110F
330
10D2
100
AcDbEntity
  8
241
100
AcDbVertex
100
AcDb3dPolylineVertex
 10
114.613
 20
4.89291
 30
0.0
 70
    32
  0
VERTEX
  5
1110
330
10D2
100
AcDbEntity
  8
241
100
AcDbVertex
100
AcDb3dPolylineVertex
 10
114.645
 20
4.88385
 30
0.0
 70
    32
  0
VERTEX
  5
1111
330
10D2
100
AcDbEntity
  8
241
100
AcDbVertex
100
AcDb3dPolylineVertex
 10
114.677
 20
4.87572
 30
0.0
 70
    32
  0
VERTEX
  5
1112
330
10D2
100
AcDbEntity
  8
241
100
AcDbVertex
100
AcDb3dPolylineVertex
 10
114.71
 20
4.86854
 30
0.0
 70
    32
  0
VERTEX
  5
1113
330
10D2
100
AcDbEntity
  8
241
100
AcDbVertex
100
AcDb3dPolylineVertex
 10
114.742
 20
4.86231
 30
0.0
 70
    32
  0
VERTEX
  5
1114
330
10D2
100
AcDbEntity
  8
241
100
AcDbVertex
100
AcDb3dPolylineVertex
 10
114.775
 20
4.85703
 30
0.0
 70
    32
  0
VERTEX
  5
1115
330
10D2
100
AcDbEntity
  8
241
100
AcDbVertex
100
AcDb3dPolylineVertex
 10
114.808
 20
4.85271
 30
0.0
 70
    32
  0
VERTEX
  5
1116
330
10D2
100
AcDbEntity
  8
241
100
AcDbVertex
100
AcDb3dPolylineVertex
 10
114.841
 20
4.84935
 30
0.0
 70
    32
  0
VERTEX
  5
1117
330
10D2
100
AcDbEntity
  8
241
100
AcDbVertex
100
AcDb3dPolylineVertex
 10
114.874
 20
4.84696
 30
0.0
 70
    32
  0
VERTEX
  5
1118
330
10D2
100
AcDbEntity
  8
241
100
AcDbVertex
100
AcDb3dPolylineVertex
 10
114.907
 20
4.84552
 30
0.0
 70
    32
  0
VERTEX
  5
1119
330
10D2
100
AcDbEntity
  8
241
100
AcDbVertex
100
AcDb3dPolylineVertex
 10
114.94
 20
4.84505
 30
0.0
 70
    32
  0
VERTEX
  5
111A
330
10D2
100
AcDbEntity
  8
241
100
AcDbVertex
100
AcDb3dPolylineVertex
 10
114.974
 20
4.84555
 30
0.0
 70
    32
  0
VERTEX
  5
111B
330
10D2
100
AcDbEntity
  8
241
100
AcDbVertex
100
AcDb3dPolylineVertex
 10
115.007
 20
4.84701
 30
0.0
 70
    32
  0
VERTEX
  5
111C
330
10D2
100
AcDbEntity
  8
241
100
AcDbVertex
100
AcDb3dPolylineVertex
 10
115.04
 20
4.84943
 30
0.0
 70
    32
  0
VERTEX
  5
111D
330
10D2
100
AcDbEntity
  8
241
100
AcDbVertex
100
AcDb3dPolylineVertex
 10
115.074
 20
4.85281
 30
0.0
 70
    32
  0
VERTEX
  5
111E
330
10D2
100
AcDbEntity
  8
241
100
AcDbVertex
100
AcDb3dPolylineVertex
 10
115.107
 20
4.85716
 30
0.0
 70
    32
  0
VERTEX
  5
111F
330
10D2
100
AcDbEntity
  8
241
100
AcDbVertex
100
AcDb3dPolylineVertex
 10
115.14
 20
4.86246
 30
0.0
 70
    32
  0
VERTEX
  5
1120
330
10D2
100
AcDbEntity
  8
241
100
AcDbVertex
100
AcDb3dPolylineVertex
 10
115.173
 20
4.86871
 30
0.0
 70
    32
  0
VERTEX
  5
1121
330
10D2
100
AcDbEntity
  8
241
100
AcDbVertex
100
AcDb3dPolylineVertex
 10
115.207
 20
4.87592
 30
0.0
 70
    32
  0
VERTEX
  5
1122
330
10D2
100
AcDbEntity
  8
241
100
AcDbVertex
100
AcDb3dPolylineVertex
 10
115.24
 20
4.88407
 30
0.0
 70
    32
  0
VERTEX
  5
1123
330
10D2
100
AcDbEntity
  8
241
100
AcDbVertex
100
AcDb3dPolylineVertex
 10
115.272
 20
4.89316
 30
0.0
 70
    32
  0
VERTEX
  5
1124
330
10D2
100
AcDbEntity
  8
241
100
AcDbVertex
100
AcDb3dPolylineVertex
 10
115.305
 20
4.90319
 30
0.0
 70
    32
  0
VERTEX
  5
1125
330
10D2
100
AcDbEntity
  8
241
100
AcDbVertex
100
AcDb3dPolylineVertex
 10
115.338
 20
4.91414
 30
0.0
 70
    32
  0
VERTEX
  5
1126
330
10D2
100
AcDbEntity
  8
241
100
AcDbVertex
100
AcDb3dPolylineVertex
 10
115.37
 20
4.92602
 30
0.0
 70
    32
  0
VERTEX
  5
1127
330
10D2
100
AcDbEntity
  8
241
100
AcDbVertex
100
AcDb3dPolylineVertex
 10
115.402
 20
4.93882
 30
0.0
 70
    32
  0
VERTEX
  5
1128
330
10D2
100
AcDbEntity
  8
241
100
AcDbVertex
100
AcDb3dPolylineVertex
 10
115.434
 20
4.95252
 30
0.0
 70
    32
  0
VERTEX
  5
1129
330
10D2
100
AcDbEntity
  8
241
100
AcDbVertex
100
AcDb3dPolylineVertex
 10
115.466
 20
4.96712
 30
0.0
 70
    32
  0
VERTEX
  5
112A
330
10D2
100
AcDbEntity
  8
241
100
AcDbVertex
100
AcDb3dPolylineVertex
 10
115.497
 20
4.98262
 30
0.0
 70
    32
  0
VERTEX
  5
112B
330
10D2
100
AcDbEntity
  8
241
100
AcDbVertex
100
AcDb3dPolylineVertex
 10
115.528
 20
4.99899
 30
0.0
 70
    32
  0
VERTEX
  5
112C
330
10D2
100
AcDbEntity
  8
241
100
AcDbVertex
100
AcDb3dPolylineVertex
 10
115.559
 20
5.01624
 30
0.0
 70
    32
  0
VERTEX
  5
112D
330
10D2
100
AcDbEntity
  8
241
100
AcDbVertex
100
AcDb3dPolylineVertex
 10
115.589
 20
5.03435
 30
0.0
 70
    32
  0
VERTEX
  5
112E
330
10D2
100
AcDbEntity
  8
241
100
AcDbVertex
100
AcDb3dPolylineVertex
 10
115.619
 20
5.0533
 30
0.0
 70
    32
  0
VERTEX
  5
112F
330
10D2
100
AcDbEntity
  8
241
100
AcDbVertex
100
AcDb3dPolylineVertex
 10
115.649
 20
5.0731
 30
0.0
 70
    32
  0
VERTEX
  5
1130
330
10D2
100
AcDbEntity
  8
241
100
AcDbVertex
100
AcDb3dPolylineVertex
 10
115.679
 20
5.09373
 30
0.0
 70
    32
  0
VERTEX
  5
1131
330
10D2
100
AcDbEntity
  8
241
100
AcDbVertex
100
AcDb3dPolylineVertex
 10
115.708
 20
5.11516
 30
0.0
 70
    32
  0
VERTEX
  5
1132
330
10D2
100
AcDbEntity
  8
241
100
AcDbVertex
100
AcDb3dPolylineVertex
 10
115.736
 20
5.13741
 30
0.0
 70
    32
  0
VERTEX
  5
1133
330
10D2
100
AcDbEntity
  8
241
100
AcDbVertex
100
AcDb3dPolylineVertex
 10
115.764
 20
5.16043
 30
0.0
 70
    32
  0
VERTEX
  5
1134
330
10D2
100
AcDbEntity
  8
241
100
AcDbVertex
100
AcDb3dPolylineVertex
 10
115.792
 20
5.18424
 30
0.0
 70
    32
  0
VERTEX
  5
1135
330
10D2
100
AcDbEntity
  8
241
100
AcDbVertex
100
AcDb3dPolylineVertex
 10
115.819
 20
5.2088
 30
0.0
 70
    32
  0
VERTEX
  5
1136
330
10D2
100
AcDbEntity
  8
241
100
AcDbVertex
100
AcDb3dPolylineVertex
 10
115.846
 20
5.23411
 30
0.0
 70
    32
  0
VERTEX
  5
1137
330
10D2
100
AcDbEntity
  8
241
100
AcDbVertex
100
AcDb3dPolylineVertex
 10
115.872
 20
5.26015
 30
0.0
 70
    32
  0
VERTEX
  5
1138
330
10D2
100
AcDbEntity
  8
241
100
AcDbVertex
100
AcDb3dPolylineVertex
 10
115.898
 20
5.2869
 30
0.0
 70
    32
  0
VERTEX
  5
1139
330
10D2
100
AcDbEntity
  8
241
100
AcDbVertex
100
AcDb3dPolylineVertex
 10
115.923
 20
5.31436
 30
0.0
 70
    32
  0
VERTEX
  5
113A
330
10D2
100
AcDbEntity
  8
241
100
AcDbVertex
100
AcDb3dPolylineVertex
 10
115.948
 20
5.34249
 30
0.0
 70
    32
  0
VERTEX
  5
113B
330
10D2
100
AcDbEntity
  8
241
100
AcDbVertex
100
AcDb3dPolylineVertex
 10
115.972
 20
5.37129
 30
0.0
 70
    32
  0
VERTEX
  5
113C
330
10D2
100
AcDbEntity
  8
241
100
AcDbVertex
100
AcDb3dPolylineVertex
 10
115.995
 20
5.40073
 30
0.0
 70
    32
  0
VERTEX
  5
113D
330
10D2
100
AcDbEntity
  8
241
100
AcDbVertex
100
AcDb3dPolylineVertex
 10
116.018
 20
5.43081
 30
0.0
 70
    32
  0
VERTEX
  5
113E
330
10D2
100
AcDbEntity
  8
241
100
AcDbVertex
100
AcDb3dPolylineVertex
 10
116.041
 20
5.4615
 30
0.0
 70
    32
  0
VERTEX
  5
113F
330
10D2
100
AcDbEntity
  8
241
100
AcDbVertex
100
AcDb3dPolylineVertex
 10
116.062
 20
5.49278
 30
0.0
 70
    32
  0
VERTEX
  5
1140
330
10D2
100
AcDbEntity
  8
241
100
AcDbVertex
100
AcDb3dPolylineVertex
 10
116.084
 20
5.52463
 30
0.0
 70
    32
  0
VERTEX
  5
1141
330
10D2
100
AcDbEntity
  8
241
100
AcDbVertex
100
AcDb3dPolylineVertex
 10
116.104
 20
5.55704
 30
0.0
 70
    32
  0
VERTEX
  5
1142
330
10D2
100
AcDbEntity
  8
241
100
AcDbVertex
100
AcDb3dPolylineVertex
 10
116.124
 20
5.58998
 30
0.0
 70
    32
  0
VERTEX
  5
1143
330
10D2
100
AcDbEntity
  8
241
100
AcDbVertex
100
AcDb3dPolylineVertex
 10
116.143
 20
5.62345
 30
0.0
 70
    32
  0
VERTEX
  5
1144
330
10D2
100
AcDbEntity
  8
241
100
AcDbVertex
100
AcDb3dPolylineVertex
 10
116.162
 20
5.6574
 30
0.0
 70
    32
  0
VERTEX
  5
1145
330
10D2
100
AcDbEntity
  8
241
100
AcDbVertex
100
AcDb3dPolylineVertex
 10
116.179
 20
5.69183
 30
0.0
 70
    32
  0
VERTEX
  5
1146
330
10D2
100
AcDbEntity
  8
241
100
AcDbVertex
100
AcDb3dPolylineVertex
 10
116.196
 20
5.72672
 30
0.0
 70
    32
  0
VERTEX
  5
1147
330
10D2
100
AcDbEntity
  8
241
100
AcDbVertex
100
AcDb3dPolylineVertex
 10
116.213
 20
5.76204
 30
0.0
 70
    32
  0
VERTEX
  5
1148
330
10D2
100
AcDbEntity
  8
241
100
AcDbVertex
100
AcDb3dPolylineVertex
 10
116.228
 20
5.79777
 30
0.0
 70
    32
  0
VERTEX
  5
1149
330
10D2
100
AcDbEntity
  8
241
100
AcDbVertex
100
AcDb3dPolylineVertex
 10
116.243
 20
5.83389
 30
0.0
 70
    32
  0
VERTEX
  5
114A
330
10D2
100
AcDbEntity
  8
241
100
AcDbVertex
100
AcDb3dPolylineVertex
 10
116.258
 20
5.87038
 30
0.0
 70
    32
  0
VERTEX
  5
114B
330
10D2
100
AcDbEntity
  8
241
100
AcDbVertex
100
AcDb3dPolylineVertex
 10
116.271
 20
5.90722
 30
0.0
 70
    32
  0
VERTEX
  5
114C
330
10D2
100
AcDbEntity
  8
241
100
AcDbVertex
100
AcDb3dPolylineVertex
 10
116.284
 20
5.94438
 30
0.0
 70
    32
  0
VERTEX
  5
114D
330
10D2
100
AcDbEntity
  8
241
100
AcDbVertex
100
AcDb3dPolylineVertex
 10
116.296
 20
5.98184
 30
0.0
 70
    32
  0
VERTEX
  5
114E
330
10D2
100
AcDbEntity
  8
241
100
AcDbVertex
100
AcDb3dPolylineVertex
 10
116.307
 20
6.01959
 30
0.0
 70
    32
  0
VERTEX
  5
114F
330
10D2
100
AcDbEntity
  8
241
100
AcDbVertex
100
AcDb3dPolylineVertex
 10
116.317
 20
6.05759
 30
0.0
 70
    32
  0
VERTEX
  5
1150
330
10D2
100
AcDbEntity
  8
241
100
AcDbVertex
100
AcDb3dPolylineVertex
 10
116.327
 20
6.09582
 30
0.0
 70
    32
  0
VERTEX
  5
1151
330
10D2
100
AcDbEntity
  8
241
100
AcDbVertex
100
AcDb3dPolylineVertex
 10
116.336
 20
6.13427
 30
0.0
 70
    32
  0
VERTEX
  5
1152
330
10D2
100
AcDbEntity
  8
241
100
AcDbVertex
100
AcDb3dPolylineVertex
 10
116.344
 20
6.1729
 30
0.0
 70
    32
  0
VERTEX
  5
1153
330
10D2
100
AcDbEntity
  8
241
100
AcDbVertex
100
AcDb3dPolylineVertex
 10
116.351
 20
6.2117
 30
0.0
 70
    32
  0
SEQEND
  5
1154
330
10D2
100
AcDbEntity
  8
241
  0
POLYLINE
  5
1155
330
BBC
100
AcDbEntity
  8
241
100
AcDb3dPolyline
 66
     1
 10
0.0
 20
0.0
 30
0.0
 70
     8
  0
VERTEX
  5
1156
330
1155
100
AcDbEntity
  8
241
100
AcDbVertex
100
AcDb3dPolylineVertex
 10
116.351
 20
6.2117
 30
0.0
 70
    32
  0
VERTEX
  5
1157
330
1155
100
AcDbEntity
  8
241
100
AcDbVertex
100
AcDb3dPolylineVertex
 10
116.356
 20
6.23947
 30
0.0
 70
    32
  0
VERTEX
  5
1158
330
1155
100
AcDbEntity
  8
241
100
AcDbVertex
100
AcDb3dPolylineVertex
 10
116.359
 20
6.26737
 30
0.0
 70
    32
  0
VERTEX
  5
1159
330
1155
100
AcDbEntity
  8
241
100
AcDbVertex
100
AcDb3dPolylineVertex
 10
116.362
 20
6.29537
 30
0.0
 70
    32
  0
VERTEX
  5
115A
330
1155
100
AcDbEntity
  8
241
100
AcDbVertex
100
AcDb3dPolylineVertex
 10
116.364
 20
6.32346
 30
0.0
 70
    32
  0
VERTEX
  5
115B
330
1155
100
AcDbEntity
  8
241
100
AcDbVertex
100
AcDb3dPolylineVertex
 10
116.365
 20
6.35163
 30
0.0
 70
    32
  0
VERTEX
  5
115C
330
1155
100
AcDbEntity
  8
241
100
AcDbVertex
100
AcDb3dPolylineVertex
 10
116.366
 20
6.37985
 30
0.0
 70
    32
  0
VERTEX
  5
115D
330
1155
100
AcDbEntity
  8
241
100
AcDbVertex
100
AcDb3dPolylineVertex
 10
116.366
 20
6.40811
 30
0.0
 70
    32
  0
VERTEX
  5
115E
330
1155
100
AcDbEntity
  8
241
100
AcDbVertex
100
AcDb3dPolylineVertex
 10
116.364
 20
6.4364
 30
0.0
 70
    32
  0
VERTEX
  5
115F
330
1155
100
AcDbEntity
  8
241
100
AcDbVertex
100
AcDb3dPolylineVertex
 10
116.362
 20
6.46469
 30
0.0
 70
    32
  0
VERTEX
  5
1160
330
1155
100
AcDbEntity
  8
241
100
AcDbVertex
100
AcDb3dPolylineVertex
 10
116.36
 20
6.49297
 30
0.0
 70
    32
  0
VERTEX
  5
1161
330
1155
100
AcDbEntity
  8
241
100
AcDbVertex
100
AcDb3dPolylineVertex
 10
116.356
 20
6.52123
 30
0.0
 70
    32
  0
VERTEX
  5
1162
330
1155
100
AcDbEntity
  8
241
100
AcDbVertex
100
AcDb3dPolylineVertex
 10
116.352
 20
6.54944
 30
0.0
 70
    32
  0
VERTEX
  5
1163
330
1155
100
AcDbEntity
  8
241
100
AcDbVertex
100
AcDb3dPolylineVertex
 10
116.346
 20
6.57758
 30
0.0
 70
    32
  0
VERTEX
  5
1164
330
1155
100
AcDbEntity
  8
241
100
AcDbVertex
100
AcDb3dPolylineVertex
 10
116.34
 20
6.60565
 30
0.0
 70
    32
  0
VERTEX
  5
1165
330
1155
100
AcDbEntity
  8
241
100
AcDbVertex
100
AcDb3dPolylineVertex
 10
116.334
 20
6.63362
 30
0.0
 70
    32
  0
VERTEX
  5
1166
330
1155
100
AcDbEntity
  8
241
100
AcDbVertex
100
AcDb3dPolylineVertex
 10
116.326
 20
6.66147
 30
0.0
 70
    32
  0
VERTEX
  5
1167
330
1155
100
AcDbEntity
  8
241
100
AcDbVertex
100
AcDb3dPolylineVertex
 10
116.318
 20
6.6892
 30
0.0
 70
    32
  0
VERTEX
  5
1168
330
1155
100
AcDbEntity
  8
241
100
AcDbVertex
100
AcDb3dPolylineVertex
 10
116.309
 20
6.71678
 30
0.0
 70
    32
  0
VERTEX
  5
1169
330
1155
100
AcDbEntity
  8
241
100
AcDbVertex
100
AcDb3dPolylineVertex
 10
116.299
 20
6.7442
 30
0.0
 70
    32
  0
VERTEX
  5
116A
330
1155
100
AcDbEntity
  8
241
100
AcDbVertex
100
AcDb3dPolylineVertex
 10
116.288
 20
6.77144
 30
0.0
 70
    32
  0
VERTEX
  5
116B
330
1155
100
AcDbEntity
  8
241
100
AcDbVertex
100
AcDb3dPolylineVertex
 10
116.276
 20
6.79848
 30
0.0
 70
    32
  0
VERTEX
  5
116C
330
1155
100
AcDbEntity
  8
241
100
AcDbVertex
100
AcDb3dPolylineVertex
 10
116.264
 20
6.82531
 30
0.0
 70
    32
  0
VERTEX
  5
116D
330
1155
100
AcDbEntity
  8
241
100
AcDbVertex
100
AcDb3dPolylineVertex
 10
116.251
 20
6.85191
 30
0.0
 70
    32
  0
VERTEX
  5
116E
330
1155
100
AcDbEntity
  8
241
100
AcDbVertex
100
AcDb3dPolylineVertex
 10
116.238
 20
6.87827
 30
0.0
 70
    32
  0
VERTEX
  5
116F
330
1155
100
AcDbEntity
  8
241
100
AcDbVertex
100
AcDb3dPolylineVertex
 10
116.223
 20
6.90437
 30
0.0
 70
    32
  0
VERTEX
  5
1170
330
1155
100
AcDbEntity
  8
241
100
AcDbVertex
100
AcDb3dPolylineVertex
 10
116.208
 20
6.93019
 30
0.0
 70
    32
  0
VERTEX
  5
1171
330
1155
100
AcDbEntity
  8
241
100
AcDbVertex
100
AcDb3dPolylineVertex
 10
116.192
 20
6.95572
 30
0.0
 70
    32
  0
VERTEX
  5
1172
330
1155
100
AcDbEntity
  8
241
100
AcDbVertex
100
AcDb3dPolylineVertex
 10
116.176
 20
6.98094
 30
0.0
 70
    32
  0
VERTEX
  5
1173
330
1155
100
AcDbEntity
  8
241
100
AcDbVertex
100
AcDb3dPolylineVertex
 10
116.158
 20
7.00584
 30
0.0
 70
    32
  0
VERTEX
  5
1174
330
1155
100
AcDbEntity
  8
241
100
AcDbVertex
100
AcDb3dPolylineVertex
 10
116.14
 20
7.03041
 30
0.0
 70
    32
  0
VERTEX
  5
1175
330
1155
100
AcDbEntity
  8
241
100
AcDbVertex
100
AcDb3dPolylineVertex
 10
116.122
 20
7.05462
 30
0.0
 70
    32
  0
VERTEX
  5
1176
330
1155
100
AcDbEntity
  8
241
100
AcDbVertex
100
AcDb3dPolylineVertex
 10
116.102
 20
7.07846
 30
0.0
 70
    32
  0
VERTEX
  5
1177
330
1155
100
AcDbEntity
  8
241
100
AcDbVertex
100
AcDb3dPolylineVertex
 10
116.082
 20
7.10193
 30
0.0
 70
    32
  0
VERTEX
  5
1178
330
1155
100
AcDbEntity
  8
241
100
AcDbVertex
100
AcDb3dPolylineVertex
 10
116.062
 20
7.125
 30
0.0
 70
    32
  0
VERTEX
  5
1179
330
1155
100
AcDbEntity
  8
241
100
AcDbVertex
100
AcDb3dPolylineVertex
 10
116.041
 20
7.14766
 30
0.0
 70
    32
  0
VERTEX
  5
117A
330
1155
100
AcDbEntity
  8
241
100
AcDbVertex
100
AcDb3dPolylineVertex
 10
116.019
 20
7.16989
 30
0.0
 70
    32
  0
VERTEX
  5
117B
330
1155
100
AcDbEntity
  8
241
100
AcDbVertex
100
AcDb3dPolylineVertex
 10
115.996
 20
7.1917
 30
0.0
 70
    32
  0
VERTEX
  5
117C
330
1155
100
AcDbEntity
  8
241
100
AcDbVertex
100
AcDb3dPolylineVertex
 10
115.973
 20
7.21305
 30
0.0
 70
    32
  0
VERTEX
  5
117D
330
1155
100
AcDbEntity
  8
241
100
AcDbVertex
100
AcDb3dPolylineVertex
 10
115.95
 20
7.23394
 30
0.0
 70
    32
  0
VERTEX
  5
117E
330
1155
100
AcDbEntity
  8
241
100
AcDbVertex
100
AcDb3dPolylineVertex
 10
115.926
 20
7.25435
 30
0.0
 70
    32
  0
VERTEX
  5
117F
330
1155
100
AcDbEntity
  8
241
100
AcDbVertex
100
AcDb3dPolylineVertex
 10
115.901
 20
7.27428
 30
0.0
 70
    32
  0
VERTEX
  5
1180
330
1155
100
AcDbEntity
  8
241
100
AcDbVertex
100
AcDb3dPolylineVertex
 10
115.876
 20
7.29371
 30
0.0
 70
    32
  0
VERTEX
  5
1181
330
1155
100
AcDbEntity
  8
241
100
AcDbVertex
100
AcDb3dPolylineVertex
 10
115.85
 20
7.31263
 30
0.0
 70
    32
  0
VERTEX
  5
1182
330
1155
100
AcDbEntity
  8
241
100
AcDbVertex
100
AcDb3dPolylineVertex
 10
115.824
 20
7.33103
 30
0.0
 70
    32
  0
VERTEX
  5
1183
330
1155
100
AcDbEntity
  8
241
100
AcDbVertex
100
AcDb3dPolylineVertex
 10
115.797
 20
7.34889
 30
0.0
 70
    32
  0
VERTEX
  5
1184
330
1155
100
AcDbEntity
  8
241
100
AcDbVertex
100
AcDb3dPolylineVertex
 10
115.77
 20
7.36622
 30
0.0
 70
    32
  0
VERTEX
  5
1185
330
1155
100
AcDbEntity
  8
241
100
AcDbVertex
100
AcDb3dPolylineVertex
 10
115.742
 20
7.38298
 30
0.0
 70
    32
  0
VERTEX
  5
1186
330
1155
100
AcDbEntity
  8
241
100
AcDbVertex
100
AcDb3dPolylineVertex
 10
115.714
 20
7.39918
 30
0.0
 70
    32
  0
VERTEX
  5
1187
330
1155
100
AcDbEntity
  8
241
100
AcDbVertex
100
AcDb3dPolylineVertex
 10
115.686
 20
7.41481
 30
0.0
 70
    32
  0
VERTEX
  5
1188
330
1155
100
AcDbEntity
  8
241
100
AcDbVertex
100
AcDb3dPolylineVertex
 10
115.657
 20
7.42986
 30
0.0
 70
    32
  0
VERTEX
  5
1189
330
1155
100
AcDbEntity
  8
241
100
AcDbVertex
100
AcDb3dPolylineVertex
 10
115.628
 20
7.44431
 30
0.0
 70
    32
  0
VERTEX
  5
118A
330
1155
100
AcDbEntity
  8
241
100
AcDbVertex
100
AcDb3dPolylineVertex
 10
115.598
 20
7.45816
 30
0.0
 70
    32
  0
VERTEX
  5
118B
330
1155
100
AcDbEntity
  8
241
100
AcDbVertex
100
AcDb3dPolylineVertex
 10
115.568
 20
7.4714
 30
0.0
 70
    32
  0
VERTEX
  5
118C
330
1155
100
AcDbEntity
  8
241
100
AcDbVertex
100
AcDb3dPolylineVertex
 10
115.538
 20
7.48402
 30
0.0
 70
    32
  0
VERTEX
  5
118D
330
1155
100
AcDbEntity
  8
241
100
AcDbVertex
100
AcDb3dPolylineVertex
 10
115.507
 20
7.49602
 30
0.0
 70
    32
  0
VERTEX
  5
118E
330
1155
100
AcDbEntity
  8
241
100
AcDbVertex
100
AcDb3dPolylineVertex
 10
115.476
 20
7.50739
 30
0.0
 70
    32
  0
VERTEX
  5
118F
330
1155
100
AcDbEntity
  8
241
100
AcDbVertex
100
AcDb3dPolylineVertex
 10
115.445
 20
7.51812
 30
0.0
 70
    32
  0
VERTEX
  5
1190
330
1155
100
AcDbEntity
  8
241
100
AcDbVertex
100
AcDb3dPolylineVertex
 10
115.414
 20
7.5282
 30
0.0
 70
    32
  0
VERTEX
  5
1191
330
1155
100
AcDbEntity
  8
241
100
AcDbVertex
100
AcDb3dPolylineVertex
 10
115.382
 20
7.53763
 30
0.0
 70
    32
  0
VERTEX
  5
1192
330
1155
100
AcDbEntity
  8
241
100
AcDbVertex
100
AcDb3dPolylineVertex
 10
115.35
 20
7.5464
 30
0.0
 70
    32
  0
VERTEX
  5
1193
330
1155
100
AcDbEntity
  8
241
100
AcDbVertex
100
AcDb3dPolylineVertex
 10
115.318
 20
7.55451
 30
0.0
 70
    32
  0
VERTEX
  5
1194
330
1155
100
AcDbEntity
  8
241
100
AcDbVertex
100
AcDb3dPolylineVertex
 10
115.286
 20
7.56195
 30
0.0
 70
    32
  0
VERTEX
  5
1195
330
1155
100
AcDbEntity
  8
241
100
AcDbVertex
100
AcDb3dPolylineVertex
 10
115.253
 20
7.56872
 30
0.0
 70
    32
  0
VERTEX
  5
1196
330
1155
100
AcDbEntity
  8
241
100
AcDbVertex
100
AcDb3dPolylineVertex
 10
115.221
 20
7.57481
 30
0.0
 70
    32
  0
VERTEX
  5
1197
330
1155
100
AcDbEntity
  8
241
100
AcDbVertex
100
AcDb3dPolylineVertex
 10
115.188
 20
7.58022
 30
0.0
 70
    32
  0
VERTEX
  5
1198
330
1155
100
AcDbEntity
  8
241
100
AcDbVertex
100
AcDb3dPolylineVertex
 10
115.155
 20
7.58495
 30
0.0
 70
    32
  0
VERTEX
  5
1199
330
1155
100
AcDbEntity
  8
241
100
AcDbVertex
100
AcDb3dPolylineVertex
 10
115.122
 20
7.589
 30
0.0
 70
    32
  0
VERTEX
  5
119A
330
1155
100
AcDbEntity
  8
241
100
AcDbVertex
100
AcDb3dPolylineVertex
 10
115.089
 20
7.59235
 30
0.0
 70
    32
  0
VERTEX
  5
119B
330
1155
100
AcDbEntity
  8
241
100
AcDbVertex
100
AcDb3dPolylineVertex
 10
115.056
 20
7.59502
 30
0.0
 70
    32
  0
VERTEX
  5
119C
330
1155
100
AcDbEntity
  8
241
100
AcDbVertex
100
AcDb3dPolylineVertex
 10
115.023
 20
7.59699
 30
0.0
 70
    32
  0
VERTEX
  5
119D
330
1155
100
AcDbEntity
  8
241
100
AcDbVertex
100
AcDb3dPolylineVertex
 10
114.99
 20
7.59827
 30
0.0
 70
    32
  0
VERTEX
  5
119E
330
1155
100
AcDbEntity
  8
241
100
AcDbVertex
100
AcDb3dPolylineVertex
 10
114.957
 20
7.59886
 30
0.0
 70
    32
  0
VERTEX
  5
119F
330
1155
100
AcDbEntity
  8
241
100
AcDbVertex
100
AcDb3dPolylineVertex
 10
114.925
 20
7.59875
 30
0.0
 70
    32
  0
VERTEX
  5
11A0
330
1155
100
AcDbEntity
  8
241
100
AcDbVertex
100
AcDb3dPolylineVertex
 10
114.892
 20
7.59795
 30
0.0
 70
    32
  0
VERTEX
  5
11A1
330
1155
100
AcDbEntity
  8
241
100
AcDbVertex
100
AcDb3dPolylineVertex
 10
114.859
 20
7.59645
 30
0.0
 70
    32
  0
VERTEX
  5
11A2
330
1155
100
AcDbEntity
  8
241
100
AcDbVertex
100
AcDb3dPolylineVertex
 10
114.826
 20
7.59426
 30
0.0
 70
    32
  0
VERTEX
  5
11A3
330
1155
100
AcDbEntity
  8
241
100
AcDbVertex
100
AcDb3dPolylineVertex
 10
114.794
 20
7.59138
 30
0.0
 70
    32
  0
VERTEX
  5
11A4
330
1155
100
AcDbEntity
  8
241
100
AcDbVertex
100
AcDb3dPolylineVertex
 10
114.761
 20
7.58781
 30
0.0
 70
    32
  0
VERTEX
  5
11A5
330
1155
100
AcDbEntity
  8
241
100
AcDbVertex
100
AcDb3dPolylineVertex
 10
114.729
 20
7.58355
 30
0.0
 70
    32
  0
VERTEX
  5
11A6
330
1155
100
AcDbEntity
  8
241
100
AcDbVertex
100
AcDb3dPolylineVertex
 10
114.697
 20
7.57861
 30
0.0
 70
    32
  0
VERTEX
  5
11A7
330
1155
100
AcDbEntity
  8
241
100
AcDbVertex
100
AcDb3dPolylineVertex
 10
114.665
 20
7.57298
 30
0.0
 70
    32
  0
VERTEX
  5
11A8
330
1155
100
AcDbEntity
  8
241
100
AcDbVertex
100
AcDb3dPolylineVertex
 10
114.633
 20
7.56667
 30
0.0
 70
    32
  0
VERTEX
  5
11A9
330
1155
100
AcDbEntity
  8
241
100
AcDbVertex
100
AcDb3dPolylineVertex
 10
114.602
 20
7.55969
 30
0.0
 70
    32
  0
VERTEX
  5
11AA
330
1155
100
AcDbEntity
  8
241
100
AcDbVertex
100
AcDb3dPolylineVertex
 10
114.57
 20
7.55204
 30
0.0
 70
    32
  0
VERTEX
  5
11AB
330
1155
100
AcDbEntity
  8
241
100
AcDbVertex
100
AcDb3dPolylineVertex
 10
114.539
 20
7.54373
 30
0.0
 70
    32
  0
VERTEX
  5
11AC
330
1155
100
AcDbEntity
  8
241
100
AcDbVertex
100
AcDb3dPolylineVertex
 10
114.509
 20
7.53475
 30
0.0
 70
    32
  0
VERTEX
  5
11AD
330
1155
100
AcDbEntity
  8
241
100
AcDbVertex
100
AcDb3dPolylineVertex
 10
114.478
 20
7.52512
 30
0.0
 70
    32
  0
VERTEX
  5
11AE
330
1155
100
AcDbEntity
  8
241
100
AcDbVertex
100
AcDb3dPolylineVertex
 10
114.448
 20
7.51483
 30
0.0
 70
    32
  0
VERTEX
  5
11AF
330
1155
100
AcDbEntity
  8
241
100
AcDbVertex
100
AcDb3dPolylineVertex
 10
114.419
 20
7.50391
 30
0.0
 70
    32
  0
VERTEX
  5
11B0
330
1155
100
AcDbEntity
  8
241
100
AcDbVertex
100
AcDb3dPolylineVertex
 10
114.389
 20
7.49234
 30
0.0
 70
    32
  0
VERTEX
  5
11B1
330
1155
100
AcDbEntity
  8
241
100
AcDbVertex
100
AcDb3dPolylineVertex
 10
114.361
 20
7.48015
 30
0.0
 70
    32
  0
VERTEX
  5
11B2
330
1155
100
AcDbEntity
  8
241
100
AcDbVertex
100
AcDb3dPolylineVertex
 10
114.332
 20
7.46733
 30
0.0
 70
    32
  0
VERTEX
  5
11B3
330
1155
100
AcDbEntity
  8
241
100
AcDbVertex
100
AcDb3dPolylineVertex
 10
114.304
 20
7.4539
 30
0.0
 70
    32
  0
VERTEX
  5
11B4
330
1155
100
AcDbEntity
  8
241
100
AcDbVertex
100
AcDb3dPolylineVertex
 10
114.276
 20
7.43986
 30
0.0
 70
    32
  0
VERTEX
  5
11B5
330
1155
100
AcDbEntity
  8
241
100
AcDbVertex
100
AcDb3dPolylineVertex
 10
114.249
 20
7.42522
 30
0.0
 70
    32
  0
VERTEX
  5
11B6
330
1155
100
AcDbEntity
  8
241
100
AcDbVertex
100
AcDb3dPolylineVertex
 10
114.222
 20
7.40999
 30
0.0
 70
    32
  0
VERTEX
  5
11B7
330
1155
100
AcDbEntity
  8
241
100
AcDbVertex
100
AcDb3dPolylineVertex
 10
114.196
 20
7.39418
 30
0.0
 70
    32
  0
VERTEX
  5
11B8
330
1155
100
AcDbEntity
  8
241
100
AcDbVertex
100
AcDb3dPolylineVertex
 10
114.17
 20
7.3778
 30
0.0
 70
    32
  0
VERTEX
  5
11B9
330
1155
100
AcDbEntity
  8
241
100
AcDbVertex
100
AcDb3dPolylineVertex
 10
114.145
 20
7.36086
 30
0.0
 70
    32
  0
VERTEX
  5
11BA
330
1155
100
AcDbEntity
  8
241
100
AcDbVertex
100
AcDb3dPolylineVertex
 10
114.12
 20
7.34337
 30
0.0
 70
    32
  0
VERTEX
  5
11BB
330
1155
100
AcDbEntity
  8
241
100
AcDbVertex
100
AcDb3dPolylineVertex
 10
114.096
 20
7.32534
 30
0.0
 70
    32
  0
VERTEX
  5
11BC
330
1155
100
AcDbEntity
  8
241
100
AcDbVertex
100
AcDb3dPolylineVertex
 10
114.072
 20
7.30677
 30
0.0
 70
    32
  0
VERTEX
  5
11BD
330
1155
100
AcDbEntity
  8
241
100
AcDbVertex
100
AcDb3dPolylineVertex
 10
114.049
 20
7.28769
 30
0.0
 70
    32
  0
VERTEX
  5
11BE
330
1155
100
AcDbEntity
  8
241
100
AcDbVertex
100
AcDb3dPolylineVertex
 10
114.027
 20
7.26811
 30
0.0
 70
    32
  0
VERTEX
  5
11BF
330
1155
100
AcDbEntity
  8
241
100
AcDbVertex
100
AcDb3dPolylineVertex
 10
114.005
 20
7.24802
 30
0.0
 70
    32
  0
VERTEX
  5
11C0
330
1155
100
AcDbEntity
  8
241
100
AcDbVertex
100
AcDb3dPolylineVertex
 10
113.984
 20
7.22746
 30
0.0
 70
    32
  0
VERTEX
  5
11C1
330
1155
100
AcDbEntity
  8
241
100
AcDbVertex
100
AcDb3dPolylineVertex
 10
113.963
 20
7.20642
 30
0.0
 70
    32
  0
VERTEX
  5
11C2
330
1155
100
AcDbEntity
  8
241
100
AcDbVertex
100
AcDb3dPolylineVertex
 10
113.943
 20
7.18493
 30
0.0
 70
    32
  0
VERTEX
  5
11C3
330
1155
100
AcDbEntity
  8
241
100
AcDbVertex
100
AcDb3dPolylineVertex
 10
113.924
 20
7.16299
 30
0.0
 70
    32
  0
VERTEX
  5
11C4
330
1155
100
AcDbEntity
  8
241
100
AcDbVertex
100
AcDb3dPolylineVertex
 10
113.905
 20
7.14062
 30
0.0
 70
    32
  0
VERTEX
  5
11C5
330
1155
100
AcDbEntity
  8
241
100
AcDbVertex
100
AcDb3dPolylineVertex
 10
113.887
 20
7.11783
 30
0.0
 70
    32
  0
VERTEX
  5
11C6
330
1155
100
AcDbEntity
  8
241
100
AcDbVertex
100
AcDb3dPolylineVertex
 10
113.869
 20
7.09464
 30
0.0
 70
    32
  0
VERTEX
  5
11C7
330
1155
100
AcDbEntity
  8
241
100
AcDbVertex
100
AcDb3dPolylineVertex
 10
113.853
 20
7.07105
 30
0.0
 70
    32
  0
VERTEX
  5
11C8
330
1155
100
AcDbEntity
  8
241
100
AcDbVertex
100
AcDb3dPolylineVertex
 10
113.837
 20
7.04709
 30
0.0
 70
    32
  0
VERTEX
  5
11C9
330
1155
100
AcDbEntity
  8
241
100
AcDbVertex
100
AcDb3dPolylineVertex
 10
113.822
 20
7.02277
 30
0.0
 70
    32
  0
VERTEX
  5
11CA
330
1155
100
AcDbEntity
  8
241
100
AcDbVertex
100
AcDb3dPolylineVertex
 10
113.807
 20
6.9981
 30
0.0
 70
    32
  0
VERTEX
  5
11CB
330
1155
100
AcDbEntity
  8
241
100
AcDbVertex
100
AcDb3dPolylineVertex
 10
113.793
 20
6.97309
 30
0.0
 70
    32
  0
VERTEX
  5
11CC
330
1155
100
AcDbEntity
  8
241
100
AcDbVertex
100
AcDb3dPolylineVertex
 10
113.78
 20
6.94777
 30
0.0
 70
    32
  0
VERTEX
  5
11CD
330
1155
100
AcDbEntity
  8
241
100
AcDbVertex
100
AcDb3dPolylineVertex
 10
113.768
 20
6.92215
 30
0.0
 70
    32
  0
VERTEX
  5
11CE
330
1155
100
AcDbEntity
  8
241
100
AcDbVertex
100
AcDb3dPolylineVertex
 10
113.757
 20
6.89624
 30
0.0
 70
    32
  0
VERTEX
  5
11CF
330
1155
100
AcDbEntity
  8
241
100
AcDbVertex
100
AcDb3dPolylineVertex
 10
113.746
 20
6.87006
 30
0.0
 70
    32
  0
VERTEX
  5
11D0
330
1155
100
AcDbEntity
  8
241
100
AcDbVertex
100
AcDb3dPolylineVertex
 10
113.736
 20
6.84363
 30
0.0
 70
    32
  0
VERTEX
  5
11D1
330
1155
100
AcDbEntity
  8
241
100
AcDbVertex
100
AcDb3dPolylineVertex
 10
113.726
 20
6.81695
 30
0.0
 70
    32
  0
VERTEX
  5
11D2
330
1155
100
AcDbEntity
  8
241
100
AcDbVertex
100
AcDb3dPolylineVertex
 10
113.718
 20
6.79005
 30
0.0
 70
    32
  0
VERTEX
  5
11D3
330
1155
100
AcDbEntity
  8
241
100
AcDbVertex
100
AcDb3dPolylineVertex
 10
113.71
 20
6.76295
 30
0.0
 70
    32
  0
VERTEX
  5
11D4
330
1155
100
AcDbEntity
  8
241
100
AcDbVertex
100
AcDb3dPolylineVertex
 10
113.703
 20
6.73565
 30
0.0
 70
    32
  0
VERTEX
  5
11D5
330
1155
100
AcDbEntity
  8
241
100
AcDbVertex
100
AcDb3dPolylineVertex
 10
113.697
 20
6.70818
 30
0.0
 70
    32
  0
VERTEX
  5
11D6
330
1155
100
AcDbEntity
  8
241
100
AcDbVertex
100
AcDb3dPolylineVertex
 10
113.692
 20
6.68055
 30
0.0
 70
    32
  0
SEQEND
  5
11D7
330
1155
100
AcDbEntity
  8
241
  0
LINE
  5
11D8
330
BBC
100
AcDbEntity
  8
240
  6
CONTINUOUS
100
AcDbLine
 10
27.0
 20
30.5
 30
0.0
 11
27.0
 21
30.0
 31
0.0
  0
ARC
  5
11D9
330
BBC
100
AcDbEntity
  8
240
  6
CONTINUOUS
100
AcDbCircle
 10
26.0
 20
30.5
 30
0.0
 40
1.0
100
AcDbArc
 50
0.0
 51
90.0
  0
ENDBLK
  5
BBE
330
BBC
100
AcDbEntity
  8
0
100
AcDbBlockEnd
  0
ENDSEC
  0
SECTION
  2
ENTITIES
  0
INSERT
  5
6E6
330
1A
100
AcDbEntity
  8
245
100
AcDbBlockReference
  2
矢印なし
 10
175.62382697
 20
90.55123572
 30
0.0
  0
TEXT
  5
A61
330
1A
100
AcDbEntity
  8
241
100
AcDbText
 10
-65.4
 20
56.0
 30
0.0
 40
5.0
  1
BBT40-FCR20083-120
  7
YOKO
 11
-65.4
 21
56.0
 31
0.0
100
AcDbText
 73
     1
  0
DIMENSION
  5
B42
330
1A
100
AcDbEntity
  8
250
  6
CONTINUOUS
100
AcDbDimension
  2
*D2
 10
133.0
 20
10.0
 30
0.0
 11
130.6
 21
0.0
 31
0.0
 70
    32
  1
{\H2.8;\U+2205}<>
  3
BIGT
100
AcDbAlignedDimension
 13
120.0
 23
-10.0
 33
0.0
 14
120.0
 24
10.0
 34
0.0
 50
90.0
100
AcDbRotatedDimension
  0
DIMENSION
  5
B51
330
1A
100
AcDbEntity
  8
250
  6
CONTINUOUS
100
AcDbDimension
  2
*D3
 10
120.0
 20
28.0
 30
0.0
 11
116.0
 21
28.0
 31
0.0
 70
   160
  3
BIGT
100
AcDbAlignedDimension
 13
112.0
 23
10.0
 33
0.0
 14
120.0
 24
10.0
 34
0.0
100
AcDbRotatedDimension
  0
DIMENSION
  5
B60
330
1A
100
AcDbEntity
  8
250
  6
CONTINUOUS
100
AcDbDimension
  2
*D4
 10
120.0
 20
35.0
 30
0.0
 11
105.0
 21
35.0
 31
0.0
 70
   160
  3
BIGT
100
AcDbAlignedDimension
 13
90.0
 23
9.51216156
 33
0.0
 14
120.0
 24
10.0
 34
0.0
100
AcDbRotatedDimension
  0
DIMENSION
  5
B6F
330
1A
100
AcDbEntity
  8
250
  6
CONTINUOUS
100
AcDbDimension
  2
*D5
 10
120.0
 20
42.0
 30
0.0
 11
60.0
 21
44.4
 31
0.0
 70
    32
  3
BIGT
100
AcDbAlignedDimension
 13
0.0
 23
22.225
 33
0.0
 14
120.0
 24
10.0
 34
0.0
100
AcDbRotatedDimension
  0
LEADER
  5
1026
330
1A
100
AcDbEntity
  8
250
  6
CONTINUOUS
100
AcDbLeader
  3
BIGT
 76
     2
 10
-26.64442081
 20
-18.3393553
 30
0.0
 10
-32.4583971
 20
-28.40945762
 30
0.0
1001
ACAD
1000
DSTYLE
1002
{
1070
     6
1000
OPEN
1070
   343
1005
594
1002
}
  0
MTEXT
  5
1027
330
1A
100
AcDbEntity
  8
250
  6
CONTINUOUS
 62
    40
100
AcDbMText
 10
-47.39173044
 20
-27.40945762
 30
0.0
 40
2.8
 41
0.0
 71
     7
 72
     1
  1
BBT40
  7
YOKO
1001
ITEMNAME
1000
LNSP3
1001
ACAD
1000
MTEXTBEGIN
1070
    73
1070
     1
1070
    44
1040
1.0
1070
    74
1070
     0
1000
MTEXTEND
1000
MTEXTBEGIN
1070
    73
1070
     1
1070
    44
1040
1.0
1070
    74
1070
     0
1000
MTEXTEND
  0
LINE
  5
102A
330
1A
100
AcDbEntity
  8
250
  6
CONTINUOUS
100
AcDbLine
 10
-32.4583971
 20
-28.40945762
 30
0.0
 11
-50.19173044
 21
-28.40945762
 31
0.0
1001
ITEMNAME
1000
LNSP2
  0
INSERT
  5
11DA
330
1A
100
AcDbEntity
  8
245
100
AcDbBlockReference
  2
1
 10
0.0
 20
0.0
 30
0.0
  0
VIEWPORT
  5
22
330
17
100
AcDbEntity
 67
     1
  8
0
100
AcDbViewport
 10
261.51769912
 20
148.5
 30
0.0
 40
523.03539823
 41
297.0
 68
     1
 69
     1
1001
ACAD
1000
MVIEW
1002
{
1070
    16
1010
0.0
1020
0.0
1030
0.0
1010
0.0
1020
0.0
1030
1.0
1040
0.0
1040
297.0
1040
261.51769912
1040
148.5
1040
50.0
1040
0.0
1040
0.0
1070
     0
1070
   100
1070
     1
1070
     1
1070
     0
1070
     0
1070
     0
1070
     0
1040
0.0
1040
0.0
1040
0.0
1040
1.0
1040
1.0
1040
10.0
1040
10.0
1070
     0
1002
{
1002
}
1002
}
  0
ENDSEC
  0
SECTION
  2
OBJECTS
  0
DICTIONARY
  5
C
330
0
100
AcDbDictionary
  3
ACAD_GROUP
350
D
  3
ACAD_LAYOUT
350
565
  3
ACAD_MLINESTYLE
350
E
  3
ACAD_PLOTSETTINGS
350
566
  3
ACAD_PLOTSTYLENAME
350
563
  3
ACDBHEADERROUNDTRIPXREC
350
11DC
  3
GRADE_DWG
350
540
  0
DICTIONARY
  5
DF3
330
1A
100
AcDbDictionary
280
     1
  3
ACAD_LAYOUTSELFREF
360
11FE
  0
DICTIONARY
  5
DF1
330
17
100
AcDbDictionary
280
     1
  3
ACAD_LAYOUTSELFREF
360
11FD
  0
DICTIONARY
  5
D
102
{ACAD_REACTORS
330
C
102
}
330
C
100
AcDbDictionary
  3
*A1
350
6C7
  3
*A2
350
6C8
  3
*A3
350
6D4
  3
*A4
350
6D5
  3
DREC-1
350
5FC
  3
DREC-2
350
654
  3
DREC-3
350
673
  0
DICTIONARY
  5
565
102
{ACAD_REACTORS
330
C
102
}
330
C
100
AcDbDictionary
  0
DICTIONARY
  5
E
102
{ACAD_REACTORS
330
C
102
}
330
C
100
AcDbDictionary
  3
STANDARD
350
13
  0
DICTIONARY
  5
566
102
{ACAD_REACTORS
330
C
102
}
330
C
100
AcDbDictionary
  3
A3_0_5倍_
350
758
  3
A3_1倍_
350
757
  3
A3_1倍__2000_
350
707
  3
A3_2倍_
350
759
  3
A4_0_5倍_
350
755
  3
A4_1倍_
350
754
  3
A4_1倍__2000_
350
708
  3
A4_2倍_
350
756
  0
ACDBDICTIONARYWDFLT
  5
563
102
{ACAD_REACTORS
330
C
102
}
330
C
100
AcDbDictionary
281
     1
  3
Normal
350
564
100
AcDbDictionaryWithDefault
340
564
  0
DICTIONARY
  5
11DC
102
{ACAD_REACTORS
330
C
102
}
330
C
100
AcDbDictionary
  3
CEPSNTYPE
350
11E6
  3
DIMSTYLEDATA
350
11EA
  3
FINGERPRINTGUID
350
11E7
  3
HYPERLINKBASE
350
11DF
  3
INSUNITS
350
11E5
  3
LAYOUTDICT
350
11E1
  3
LWETCUNION
350
11E4
  3
PLOTSETDICT
350
11E2
  3
PLOTSTYLNAMDICT
350
11E3
  3
PSVPSCALE
350
11E9
  3
PUCSBASE
350
11ED
  3
PUCSORGBACK
350
11F3
  3
PUCSORGBOTTOM
350
11EF
  3
PUCSORGFRONT
350
11F2
  3
PUCSORGLEFT
350
11F0
  3
PUCSORGRIGHT
350
11F1
  3
PUCSORGTOP
350
11EE
  3
PUCSORTHOREF
350
11EB
  3
PUCSORTHOVIEW
350
11EC
  3
STYLESHEET
350
11E0
  3
TSTACKALIGN
350
11DD
  3
TSTACKSIZE
350
11DE
  3
UCSBASE
350
11F6
  3
UCSORGBACK
350
11FC
  3
UCSORGBOTTOM
350
11F8
  3
UCSORGFRONT
350
11FB
  3
UCSORGLEFT
350
11F9
  3
UCSORGRIGHT
350
11FA
  3
UCSORGTOP
350
11F7
  3
UCSORTHOREF
350
11F4
  3
UCSORTHOVIEW
350
11F5
  3
VERSIONGUID
350
11E8
  0
DICTIONARY
  5
540
102
{ACAD_REACTORS
330
C
102
}
330
C
100
AcDbDictionary
  3
VERSION
350
560
  0
XRECORD
  5
11FE
102
{ACAD_REACTORS
330
DF3
102
}
330
DF3
100
AcDbXrecord
340
1A
  0
XRECORD
  5
11FD
102
{ACAD_REACTORS
330
DF1
102
}
330
DF1
100
AcDbXrecord
340
17
  0
GROUP
  5
6C7
102
{ACAD_REACTORS
330
D
102
}
330
D
100
AcDbGroup
300

 70
     0
 71
     1
1001
GRPNAME
1000
DMA00
  0
GROUP
  5
6C8
102
{ACAD_REACTORS
330
D
102
}
330
D
100
AcDbGroup
300

 70
     0
 71
     1
1001
GRPNAME
1000
DMA00
  0
GROUP
  5
6D4
102
{ACAD_REACTORS
330
D
102
}
330
D
100
AcDbGroup
300

 70
     0
 71
     1
1001
GRPNAME
1000
DMA00
  0
GROUP
  5
6D5
102
{ACAD_REACTORS
330
D
102
}
330
D
100
AcDbGroup
300

 70
     0
 71
     1
1001
GRPNAME
1000
DMA00
  0
GROUP
  5
5FC
102
{ACAD_REACTORS
330
D
102
}
330
D
100
AcDbGroup
300

 70
     0
 71
     1
1001
GRPNAME
1000
DREC-
1001
GPARA
1000
xsiz
1000
44.182
1000
ysiz
1000
40.677
1000
angl
1000
0
1000
ctyp
1000
0
1000
csiz
1000
5
1000
lfnt
1000
cont
1000
hcnt
1000
hoff
1000
vcnt
1000
voff
1000
opnt
1000
4
1000
dxpt
1000
0
1000
dypt
1000
0
  0
GROUP
  5
654
102
{ACAD_REACTORS
330
D
102
}
330
D
100
AcDbGroup
300

 70
     0
 71
     1
1001
GRPNAME
1000
DREC-
1001
GPARA
1000
xsiz
1000
54.592
1000
ysiz
1000
53.036
1000
angl
1000
0
1000
ctyp
1000
0
1000
csiz
1000
5
1000
lfnt
1000
cont
1000
hcnt
1000
hoff
1000
vcnt
1000
voff
1000
opnt
1000
4
1000
dxpt
1000
0
1000
dypt
1000
0
  0
GROUP
  5
673
102
{ACAD_REACTORS
330
D
102
}
330
D
100
AcDbGroup
300

 70
     0
 71
     1
1001
GRPNAME
1000
DREC-
1001
GPARA
1000
xsiz
1000
30.363
1000
ysiz
1000
36.175
1000
angl
1000
0
1000
ctyp
1000
0
1000
csiz
1000
5
1000
lfnt
1000
cont
1000
hcnt
1000
hoff
1000
vcnt
1000
voff
1000
opnt
1000
4
1000
dxpt
1000
0
1000
dypt
1000
0
  0
MLINESTYLE
  5
13
102
{ACAD_REACTORS
330
E
102
}
330
E
100
AcDbMlineStyle
  2
STANDARD
 70
     0
  3

 62
     0
 51
90.0
 52
90.0
 71
     2
 49
0.5
 62
   256
  6
BYLAYER
 49
-0.5
 62
   256
  6
BYLAYER
  0
PLOTSETTINGS
  5
758
102
{ACAD_REACTORS
330
566
102
}
330
566
100
AcDbPlotSettings
  1
A3(0.5倍)
  2
\\AWTECPC05\HP DeskJet 1120C
  4
A3
  6

 40
5.95841646
 41
13.49375153
 42
6.04309082
 43
3.67242432
 44
296.92599487
 45
419.94665527
 46
89.96
 47
127.14
 48
0.0
 49
0.0
140
0.0
141
0.0
142
1.0
143
2.0
 70
  1716
 72
     1
 73
     1
 74
     2
  7
big.ctb
 75
    17
147
0.5
148
0.0
149
0.0
  0
PLOTSETTINGS
  5
757
102
{ACAD_REACTORS
330
566
102
}
330
566
100
AcDbPlotSettings
  1
A3(1倍)
  2
\\AWTECPC05\HP DeskJet 1120C
  4
A3
  6

 40
5.95841646
 41
13.49375153
 42
6.04309082
 43
3.67242432
 44
296.92599487
 45
419.94665527
 46
37.46
 47
52.89
 48
0.0
 49
0.0
140
0.0
141
0.0
142
1.0
143
1.0
 70
  1716
 72
     1
 73
     1
 74
     2
  7
big.ctb
 75
    16
147
1.0
148
0.0
149
0.0
  0
PLOTSETTINGS
  5
707
102
{ACAD_REACTORS
330
566
102
}
330
566
100
AcDbPlotSettings
  1
A3(1倍)(2000)
  2
SII LS-1300 (D-SCAN)
  4
User258
  6

 40
3.17499995
 41
3.17499995
 42
3.17498779
 43
3.17498779
 44
419.98898315
 45
296.98950195
 46
58.32
 47
40.32
 48
0.0
 49
0.0
140
0.0
141
0.0
142
1.0
143
1.0
 70
  1716
 72
     1
 73
     0
 74
     2
  7
big.ctb
 75
    16
147
1.0
148
0.0
149
0.0
  0
PLOTSETTINGS
  5
759
102
{ACAD_REACTORS
330
566
102
}
330
566
100
AcDbPlotSettings
  1
A3(2倍)
  2
\\AWTECPC05\HP DeskJet 1120C
  4
A3
  6

 40
5.95841646
 41
13.49375153
 42
6.04309082
 43
3.67242432
 44
296.92599487
 45
419.94665527
 46
-67.54
 47
-95.61
 48
0.0
 49
0.0
140
0.0
141
0.0
142
1.0
143
0.5
 70
  1716
 72
     1
 73
     1
 74
     2
  7
big.ctb
 75
    27
147
2.0
148
0.0
149
0.0
  0
PLOTSETTINGS
  5
755
102
{ACAD_REACTORS
330
566
102
}
330
566
100
AcDbPlotSettings
  1
A4(0.5倍)
  2
\\AWTECPC05\HP DeskJet 1120C
  4
A4
  6

 40
4.18041658
 41
13.49374962
 42
4.18040466
 43
3.92642212
 44
209.97332764
 45
296.92599487
 46
48.31
 47
65.5
 48
0.0
 49
0.0
140
0.0
141
0.0
142
1.0
143
2.0
 70
  1716
 72
     1
 73
     1
 74
     2
  7
big.ctb
 75
    17
147
0.5
148
0.0
149
0.0
  0
PLOTSETTINGS
  5
754
102
{ACAD_REACTORS
330
566
102
}
330
566
100
AcDbPlotSettings
  1
A4(1倍)
  2
\\AWTECPC05\HP DeskJet 1120C
  4
A4
  6

 40
4.18041658
 41
13.49374962
 42
4.18040466
 43
3.92642212
 44
209.97332764
 45
296.92599487
 46
-4.19
 47
-8.75
 48
0.0
 49
0.0
140
0.0
141
0.0
142
1.0
143
1.0
 70
  1716
 72
     1
 73
     1
 74
     2
  7
big.ctb
 75
    16
147
1.0
148
0.0
149
0.0
  0
PLOTSETTINGS
  5
708
102
{ACAD_REACTORS
330
566
102
}
330
566
100
AcDbPlotSettings
  1
A4(1倍)(2000)
  2
SII LS-1300 (D-SCAN)
  4
User259
  6

 40
3.17499995
 41
3.17499995
 42
3.17498779
 43
3.17500305
 44
296.98950195
 45
209.99449158
 46
-3.18
 47
-3.18
 48
0.0
 49
0.0
140
0.0
141
0.0
142
1.0
143
1.0
 70
  1716
 72
     1
 73
     0
 74
     2
  7
big.ctb
 75
    16
147
1.0
148
0.0
149
0.0
  0
PLOTSETTINGS
  5
756
102
{ACAD_REACTORS
330
566
102
}
330
566
100
AcDbPlotSettings
  1
A4(2倍)
  2
\\AWTECPC05\HP DeskJet 1120C
  4
A4
  6

 40
4.18041658
 41
13.49374962
 42
4.18040466
 43
3.92642212
 44
209.97332764
 45
296.92599487
 46
-109.19
 47
-157.25
 48
0.0
 49
0.0
140
0.0
141
0.0
142
1.0
143
0.5
 70
  1716
 72
     1
 73
     1
 74
     2
  7
big.ctb
 75
    27
147
2.0
148
0.0
149
0.0
  0
ACDBPLACEHOLDER
  5
564
102
{ACAD_REACTORS
330
563
102
}
330
563
100
AcDbPlaceHolder
280
     0
  0
XRECORD
  5
11E6
102
{ACAD_REACTORS
330
11DC
102
}
330
11DC
100
AcDbXrecord
 90
        0
  0
XRECORD
  5
11EA
102
{ACAD_REACTORS
330
11DC
102
}
330
11DC
100
AcDbXrecord
1000
DSTYLE
1002
{
1070
    79
 70
     2
1070
   179
 70
     3
1070
   341
340
594
1070
   343
340
594
1070
   344
340
594
1070
   371
 70
    -1
1070
   372
 70
    -1
1002
}
  0
XRECORD
  5
11E7
102
{ACAD_REACTORS
330
11DC
102
}
330
11DC
100
AcDbXrecord
  1
{51294030-9CB4-11D3-8E18-00A0C925D94D}
  0
XRECORD
  5
11DF
102
{ACAD_REACTORS
330
11DC
102
}
330
11DC
100
AcDbXrecord
  1

  0
XRECORD
  5
11E5
102
{ACAD_REACTORS
330
11DC
102
}
330
11DC
100
AcDbXrecord
 90
        0
  0
XRECORD
  5
11E1
102
{ACAD_REACTORS
330
11DC
102
}
330
11DC
100
AcDbXrecord
340
565
  0
XRECORD
  5
11E4
102
{ACAD_REACTORS
330
11DC
102
}
330
11DC
100
AcDbXrecord
 90
    10781
  0
XRECORD
  5
11E2
102
{ACAD_REACTORS
330
11DC
102
}
330
11DC
100
AcDbXrecord
340
566
  0
XRECORD
  5
11E3
102
{ACAD_REACTORS
330
11DC
102
}
330
11DC
100
AcDbXrecord
340
563
  0
XRECORD
  5
11E9
102
{ACAD_REACTORS
330
11DC
102
}
330
11DC
100
AcDbXrecord
 40
0.0
  0
XRECORD
  5
11ED
102
{ACAD_REACTORS
330
11DC
102
}
330
11DC
100
AcDbXrecord
340
0
  0
XRECORD
  5
11F3
102
{ACAD_REACTORS
330
11DC
102
}
330
11DC
100
AcDbXrecord
 10
0.0
 20
0.0
 30
0.0
  0
XRECORD
  5
11EF
102
{ACAD_REACTORS
330
11DC
102
}
330
11DC
100
AcDbXrecord
 10
0.0
 20
0.0
 30
0.0
  0
XRECORD
  5
11F2
102
{ACAD_REACTORS
330
11DC
102
}
330
11DC
100
AcDbXrecord
 10
0.0
 20
0.0
 30
0.0
  0
XRECORD
  5
11F0
102
{ACAD_REACTORS
330
11DC
102
}
330
11DC
100
AcDbXrecord
 10
0.0
 20
0.0
 30
0.0
  0
XRECORD
  5
11F1
102
{ACAD_REACTORS
330
11DC
102
}
330
11DC
100
AcDbXrecord
 10
0.0
 20
0.0
 30
0.0
  0
XRECORD
  5
11EE
102
{ACAD_REACTORS
330
11DC
102
}
330
11DC
100
AcDbXrecord
 10
0.0
 20
0.0
 30
0.0
  0
XRECORD
  5
11EB
102
{ACAD_REACTORS
330
11DC
102
}
330
11DC
100
AcDbXrecord
340
0
  0
XRECORD
  5
11EC
102
{ACAD_REACTORS
330
11DC
102
}
330
11DC
100
AcDbXrecord
 70
     0
  0
XRECORD
  5
11E0
102
{ACAD_REACTORS
330
11DC
102
}
330
11DC
100
AcDbXrecord
  1
big.ctb
  0
XRECORD
  5
11DD
102
{ACAD_REACTORS
330
11DC
102
}
330
11DC
100
AcDbXrecord
 90
        1
  0
XRECORD
  5
11DE
102
{ACAD_REACTORS
330
11DC
102
}
330
11DC
100
AcDbXrecord
 90
       70
  0
XRECORD
  5
11F6
102
{ACAD_REACTORS
330
11DC
102
}
330
11DC
100
AcDbXrecord
340
0
  0
XRECORD
  5
11FC
102
{ACAD_REACTORS
330
11DC
102
}
330
11DC
100
AcDbXrecord
 10
0.0
 20
0.0
 30
0.0
  0
XRECORD
  5
11F8
102
{ACAD_REACTORS
330
11DC
102
}
330
11DC
100
AcDbXrecord
 10
0.0
 20
0.0
 30
0.0
  0
XRECORD
  5
11FB
102
{ACAD_REACTORS
330
11DC
102
}
330
11DC
100
AcDbXrecord
 10
0.0
 20
0.0
 30
0.0
  0
XRECORD
  5
11F9
102
{ACAD_REACTORS
330
11DC
102
}
330
11DC
100
AcDbXrecord
 10
0.0
 20
0.0
 30
0.0
  0
XRECORD
  5
11FA
102
{ACAD_REACTORS
330
11DC
102
}
330
11DC
100
AcDbXrecord
 10
0.0
 20
0.0
 30
0.0
  0
XRECORD
  5
11F7
102
{ACAD_REACTORS
330
11DC
102
}
330
11DC
100
AcDbXrecord
 10
0.0
 20
0.0
 30
0.0
  0
XRECORD
  5
11F4
102
{ACAD_REACTORS
330
11DC
102
}
330
11DC
100
AcDbXrecord
340
0
  0
XRECORD
  5
11F5
102
{ACAD_REACTORS
330
11DC
102
}
330
11DC
100
AcDbXrecord
 70
     0
  0
XRECORD
  5
11E8
102
{ACAD_REACTORS
330
11DC
102
}
330
11DC
100
AcDbXrecord
  1
{B28AA59C-0DCB-4496-8AD5-36DDE0CF0BEC}
  0
XRECORD
  5
560
102
{ACAD_REACTORS
330
540
102
}
330
540
100
AcDbXrecord
  1
2.0.0
  0
ENDSEC
  0
EOF
