  0
SECTION
  2
HEADER
  9
$ACADVER
  1
AC1014
  9
$ACADMAINTVER
 70
     9
  9
$DWGCODEPAGE
  3
ANSI_932
  9
$INSBASE
 10
0.0
 20
0.0
 30
0.0
  9
$EXTMIN
 10
-66.41484262
 20
-31.71713736
 30
-0.00152582
  9
$EXTMAX
 10
148.00312582
 20
61.02264515
 30
0.00000003
  9
$LIMMIN
 10
0.0
 20
0.0
  9
$LIMMAX
 10
420.0
 20
297.0
  9
$ORTHOMODE
 70
     0
  9
$REGENMODE
 70
     1
  9
$FILLMODE
 70
     1
  9
$QTEXTMODE
 70
     0
  9
$MIRRTEXT
 70
     1
  9
$DRAGMODE
 70
     2
  9
$LTSCALE
 40
10.0
  9
$OSMODE
 70
   549
  9
$ATTMODE
 70
     1
  9
$TEXTSIZE
 40
3.0
  9
$TRACEWID
 40
1.0
  9
$TEXTSTYLE
  7
YOKO
  9
$CLAYER
  8
245
  9
$CELTYPE
  6
BYLAYER
  9
$CECOLOR
 62
   256
  9
$CELTSCALE
 40
1.0
  9
$DELOBJ
 70
     1
  9
$DISPSILH
 70
     0
  9
$DIMSCALE
 40
1.0
  9
$DIMASZ
 40
2.23
  9
$DIMEXO
 40
0.5
  9
$DIMDLI
 40
2.5
  9
$DIMRND
 40
0.0
  9
$DIMDLE
 40
0.0
  9
$DIMEXE
 40
1.0
  9
$DIMTP
 40
0.0
  9
$DIMTM
 40
0.0
  9
$DIMTXT
 40
2.8
  9
$DIMCEN
 40
0.0
  9
$DIMTSZ
 40
0.0
  9
$DIMTOL
 70
     0
  9
$DIMLIM
 70
     0
  9
$DIMTIH
 70
     0
  9
$DIMTOH
 70
     0
  9
$DIMSE1
 70
     0
  9
$DIMSE2
 70
     0
  9
$DIMTAD
 70
     3
  9
$DIMZIN
 70
     8
  9
$DIMBLK
  1

  9
$DIMASO
 70
     1
  9
$DIMSHO
 70
     1
  9
$DIMPOST
  1

  9
$DIMAPOST
  1

  9
$DIMALT
 70
     0
  9
$DIMALTD
 70
     2
  9
$DIMALTF
 40
25.4
  9
$DIMLFAC
 40
1.0
  9
$DIMTOFL
 70
     1
  9
$DIMTVP
 40
0.0
  9
$DIMTIX
 70
     1
  9
$DIMSOXD
 70
     0
  9
$DIMSAH
 70
     1
  9
$DIMBLK1
  1
OPEN
  9
$DIMBLK2
  1
OPEN
  9
$DIMSTYLE
  2
BIGT
  9
$DIMCLRD
 70
   256
  9
$DIMCLRE
 70
   256
  9
$DIMCLRT
 70
    40
  9
$DIMTFAC
 40
1.0
  9
$DIMGAP
 40
1.0
  9
$DIMJUST
 70
     0
  9
$DIMSD1
 70
     0
  9
$DIMSD2
 70
     0
  9
$DIMTOLJ
 70
     1
  9
$DIMTZIN
 70
     8
  9
$DIMALTZ
 70
     0
  9
$DIMALTTZ
 70
     0
  9
$DIMFIT
 70
     3
  9
$DIMUPT
 70
     0
  9
$DIMUNIT
 70
     2
  9
$DIMDEC
 70
     3
  9
$DIMTDEC
 70
     3
  9
$DIMALTU
 70
     2
  9
$DIMALTTD
 70
     2
  9
$DIMTXSTY
  7
STANDARD
  9
$DIMAUNIT
 70
     0
  9
$LUNITS
 70
     2
  9
$LUPREC
 70
     3
  9
$SKETCHINC
 40
1.0
  9
$FILLETRAD
 40
1.6
  9
$AUNITS
 70
     0
  9
$AUPREC
 70
     3
  9
$MENU
  1
.
  9
$ELEVATION
 40
0.0
  9
$PELEVATION
 40
0.0
  9
$THICKNESS
 40
0.0
  9
$LIMCHECK
 70
     0
  9
$BLIPMODE
 70
     0
  9
$CHAMFERA
 40
10.0
  9
$CHAMFERB
 40
10.0
  9
$CHAMFERC
 40
0.0
  9
$CHAMFERD
 40
0.0
  9
$SKPOLY
 70
     0
  9
$TDCREATE
 40
2455141.458404941
  9
$TDUPDATE
 40
2455383.487247176
  9
$TDINDWG
 40
0.0061639120
  9
$TDUSRTIMER
 40
0.0061639120
  9
$USRTIMER
 70
     1
  9
$ANGBASE
 50
0.0
  9
$ANGDIR
 70
     0
  9
$PDMODE
 70
     1
  9
$PDSIZE
 40
-5.0
  9
$PLINEWID
 40
0.0
  9
$COORDS
 70
     1
  9
$SPLFRAME
 70
     0
  9
$SPLINETYPE
 70
     6
  9
$SPLINESEGS
 70
     8
  9
$ATTDIA
 70
     0
  9
$ATTREQ
 70
     1
  9
$HANDLING
 70
-16383
  9
$HANDSEED
  5
1330
  9
$SURFTAB1
 70
     6
  9
$SURFTAB2
 70
     6
  9
$SURFTYPE
 70
     6
  9
$SURFU
 70
     6
  9
$SURFV
 70
     6
  9
$UCSNAME
  2

  9
$UCSORG
 10
0.0
 20
0.0
 30
0.0
  9
$UCSXDIR
 10
1.0
 20
0.0
 30
0.0
  9
$UCSYDIR
 10
0.0
 20
1.0
 30
0.0
  9
$PUCSNAME
  2

  9
$PUCSORG
 10
0.0
 20
0.0
 30
0.0
  9
$PUCSXDIR
 10
1.0
 20
0.0
 30
0.0
  9
$PUCSYDIR
 10
0.0
 20
1.0
 30
0.0
  9
$USERI1
 70
     1
  9
$USERI2
 70
     0
  9
$USERI3
 70
     0
  9
$USERI4
 70
     0
  9
$USERI5
 70
     0
  9
$USERR1
 40
0.0
  9
$USERR2
 40
0.0
  9
$USERR3
 40
0.0
  9
$USERR4
 40
0.0
  9
$USERR5
 40
0.0
  9
$WORLDVIEW
 70
     1
  9
$SHADEDGE
 70
     3
  9
$SHADEDIF
 70
    70
  9
$TILEMODE
 70
     1
  9
$MAXACTVP
 70
    16
  9
$PINSBASE
 10
0.0
 20
0.0
 30
0.0
  9
$PLIMCHECK
 70
     0
  9
$PEXTMIN
 10
1.00000000E+20
 20
1.00000000E+20
 30
1.00000000E+20
  9
$PEXTMAX
 10
-1.00000000E+20
 20
-1.00000000E+20
 30
-1.00000000E+20
  9
$PLIMMIN
 10
0.0
 20
0.0
  9
$PLIMMAX
 10
420.0
 20
297.0
  9
$UNITMODE
 70
     0
  9
$VISRETAIN
 70
     0
  9
$PLINEGEN
 70
     0
  9
$PSLTSCALE
 70
     1
  9
$TREEDEPTH
 70
  3020
  9
$PICKSTYLE
 70
     0
  9
$CMLSTYLE
  2
STANDARD
  9
$CMLJUST
 70
     0
  9
$CMLSCALE
 40
1.0
  9
$PROXYGRAPHICS
 70
     1
  9
$MEASUREMENT
 70
     1
  0
ENDSEC
  0
SECTION
  2
CLASSES
  0
CLASS
  1
XRECORD
  2
AcDbXrecord
  3
AutoCAD 2000
 90
        0
280
     0
281
     0
  0
CLASS
  1
ACDBDICTIONARYWDFLT
  2
AcDbDictionaryWithDefault
  3
AutoCAD 2000
 90
        0
280
     0
281
     0
  0
CLASS
  1
ACDBPLACEHOLDER
  2
AcDbPlaceHolder
  3
AutoCAD 2000
 90
        0
280
     0
281
     0
  0
CLASS
  1
LAYOUT
  2
AcDbLayout
  3
AutoCAD 2000
 90
        0
280
     0
281
     0
  0
CLASS
  1
PLOTSETTINGS
  2
AcDbPlotSettings
  3
AutoCAD 2000
 90
        0
280
     0
281
     0
  0
CLASS
  1
LONG_TRANSACTION
  2
AcDbLongTransaction
  3
AutoCAD 2000
 90
        0
280
     0
281
     0
  0
CLASS
  1
LWPOLYLINE
  2
AcDbPolyline
  3
AutoCAD 2000
 90
        0
280
     0
281
     1
  0
CLASS
  1
HATCH
  2
AcDbHatch
  3
AutoCAD 2000
 90
        0
280
     0
281
     1
  0
CLASS
  1
XRECORD
  2
AcDbXrecord
  3
AutoCAD 2000
 90
        0
280
     0
281
     0
  0
CLASS
  1
LONG_TRANSACTION
  2
AcDbLongTransaction
  3
AutoCAD 2000
 90
        0
280
     0
281
     0
  0
CLASS
  1
LWPOLYLINE
  2
AcDbPolyline
  3
AutoCAD 2000
 90
        0
280
     0
281
     1
  0
CLASS
  1
HATCH
  2
AcDbHatch
  3
AutoCAD 2000
 90
        0
280
     0
281
     1
  0
CLASS
  1
XRECORD
  2
AcDbXrecord
  3
AutoCAD 2000
 90
        0
280
     0
281
     0
  0
ENDSEC
  0
SECTION
  2
TABLES
  0
TABLE
  2
VPORT
  5
8
330
0
100
AcDbSymbolTable
 70
     2
  0
VPORT
  5
130B
330
8
100
AcDbSymbolTableRecord
100
AcDbViewportTableRecord
  2
*ACTIVE
 70
     0
 10
0.0
 20
0.0
 11
1.0
 21
1.0
 12
40.7941416
 22
14.65275389
 13
0.0
 23
0.0
 14
7.0
 24
7.0
 15
7.0
 25
7.0
 16
0.0
 26
0.0
 36
1.0
 17
0.0
 27
0.0
 37
0.0
 40
148.05439877
 41
1.45595855
 42
50.0
 43
0.0
 44
0.0
 50
0.0
 51
0.0
 71
     0
 72
  2000
 73
     1
 74
     0
 75
     0
 76
     0
 77
     0
 78
     0
  0
ENDTAB
  0
TABLE
  2
LTYPE
  5
5
330
0
100
AcDbSymbolTable
 70
     4
  0
LTYPE
  5
14
330
5
100
AcDbSymbolTableRecord
100
AcDbLinetypeTableRecord
  2
BYBLOCK
 70
     0
  3

 72
    65
 73
     0
 40
0.0
  0
LTYPE
  5
15
330
5
100
AcDbSymbolTableRecord
100
AcDbLinetypeTableRecord
  2
BYLAYER
 70
     0
  3

 72
    65
 73
     0
 40
0.0
  0
LTYPE
  5
16
330
5
100
AcDbSymbolTableRecord
100
AcDbLinetypeTableRecord
  2
CONTINUOUS
 70
     0
  3
Solid line
 72
    65
 73
     0
 40
0.0
  0
LTYPE
  5
258
330
5
100
AcDbSymbolTableRecord
100
AcDbLinetypeTableRecord
  2
CENTER2
 70
     0
  3
___ _ ___ _ ___ _ ___ _ ___ _ ___ _ ___ _ ___ _
 72
    65
 73
     4
 40
1.125
 49
0.75
 74
     0
 49
-0.125
 74
     0
 49
0.125
 74
     0
 49
-0.125
 74
     0
  0
LTYPE
  5
25C
330
5
100
AcDbSymbolTableRecord
100
AcDbLinetypeTableRecord
  2
HIDDEN2
 70
     0
  3
_ _ _ _ _ _ _ _ _ _ _ _ _ _ _ _ _ _ _ _ _ _ _ _
 72
    65
 73
     2
 40
0.1875
 49
0.125
 74
     0
 49
-0.0625
 74
     0
  0
LTYPE
  5
25D
330
5
100
AcDbSymbolTableRecord
100
AcDbLinetypeTableRecord
  2
PHANTOM2
 70
     0
  3
___ _ _ ___ _ _ ___ _ _ ___ _ _ ___ _ _ ___ _ _
 72
    65
 73
     6
 40
1.25
 49
0.625
 74
     0
 49
-0.125
 74
     0
 49
0.125
 74
     0
 49
-0.125
 74
     0
 49
0.125
 74
     0
 49
-0.125
 74
     0
  0
ENDTAB
  0
TABLE
  2
LAYER
  5
2
330
0
100
AcDbSymbolTable
 70
    11
  0
LAYER
  5
F
330
2
100
AcDbSymbolTableRecord
100
AcDbLayerTableRecord
  2
0
 70
     0
 62
     7
  6
CONTINUOUS
  0
LAYER
  5
1AA
330
2
100
AcDbSymbolTableRecord
100
AcDbLayerTableRecord
  2
240
 70
     0
 62
     4
  6
CONTINUOUS
  0
LAYER
  5
1AB
330
2
100
AcDbSymbolTableRecord
100
AcDbLayerTableRecord
  2
241
 70
     0
 62
   211
  6
CONTINUOUS
  0
LAYER
  5
1AF
330
2
100
AcDbSymbolTableRecord
100
AcDbLayerTableRecord
  2
245
 70
     0
 62
     2
  6
CENTER2
  0
LAYER
  5
21A
330
2
100
AcDbSymbolTableRecord
100
AcDbLayerTableRecord
  2
246
 70
     0
 62
     3
  6
PHANTOM2
  0
LAYER
  5
21E
330
2
100
AcDbSymbolTableRecord
100
AcDbLayerTableRecord
  2
250
 70
     0
 62
     3
  6
CONTINUOUS
  0
LAYER
  5
5C4
330
2
100
AcDbSymbolTableRecord
100
AcDbLayerTableRecord
  2
DEFPOINTS
 70
     0
 62
     7
  6
CONTINUOUS
  0
ENDTAB
  0
TABLE
  2
STYLE
  5
3
330
0
100
AcDbSymbolTable
 70
     2
  0
STYLE
  5
10
330
3
100
AcDbSymbolTableRecord
100
AcDbTextStyleTableRecord
  2
STANDARD
 70
     0
 40
0.0
 41
1.0
 50
0.0
 71
     0
 42
3.0
  3
romans.shx
  4
BIGFONT.SHX
  0
STYLE
  5
339
330
3
100
AcDbSymbolTableRecord
100
AcDbTextStyleTableRecord
  2
YOKO
 70
     0
 40
0.0
 41
1.0
 50
0.0
 71
     0
 42
3.0
  3
romans.shx
  4
extfont.shx
  0
ENDTAB
  0
TABLE
  2
VIEW
  5
6
330
0
100
AcDbSymbolTable
 70
     0
  0
ENDTAB
  0
TABLE
  2
UCS
  5
7
330
0
100
AcDbSymbolTable
 70
     0
  0
ENDTAB
  0
TABLE
  2
APPID
  5
9
330
0
100
AcDbSymbolTable
 70
    12
  0
APPID
  5
11
330
9
100
AcDbSymbolTableRecord
100
AcDbRegAppTableRecord
  2
ACAD
 70
     0
  0
APPID
  5
1B1
330
9
100
AcDbSymbolTableRecord
100
AcDbRegAppTableRecord
  2
GLOBAL
 70
     0
  0
APPID
  5
2A4
330
9
100
AcDbSymbolTableRecord
100
AcDbRegAppTableRecord
  2
DETAIL
 70
     0
  0
APPID
  5
5FD
330
9
100
AcDbSymbolTableRecord
100
AcDbRegAppTableRecord
  2
GRPNAME
 70
     0
  0
APPID
  5
5FE
330
9
100
AcDbSymbolTableRecord
100
AcDbRegAppTableRecord
  2
GPARA
 70
     0
  0
APPID
  5
6C4
330
9
100
AcDbSymbolTableRecord
100
AcDbRegAppTableRecord
  2
DCO15
 70
     0
  0
APPID
  5
6C5
330
9
100
AcDbSymbolTableRecord
100
AcDbRegAppTableRecord
  2
ITEMNAME
 70
     0
  0
APPID
  5
6C6
330
9
100
AcDbSymbolTableRecord
100
AcDbRegAppTableRecord
  2
GRADE_0
 70
     0
  0
APPID
  5
9E0
330
9
100
AcDbSymbolTableRecord
100
AcDbRegAppTableRecord
  2
HATCH_TYPE
 70
     0
  0
APPID
  5
9E1
330
9
100
AcDbSymbolTableRecord
100
AcDbRegAppTableRecord
  2
HATCH_DISPLAY
 70
     0
  0
APPID
  5
9E2
330
9
100
AcDbSymbolTableRecord
100
AcDbRegAppTableRecord
  2
HATCH_DISTANCE
 70
     0
  0
APPID
  5
F29
330
9
100
AcDbSymbolTableRecord
100
AcDbRegAppTableRecord
  2
CONTENTBLOCKICON
 70
     0
  0
ENDTAB
  0
TABLE
  2
DIMSTYLE
  5
A
330
0
100
AcDbSymbolTable
 70
     4
  0
DIMSTYLE
105
725
102
{ACAD_REACTORS
330
C7C
330
C8B
330
C9A
330
CA9
102
}
330
A
100
AcDbSymbolTableRecord
100
AcDbDimStyleTableRecord
  2
BIGT
 70
     0
  3

  4

  5

  6
OPEN
  7
OPEN
 40
1.0
 41
2.23
 42
0.5
 43
2.5
 44
1.0
 45
0.0
 46
0.0
 47
0.0
 48
0.0
140
2.8
141
0.0
142
0.0
143
25.4
144
1.0
145
0.0
146
1.0
147
1.0
 71
     0
 72
     0
 73
     0
 74
     0
 75
     0
 76
     0
 77
     3
 78
     8
170
     0
171
     2
172
     1
173
     1
174
     1
175
     0
176
   256
177
   256
178
    40
270
     2
271
     3
272
     3
273
     2
274
     2
340
10
275
     0
280
     0
281
     0
282
     0
283
     1
284
     8
285
     0
286
     0
287
     3
288
     0
  0
ENDTAB
  0
TABLE
  2
BLOCK_RECORD
  5
1
330
0
100
AcDbSymbolTable
 70
     8
  0
BLOCK_RECORD
  5
1A
102
{ACAD_XDICTIONARY
360
F27
102
}
330
1
100
AcDbSymbolTableRecord
100
AcDbBlockTableRecord
  2
*MODEL_SPACE
  0
BLOCK_RECORD
  5
17
102
{ACAD_XDICTIONARY
360
F25
102
}
330
1
100
AcDbSymbolTableRecord
100
AcDbBlockTableRecord
  2
*PAPER_SPACE
  0
BLOCK_RECORD
  5
594
330
1
100
AcDbSymbolTableRecord
100
AcDbBlockTableRecord
  2
_OPEN
  0
BLOCK_RECORD
  5
6E3
330
1
100
AcDbSymbolTableRecord
100
AcDbBlockTableRecord
  2
矢印なし
  0
BLOCK_RECORD
  5
C7D
330
1
100
AcDbSymbolTableRecord
100
AcDbBlockTableRecord
  2
*D2
  0
BLOCK_RECORD
  5
C8C
330
1
100
AcDbSymbolTableRecord
100
AcDbBlockTableRecord
  2
*D3
  0
BLOCK_RECORD
  5
C9B
330
1
100
AcDbSymbolTableRecord
100
AcDbBlockTableRecord
  2
*D4
  0
BLOCK_RECORD
  5
CAA
330
1
100
AcDbSymbolTableRecord
100
AcDbBlockTableRecord
  2
*D5
  0
BLOCK_RECORD
  5
CF1
330
1
100
AcDbSymbolTableRecord
100
AcDbBlockTableRecord
  2
1
1001
CONTENTBLOCKICON
1071
        0
1004
2800000020000000200000000100080000000000000400000000000000000000000000000000000000000000000080000080000000808000800000008000800080800000C0C0C000C0DCC000F0CAA6000020400000206000002080000020A0000020C0000020E00000400000004020000040400000406000004080000040A0
1004
000040C0000040E00000600000006020000060400000606000006080000060A0000060C0000060E00000800000008020000080400000806000008080000080A0000080C0000080E00000A0000000A0200000A0400000A0600000A0800000A0A00000A0C00000A0E00000C0000000C0200000C0400000C0600000C0800000C0
1004
A00000C0C00000C0E00000E0000000E0200000E0400000E0600000E0800000E0A00000E0C00000E0E00040000000400020004000400040006000400080004000A0004000C0004000E00040200000402020004020400040206000402080004020A0004020C0004020E000404000004040200040404000404060004040800040
1004
40A0004040C0004040E00040600000406020004060400040606000406080004060A0004060C0004060E00040800000408020004080400040806000408080004080A0004080C0004080E00040A0000040A0200040A0400040A0600040A0800040A0A00040A0C00040A0E00040C0000040C0200040C0400040C0600040C08000
1004
40C0A00040C0C00040C0E00040E0000040E0200040E0400040E0600040E0800040E0A00040E0C00040E0E00080000000800020008000400080006000800080008000A0008000C0008000E00080200000802020008020400080206000802080008020A0008020C0008020E00080400000804020008040400080406000804080
1004
008040A0008040C0008040E00080600000806020008060400080606000806080008060A0008060C0008060E00080800000808020008080400080806000808080008080A0008080C0008080E00080A0000080A0200080A0400080A0600080A0800080A0A00080A0C00080A0E00080C0000080C0200080C0400080C0600080C0
1004
800080C0A00080C0C00080C0E00080E0000080E0200080E0400080E0600080E0800080E0A00080E0C00080E0E000C0000000C0002000C0004000C0006000C0008000C000A000C000C000C000E000C0200000C0202000C0204000C0206000C0208000C020A000C020C000C020E000C0400000C0402000C0404000C0406000C0
1004
408000C040A000C040C000C040E000C0600000C0602000C0604000C0606000C0608000C060A000C060C000C060E000C0800000C0802000C0804000C0806000C0808000C080A000C080C000C080E000C0A00000C0A02000C0A04000C0A06000C0A08000C0A0A000C0A0C000C0A0E000C0C00000C0C02000C0C04000C0C06000
1004
C0C08000C0C0A000F0FBFF00A4A0A000808080000000FF0000FF000000FFFF00FF000000FF00FF00FFFF0000FFFFFF0000000000000000000000000000000000000000000000000000000000000000000000000000000000000000000000000000000000000000000000000000000000000000000000000000000000000000
1004
00000000000000000000000000000000000000000000000000000000000000000000000000000000000000000000000000000000000000000000000000000000000000000000000000000000000000000000000000000000000000000000000000000000000000000000000000000000000000000000000000000000000000
1004
00000000000000000000000000000000000000000000000000000000000000000000000000000000000000000000000000000000000000000000000000000000000000000000000000000000000000000000000000000000000000000000000000000000000000000000000000000000000000000000000000000000000000
1004
000000000000000000000000000000000000000000000000000000000000FEFEFBFE0000000000000000000000000000000000000000000000000000FEFEFEE7FEE7FEFE0000000000000000000000000000000000000000FEFEFEFE0000E7E7E7E7E7E7FEFE000000000000000000000000000000FEFEFE000000000000E7
1004
E7E7E7E7E70000FEFEFEFEFEFEFEFEFEFEFA00000000FE0000000000000000E7E7E7E7E7E700000000E70000000000E7E7FE000000FBFEFBFBFBFBFBFBFBFBE7E7E7E7E7E7FBFBFBFBE7FBFBFBFBFBE7E7E7FB000000FEFEFE000000000000E7E7E7E7E7E70000FEFEFEFEFEFEFEFEFEFEFA00000000000000FEFEFEFE0000
1004
E7E7E7E7E7E7FEFE00000000000000000000000000000000000000000000FEFEFEE7FEE7E7E70000000000000000000000000000000000000000000000000000FEFEFBFE0000000000000000000000000000000000000000000000000000000000000000000000000000000000000000000000000000000000000000000000
1004
00000000000000000000000000000000000000000000000000000000000000000000000000000000000000000000000000000000000000000000000000000000000000000000000000000000000000000000000000000000000000000000000000000000000000000000000000000000000000000000000000000000000000
1004
00000000000000000000000000000000000000000000000000000000000000000000000000000000000000000000000000000000000000000000000000000000000000000000000000000000000000000000000000000000000000000000000000000000000000000000000000000000000000000000000000000000000000
1004
0000000000000000000000000000000000000000000000000000000000000000000000000000000000000000000000000000000000000000
  0
ENDTAB
  0
ENDSEC
  0
SECTION
  2
BLOCKS
  0
BLOCK
  5
1B
330
1A
100
AcDbEntity
  8
0
100
AcDbBlockBegin
  2
*MODEL_SPACE
 70
     0
 10
0.0
 20
0.0
 30
0.0
  3
*MODEL_SPACE
  1

  0
ENDBLK
  5
1C
330
1A
100
AcDbEntity
  8
0
100
AcDbBlockEnd
  0
BLOCK
  5
18
330
17
100
AcDbEntity
 67
     1
  8
0
100
AcDbBlockBegin
  2
*PAPER_SPACE
 70
     0
 10
0.0
 20
0.0
 30
0.0
  3
*PAPER_SPACE
  1

  0
ENDBLK
  5
19
330
17
100
AcDbEntity
 67
     1
  8
0
100
AcDbBlockEnd
  0
BLOCK
  5
598
330
594
100
AcDbEntity
  8
0
100
AcDbBlockBegin
  2
_OPEN
 70
     0
 10
0.0
 20
0.0
 30
0.0
  3
_OPEN
  1

  0
LINE
  5
595
330
594
100
AcDbEntity
  8
0
  6
BYBLOCK
 62
     0
100
AcDbLine
 10
-1.0
 20
0.16666667
 30
0.0
 11
0.0
 21
0.0
 31
0.0
  0
LINE
  5
596
330
594
100
AcDbEntity
  8
0
  6
BYBLOCK
 62
     0
100
AcDbLine
 10
-1.0
 20
-0.16666667
 30
0.0
 11
0.0
 21
0.0
 31
0.0
  0
LINE
  5
597
330
594
100
AcDbEntity
  8
0
  6
BYBLOCK
 62
     0
100
AcDbLine
 10
0.0
 20
0.0
 30
0.0
 11
-1.0
 21
0.0
 31
0.0
  0
ENDBLK
  5
599
330
594
100
AcDbEntity
  8
0
100
AcDbBlockEnd
  0
BLOCK
  5
6E4
330
6E3
100
AcDbEntity
  8
0
100
AcDbBlockBegin
  2
矢印なし
 70
     0
 10
0.0
 20
0.0
 30
0.0
  3
矢印なし
  1

  0
ENDBLK
  5
6E5
330
6E3
100
AcDbEntity
  8
0
100
AcDbBlockEnd
  0
BLOCK
  5
C87
330
C7D
100
AcDbEntity
  8
0
100
AcDbBlockBegin
  2
*D2
 70
     1
 10
0.0
 20
0.0
 30
0.0
  3
*D2
  1

  0
LINE
  5
CE8
330
C7D
100
AcDbEntity
  8
250
  6
CONTINUOUS
100
AcDbLine
 10
135.5
 20
-10.0
 30
0.0
 11
148.0
 21
-10.0
 31
0.0
  0
LINE
  5
CE9
330
C7D
100
AcDbEntity
  8
250
  6
CONTINUOUS
100
AcDbLine
 10
135.5
 20
10.0
 30
0.0
 11
148.0
 21
10.0
 31
0.0
  0
LINE
  5
CEA
330
C7D
100
AcDbEntity
  8
250
  6
CONTINUOUS
100
AcDbLine
 10
147.0
 20
-7.77
 30
0.0
 11
147.0
 21
7.77
 31
0.0
  0
INSERT
  5
CEB
330
C7D
100
AcDbEntity
  8
250
  6
CONTINUOUS
100
AcDbBlockReference
  2
_OPEN
 10
147.0
 20
-10.0
 30
0.0
 41
2.23
 42
2.23
 43
2.23
 50
270.0
  0
INSERT
  5
CEC
330
C7D
100
AcDbEntity
  8
250
  6
CONTINUOUS
100
AcDbBlockReference
  2
_OPEN
 10
147.0
 20
10.0
 30
0.0
 41
2.23
 42
2.23
 43
2.23
 50
90.0
  0
MTEXT
  5
CED
330
C7D
100
AcDbEntity
  8
250
  6
CONTINUOUS
 62
    40
100
AcDbMText
 10
144.6
 20
0.0
 30
0.0
 40
2.8
 41
0.0
 71
     5
 72
     1
  1
\A1;{\H2.8;\U+2205}20
 11
0.0
 21
1.0
 31
0.0
1001
ACAD
1000
MTEXTBEGIN
1070
    73
1070
     1
1070
    44
1040
1.0
1070
    74
1070
     0
1000
MTEXTEND
1000
MTEXTBEGIN
1070
    73
1070
     1
1070
    44
1040
1.0
1070
    74
1070
     0
1000
MTEXTEND
  0
POINT
  5
CEE
330
C7D
100
AcDbEntity
  8
DEFPOINTS
  6
CONTINUOUS
 62
     0
100
AcDbPoint
 10
135.0
 20
-10.0
 30
0.0
  0
POINT
  5
CEF
330
C7D
100
AcDbEntity
  8
DEFPOINTS
  6
CONTINUOUS
 62
     0
100
AcDbPoint
 10
135.0
 20
10.0
 30
0.0
  0
POINT
  5
CF0
330
C7D
100
AcDbEntity
  8
DEFPOINTS
  6
CONTINUOUS
 62
     0
100
AcDbPoint
 10
147.0
 20
10.0
 30
0.0
  0
ENDBLK
  5
C88
330
C7D
100
AcDbEntity
  8
0
100
AcDbBlockEnd
  0
BLOCK
  5
C96
330
C8C
100
AcDbEntity
  8
0
100
AcDbBlockBegin
  2
*D3
 70
     1
 10
0.0
 20
0.0
 30
0.0
  3
*D3
  1

  0
LINE
  5
CDF
330
C8C
100
AcDbEntity
  8
250
  6
CONTINUOUS
100
AcDbLine
 10
127.0
 20
10.5
 30
0.0
 11
127.0
 21
29.0
 31
0.0
  0
LINE
  5
CE0
330
C8C
100
AcDbEntity
  8
250
  6
CONTINUOUS
100
AcDbLine
 10
135.0
 20
10.5
 30
0.0
 11
135.0
 21
29.0
 31
0.0
  0
LINE
  5
CE1
330
C8C
100
AcDbEntity
  8
250
  6
CONTINUOUS
100
AcDbLine
 10
129.23
 20
28.0
 30
0.0
 11
132.77
 21
28.0
 31
0.0
  0
INSERT
  5
CE2
330
C8C
100
AcDbEntity
  8
250
  6
CONTINUOUS
100
AcDbBlockReference
  2
_OPEN
 10
127.0
 20
28.0
 30
0.0
 41
2.23
 42
2.23
 43
2.23
 50
180.0
  0
INSERT
  5
CE3
330
C8C
100
AcDbEntity
  8
250
  6
CONTINUOUS
100
AcDbBlockReference
  2
_OPEN
 10
135.0
 20
28.0
 30
0.0
 41
2.23
 42
2.23
 43
2.23
  0
MTEXT
  5
CE4
330
C8C
100
AcDbEntity
  8
250
  6
CONTINUOUS
 62
    40
100
AcDbMText
 10
131.0
 20
30.4
 30
0.0
 40
2.8
 41
0.0
 71
     5
 72
     1
  1
\A1;8
1001
ACAD
1000
MTEXTBEGIN
1070
    73
1070
     1
1070
    44
1040
1.0
1070
    74
1070
     0
1000
MTEXTEND
1000
MTEXTBEGIN
1070
    73
1070
     1
1070
    44
1040
1.0
1070
    74
1070
     0
1000
MTEXTEND
  0
POINT
  5
CE5
330
C8C
100
AcDbEntity
  8
DEFPOINTS
  6
CONTINUOUS
 62
     0
100
AcDbPoint
 10
127.0
 20
10.0
 30
0.0
  0
POINT
  5
CE6
330
C8C
100
AcDbEntity
  8
DEFPOINTS
  6
CONTINUOUS
 62
     0
100
AcDbPoint
 10
135.0
 20
10.0
 30
0.0
  0
POINT
  5
CE7
330
C8C
100
AcDbEntity
  8
DEFPOINTS
  6
CONTINUOUS
 62
     0
100
AcDbPoint
 10
135.0
 20
28.0
 30
0.0
  0
ENDBLK
  5
C97
330
C8C
100
AcDbEntity
  8
0
100
AcDbBlockEnd
  0
BLOCK
  5
CA5
330
C9B
100
AcDbEntity
  8
0
100
AcDbBlockBegin
  2
*D4
 70
     1
 10
0.0
 20
0.0
 30
0.0
  3
*D4
  1

  0
LINE
  5
CD6
330
C9B
100
AcDbEntity
  8
250
  6
CONTINUOUS
100
AcDbLine
 10
75.0
 20
9.97550951
 30
0.0
 11
75.0
 21
36.0
 31
0.0
  0
LINE
  5
CD7
330
C9B
100
AcDbEntity
  8
250
  6
CONTINUOUS
100
AcDbLine
 10
135.0
 20
10.5
 30
0.0
 11
135.0
 21
36.0
 31
0.0
  0
LINE
  5
CD8
330
C9B
100
AcDbEntity
  8
250
  6
CONTINUOUS
100
AcDbLine
 10
77.23
 20
35.0
 30
0.0
 11
132.77
 21
35.0
 31
0.0
  0
INSERT
  5
CD9
330
C9B
100
AcDbEntity
  8
250
  6
CONTINUOUS
100
AcDbBlockReference
  2
_OPEN
 10
75.0
 20
35.0
 30
0.0
 41
2.23
 42
2.23
 43
2.23
 50
180.0
  0
INSERT
  5
CDA
330
C9B
100
AcDbEntity
  8
250
  6
CONTINUOUS
100
AcDbBlockReference
  2
_OPEN
 10
135.0
 20
35.0
 30
0.0
 41
2.23
 42
2.23
 43
2.23
  0
MTEXT
  5
CDB
330
C9B
100
AcDbEntity
  8
250
  6
CONTINUOUS
 62
    40
100
AcDbMText
 10
105.0
 20
37.4
 30
0.0
 40
2.8
 41
0.0
 71
     5
 72
     1
  1
\A1;60
1001
ACAD
1000
MTEXTBEGIN
1070
    73
1070
     1
1070
    44
1040
1.0
1070
    74
1070
     0
1000
MTEXTEND
1000
MTEXTBEGIN
1070
    73
1070
     1
1070
    44
1040
1.0
1070
    74
1070
     0
1000
MTEXTEND
  0
POINT
  5
CDC
330
C9B
100
AcDbEntity
  8
DEFPOINTS
  6
CONTINUOUS
 62
     0
100
AcDbPoint
 10
75.0
 20
9.47550951
 30
0.0
  0
POINT
  5
CDD
330
C9B
100
AcDbEntity
  8
DEFPOINTS
  6
CONTINUOUS
 62
     0
100
AcDbPoint
 10
135.0
 20
10.0
 30
0.0
  0
POINT
  5
CDE
330
C9B
100
AcDbEntity
  8
DEFPOINTS
  6
CONTINUOUS
 62
     0
100
AcDbPoint
 10
135.0
 20
35.0
 30
0.0
  0
ENDBLK
  5
CA6
330
C9B
100
AcDbEntity
  8
0
100
AcDbBlockEnd
  0
BLOCK
  5
CB4
330
CAA
100
AcDbEntity
  8
0
100
AcDbBlockBegin
  2
*D5
 70
     1
 10
0.0
 20
0.0
 30
0.0
  3
*D5
  1

  0
LINE
  5
CCD
330
CAA
100
AcDbEntity
  8
250
  6
CONTINUOUS
100
AcDbLine
 10
0.0
 20
22.725
 30
0.0
 11
0.0
 21
43.0
 31
0.0
  0
LINE
  5
CCE
330
CAA
100
AcDbEntity
  8
250
  6
CONTINUOUS
100
AcDbLine
 10
135.0
 20
10.5
 30
0.0
 11
135.0
 21
43.0
 31
0.0
  0
LINE
  5
CCF
330
CAA
100
AcDbEntity
  8
250
  6
CONTINUOUS
100
AcDbLine
 10
2.23
 20
42.0
 30
0.0
 11
132.77
 21
42.0
 31
0.0
  0
INSERT
  5
CD0
330
CAA
100
AcDbEntity
  8
250
  6
CONTINUOUS
100
AcDbBlockReference
  2
_OPEN
 10
0.0
 20
42.0
 30
0.0
 41
2.23
 42
2.23
 43
2.23
 50
180.0
  0
INSERT
  5
CD1
330
CAA
100
AcDbEntity
  8
250
  6
CONTINUOUS
100
AcDbBlockReference
  2
_OPEN
 10
135.0
 20
42.0
 30
0.0
 41
2.23
 42
2.23
 43
2.23
  0
MTEXT
  5
CD2
330
CAA
100
AcDbEntity
  8
250
  6
CONTINUOUS
 62
    40
100
AcDbMText
 10
67.5
 20
44.4
 30
0.0
 40
2.8
 41
0.0
 71
     5
 72
     1
  1
\A1;135
1001
ACAD
1000
MTEXTBEGIN
1070
    73
1070
     1
1070
    44
1040
1.0
1070
    74
1070
     0
1000
MTEXTEND
1000
MTEXTBEGIN
1070
    73
1070
     1
1070
    44
1040
1.0
1070
    74
1070
     0
1000
MTEXTEND
  0
POINT
  5
CD3
330
CAA
100
AcDbEntity
  8
DEFPOINTS
  6
CONTINUOUS
 62
     0
100
AcDbPoint
 10
0.0
 20
22.225
 30
0.0
  0
POINT
  5
CD4
330
CAA
100
AcDbEntity
  8
DEFPOINTS
  6
CONTINUOUS
 62
     0
100
AcDbPoint
 10
135.0
 20
10.0
 30
0.0
  0
POINT
  5
CD5
330
CAA
100
AcDbEntity
  8
DEFPOINTS
  6
CONTINUOUS
 62
     0
100
AcDbPoint
 10
135.0
 20
42.0
 30
0.0
  0
ENDBLK
  5
CB5
330
CAA
100
AcDbEntity
  8
0
100
AcDbBlockEnd
  0
BLOCK
  5
CF2
330
CF1
100
AcDbEntity
  8
0
100
AcDbBlockBegin
  2
1
 70
     0
 10
0.0
 20
0.0
 30
0.0
  3
1
  1

  0
LINE
  5
11B2
330
CF1
100
AcDbEntity
  8
240
  6
CONTINUOUS
100
AcDbLine
 10
21.6
 20
31.5
 30
0.0
 11
26.0
 21
31.5
 31
0.0
  0
LINE
  5
11B3
330
CF1
100
AcDbEntity
  8
240
  6
CONTINUOUS
100
AcDbLine
 10
21.6
 20
-31.5
 30
0.0
 11
26.0
 21
-31.5
 31
0.0
  0
LINE
  5
11B4
330
CF1
100
AcDbEntity
  8
245
100
AcDbLine
 10
-66.4
 20
0.0
 30
0.0
 11
136.0
 21
0.0
 31
0.0
  0
LINE
  5
11B5
330
CF1
100
AcDbEntity
  8
241
  6
HIDDEN2
100
AcDbLine
 10
23.0
 20
22.5
 30
0.0
 11
23.0
 21
31.5
 31
0.0
  0
LINE
  5
11B6
330
CF1
100
AcDbEntity
  8
240
  6
CONTINUOUS
100
AcDbLine
 10
21.6
 20
31.5
 30
0.0
 11
18.71324865
 21
26.5
 31
0.0
  0
LINE
  5
11B7
330
CF1
100
AcDbEntity
  8
240
  6
CONTINUOUS
100
AcDbLine
 10
1.0
 20
22.225
 30
0.0
 11
1.0
 21
30.5
 31
0.0
  0
LINE
  5
11B8
330
CF1
100
AcDbEntity
  8
240
  6
CONTINUOUS
100
AcDbLine
 10
11.6
 20
31.5
 30
0.0
 11
14.48675135
 21
26.5
 31
0.0
  0
LINE
  5
11B9
330
CF1
100
AcDbEntity
  8
241
  6
CONTINUOUS
100
AcDbLine
 10
11.6
 20
31.5
 30
0.0
 11
11.6
 21
0.0
 31
0.0
  0
LINE
  5
11BA
330
CF1
100
AcDbEntity
  8
241
  6
CONTINUOUS
100
AcDbLine
 10
21.6
 20
0.0
 30
0.0
 11
21.6
 21
31.5
 31
0.0
  0
LINE
  5
11BB
330
CF1
100
AcDbEntity
  8
245
  6
CENTER2
100
AcDbLine
 10
16.6
 20
-31.5
 30
0.0
 11
16.6
 21
31.5
 31
0.0
  0
LINE
  5
11BC
330
CF1
100
AcDbEntity
  8
240
  6
CONTINUOUS
100
AcDbLine
 10
0.0
 20
-22.225
 30
0.0
 11
-64.03089103
 21
-12.88716173
 31
0.0
  0
LINE
  5
11BD
330
CF1
100
AcDbEntity
  8
240
  6
CONTINUOUS
100
AcDbLine
 10
0.0
 20
22.225
 30
0.0
 11
-64.03089103
 21
12.88716173
 31
0.0
  0
LINE
  5
11BE
330
CF1
100
AcDbEntity
  8
240
  6
CONTINUOUS
100
AcDbLine
 10
-65.4
 20
11.30390896
 30
0.0
 11
-65.4
 21
0.0
 31
0.0
  0
LINE
  5
11BF
330
CF1
100
AcDbEntity
  8
240
  6
CONTINUOUS
100
AcDbLine
 10
-65.4
 20
-11.30390896
 30
0.0
 11
-65.4
 21
0.0
 31
0.0
  0
ARC
  5
11C0
330
CF1
100
AcDbEntity
  8
240
  6
CONTINUOUS
100
AcDbCircle
 10
-63.8
 20
-11.30390896
 30
0.0
 40
1.6
100
AcDbArc
 50
180.0
 51
261.70285503
  0
ARC
  5
11C1
330
CF1
100
AcDbEntity
  8
240
  6
CONTINUOUS
100
AcDbCircle
 10
-63.8
 20
11.30390896
 30
0.0
 40
1.6
100
AcDbArc
 50
98.29714497
 51
180.0
  0
LINE
  5
11C2
330
CF1
100
AcDbEntity
  8
241
  6
CONTINUOUS
100
AcDbLine
 10
0.0
 20
-22.225
 30
0.0
 11
0.0
 21
0.0
 31
0.0
  0
LINE
  5
11C3
330
CF1
100
AcDbEntity
  8
241
100
AcDbLine
 10
1.0
 20
0.0
 30
0.0
 11
1.0
 21
-22.225
 31
0.0
  0
LINE
  5
11C4
330
CF1
100
AcDbEntity
  8
241
  6
CONTINUOUS
100
AcDbLine
 10
11.6
 20
-31.5
 30
0.0
 11
11.6
 21
0.0
 31
0.0
  0
LINE
  5
11C5
330
CF1
100
AcDbEntity
  8
241
  6
CONTINUOUS
100
AcDbLine
 10
21.6
 20
0.0
 30
0.0
 11
21.6
 21
-31.5
 31
0.0
  0
LINE
  5
11C6
330
CF1
100
AcDbEntity
  8
241
  6
CONTINUOUS
100
AcDbLine
 10
18.71324865
 20
-26.5
 30
0.0
 11
18.71324865
 21
0.0
 31
0.0
  0
LINE
  5
11C7
330
CF1
100
AcDbEntity
  8
241
  6
CONTINUOUS
100
AcDbLine
 10
14.48675135
 20
-26.5
 30
0.0
 11
14.48675135
 21
0.0
 31
0.0
  0
LINE
  5
11C8
330
CF1
100
AcDbEntity
  8
241
  6
HIDDEN2
100
AcDbLine
 10
23.0
 20
-22.5
 30
0.0
 11
1.0
 21
-22.5
 31
0.0
  0
LINE
  5
11C9
330
CF1
100
AcDbEntity
  8
240
  6
CONTINUOUS
100
AcDbLine
 10
2.0
 20
-31.5
 30
0.0
 11
11.6
 21
-31.5
 31
0.0
  0
LINE
  5
11CA
330
CF1
100
AcDbEntity
  8
240
  6
CONTINUOUS
100
AcDbLine
 10
1.0
 20
-22.225
 30
0.0
 11
1.0
 21
-30.5
 31
0.0
  0
ARC
  5
11CB
330
CF1
100
AcDbEntity
  8
240
  6
CONTINUOUS
100
AcDbCircle
 10
2.0
 20
-30.5
 30
0.0
 40
1.0
100
AcDbArc
 50
180.0
 51
270.0
  0
LINE
  5
11CC
330
CF1
100
AcDbEntity
  8
240
100
AcDbLine
 10
0.0
 20
-22.225
 30
0.0
 11
1.0
 21
-22.225
 31
0.0
  0
LINE
  5
11CD
330
CF1
100
AcDbEntity
  8
240
  6
CONTINUOUS
100
AcDbLine
 10
18.71324865
 20
-26.5
 30
0.0
 11
14.48675135
 21
-26.5
 31
0.0
  0
LINE
  5
11CE
330
CF1
100
AcDbEntity
  8
240
  6
CONTINUOUS
100
AcDbLine
 10
14.48675135
 20
-26.5
 30
0.0
 11
11.6
 21
-31.5
 31
0.0
  0
LINE
  5
11CF
330
CF1
100
AcDbEntity
  8
240
  6
CONTINUOUS
100
AcDbLine
 10
18.71324865
 20
-26.5
 30
0.0
 11
21.6
 21
-31.5
 31
0.0
  0
LINE
  5
11D0
330
CF1
100
AcDbEntity
  8
241
  6
HIDDEN2
100
AcDbLine
 10
23.0
 20
-22.5
 30
0.0
 11
23.0
 21
-31.5
 31
0.0
  0
LINE
  5
11D1
330
CF1
100
AcDbEntity
  8
241
  6
CONTINUOUS
100
AcDbLine
 10
14.48675135
 20
26.5
 30
0.0
 11
14.48675135
 21
0.0
 31
0.0
  0
LINE
  5
11D2
330
CF1
100
AcDbEntity
  8
241
  6
CONTINUOUS
100
AcDbLine
 10
18.71324865
 20
26.5
 30
0.0
 11
18.71324865
 21
0.0
 31
0.0
  0
LINE
  5
11D3
330
CF1
100
AcDbEntity
  8
241
  6
CONTINUOUS
100
AcDbLine
 10
0.0
 20
22.225
 30
0.0
 11
0.0
 21
0.0
 31
0.0
  0
LINE
  5
11D4
330
CF1
100
AcDbEntity
  8
241
100
AcDbLine
 10
1.0
 20
0.0
 30
0.0
 11
1.0
 21
22.225
 31
0.0
  0
LINE
  5
11D5
330
CF1
100
AcDbEntity
  8
241
  6
HIDDEN2
100
AcDbLine
 10
23.0
 20
22.5
 30
0.0
 11
1.0
 21
22.5
 31
0.0
  0
LINE
  5
11D6
330
CF1
100
AcDbEntity
  8
240
100
AcDbLine
 10
0.0
 20
22.225
 30
0.0
 11
1.0
 21
22.225
 31
0.0
  0
LINE
  5
11D7
330
CF1
100
AcDbEntity
  8
240
  6
CONTINUOUS
100
AcDbLine
 10
18.71324865
 20
26.5
 30
0.0
 11
14.48675135
 21
26.5
 31
0.0
  0
LINE
  5
11D8
330
CF1
100
AcDbEntity
  8
240
  6
CONTINUOUS
100
AcDbLine
 10
2.0
 20
31.5
 30
0.0
 11
11.6
 21
31.5
 31
0.0
  0
ARC
  5
11D9
330
CF1
100
AcDbEntity
  8
240
  6
CONTINUOUS
100
AcDbCircle
 10
2.0
 20
30.5
 30
0.0
 40
1.0
100
AcDbArc
 50
90.0
 51
180.0
  0
LINE
  5
11DA
330
CF1
100
AcDbEntity
  8
241
  6
CONTINUOUS
100
AcDbLine
 10
27.0
 20
0.0
 30
0.0
 11
27.0
 21
30.0
 31
0.0
  0
ARC
  5
11DB
330
CF1
100
AcDbEntity
  8
240
100
AcDbCircle
 10
32.0
 20
30.0
 30
0.0
 40
5.0
100
AcDbArc
 50
180.0
 51
249.51259705
  0
LINE
  5
11DC
330
CF1
100
AcDbEntity
  8
240
100
AcDbLine
 10
123.87572518
 20
9.25
 30
0.0
 11
78.67147329
 21
9.25
 31
0.0
  0
LINE
  5
11DD
330
CF1
100
AcDbEntity
  8
240
100
AcDbLine
 10
123.87572518
 20
-9.25
 30
0.0
 11
78.67147329
 21
-9.25
 31
0.0
  0
LINE
  5
11DE
330
CF1
100
AcDbEntity
  8
241
  6
CONTINUOUS
100
AcDbLine
 10
31.15794952
 20
-24.97701091
 30
0.0
 11
31.15794952
 21
0.0
 31
0.0
1001
GRPNAME
1000
PASTMD01
  0
LINE
  5
11DF
330
CF1
100
AcDbEntity
  8
241
  6
CONTINUOUS
100
AcDbLine
 10
32.28204864
 20
-24.55700953
 30
0.0
 11
32.28204864
 21
0.0
 31
0.0
1001
GRPNAME
1000
PASTMD01
  0
LINE
  5
11E0
330
CF1
100
AcDbEntity
  8
241
  6
CONTINUOUS
100
AcDbLine
 10
35.15794952
 20
-23.48247589
 30
0.0
 11
35.15794952
 21
0.0
 31
0.0
1001
GRPNAME
1000
PASTMD01
  0
LINE
  5
11E1
330
CF1
100
AcDbEntity
  8
241
  6
CONTINUOUS
100
AcDbLine
 10
36.28204864
 20
-23.06247451
 30
0.0
 11
36.28204864
 21
0.0
 31
0.0
1001
GRPNAME
1000
PASTMD01
  0
LINE
  5
11E2
330
CF1
100
AcDbEntity
  8
240
  6
CONTINUOUS
100
AcDbLine
 10
68.17143885
 20
-11.14752188
 30
0.0
 11
30.24999426
 21
-25.31625364
 31
0.0
  0
LINE
  5
11E3
330
CF1
100
AcDbEntity
  8
241
  6
CONTINUOUS
100
AcDbLine
 10
27.0
 20
0.0
 30
0.0
 11
27.0
 21
-30.0
 31
0.0
  0
ARC
  5
11E4
330
CF1
100
AcDbEntity
  8
240
  6
CONTINUOUS
100
AcDbCircle
 10
32.0
 20
-30.0
 30
0.0
 40
5.0
100
AcDbArc
 50
110.48738534
 51
180.0
  0
LINE
  5
11E5
330
CF1
100
AcDbEntity
  8
240
  6
CONTINUOUS
100
AcDbLine
 10
27.0
 20
-30.5
 30
0.0
 11
27.0
 21
-30.0
 31
0.0
  0
ARC
  5
11E6
330
CF1
100
AcDbEntity
  8
240
  6
CONTINUOUS
100
AcDbCircle
 10
26.0
 20
-30.5
 30
0.0
 40
1.0
100
AcDbArc
 50
270.0
 51
0.0
  0
LINE
  5
11E7
330
CF1
100
AcDbEntity
  8
240
  6
CONTINUOUS
100
AcDbLine
 10
68.17143885
 20
11.14752188
 30
0.0
 11
30.24999426
 21
25.31625364
 31
0.0
  0
LINE
  5
11E8
330
CF1
100
AcDbEntity
  8
241
  6
CONTINUOUS
100
AcDbLine
 10
36.28204864
 20
23.06247451
 30
0.0
 11
36.28204864
 21
0.0
 31
0.0
1001
GRPNAME
1000
PASTMD01
  0
LINE
  5
11E9
330
CF1
100
AcDbEntity
  8
241
  6
CONTINUOUS
100
AcDbLine
 10
35.15794952
 20
23.48247589
 30
0.0
 11
35.15794952
 21
0.0
 31
0.0
1001
GRPNAME
1000
PASTMD01
  0
LINE
  5
11EA
330
CF1
100
AcDbEntity
  8
241
  6
CONTINUOUS
100
AcDbLine
 10
32.28204864
 20
24.55700953
 30
0.0
 11
32.28204864
 21
0.0
 31
0.0
1001
GRPNAME
1000
PASTMD01
  0
LINE
  5
11EB
330
CF1
100
AcDbEntity
  8
241
  6
CONTINUOUS
100
AcDbLine
 10
31.15794952
 20
24.97701091
 30
0.0
 11
31.15794952
 21
0.0
 31
0.0
1001
GRPNAME
1000
PASTMD01
  0
LINE
  5
11EC
330
CF1
100
AcDbEntity
  8
241
100
AcDbLine
 10
73.25
 20
9.25
 30
0.0
 11
73.25
 21
0.0
 31
0.0
  0
LINE
  5
11ED
330
CF1
100
AcDbEntity
  8
241
100
AcDbLine
 10
73.25
 20
-9.25
 30
0.0
 11
73.25
 21
0.0
 31
0.0
  0
ARC
  5
11EE
330
CF1
100
AcDbEntity
  8
240
  6
CONTINUOUS
100
AcDbCircle
 10
78.67147329
 20
-39.25
 30
0.0
 40
30.0
100
AcDbArc
 50
90.0
 51
110.48738535
  0
ARC
  5
11EF
330
CF1
100
AcDbEntity
  8
240
  6
CONTINUOUS
100
AcDbCircle
 10
78.67147329
 20
39.25
 30
0.0
 40
30.0
100
AcDbArc
 50
249.51261465
 51
270.0
  0
LINE
  5
11F0
330
CF1
100
AcDbEntity
  8
240
100
AcDbLine
 10
134.25
 20
9.39776986
 30
0.0
 11
134.25
 21
1.09735373
 31
0.0
  0
LINE
  5
11F1
330
CF1
100
AcDbEntity
  8
246
100
AcDbLine
 10
135.0
 20
-10.0
 30
0.0
 11
135.0
 21
10.0
 31
0.0
  0
LINE
  5
11F2
330
CF1
100
AcDbEntity
  8
241
100
AcDbLine
 10
118.64497901
 20
-5.06571999
 30
0.0
 11
134.25
 21
-8.8312396
 31
0.0
  0
ARC
  5
11F3
330
CF1
100
AcDbEntity
  8
241
100
AcDbCircle
 10
119.37893004
 20
-2.024089
 30
0.0
 40
3.128930035431663
100
AcDbArc
 50
79.9999824
 51
256.43374474
  0
LINE
  5
11F4
330
CF1
100
AcDbEntity
  8
240
100
AcDbLine
 10
134.25
 20
-9.39776986
 30
0.0
 11
134.25
 21
-3.24502232
 31
0.0
  0
LINE
  5
11F5
330
CF1
100
AcDbEntity
  8
240
100
AcDbLine
 10
134.25
 20
-9.39776986
 30
0.0
 11
125.18194299
 21
-9.6
 31
0.0
  0
LINE
  5
11F6
330
CF1
100
AcDbEntity
  8
246
100
AcDbLine
 10
127.0
 20
-10.0
 30
0.0
 11
135.0
 21
-10.0
 31
0.0
  0
LINE
  5
11F7
330
CF1
100
AcDbEntity
  8
240
100
AcDbLine
 10
123.87572518
 20
-9.25
 30
0.0
 11
125.18194299
 21
-9.6
 31
0.0
  0
LINE
  5
11F8
330
CF1
100
AcDbEntity
  8
241
100
AcDbLine
 10
125.18194298
 20
2.69629684
 30
0.0
 11
134.18414098
 21
1.10896645
 31
0.0
  0
LINE
  5
11F9
330
CF1
100
AcDbEntity
  8
241
100
AcDbLine
 10
123.92202417
 20
0.51405346
 30
0.0
 11
134.25
 21
-3.24502232
 31
0.0
  0
LINE
  5
11FA
330
CF1
100
AcDbEntity
  8
241
100
AcDbLine
 10
125.18194298
 20
2.69629684
 30
0.0
 11
123.83712813
 21
0.36700921
 31
0.0
  0
LINE
  5
11FB
330
CF1
100
AcDbEntity
  8
241
100
AcDbLine
 10
123.83712813
 20
0.36700921
 30
0.0
 11
119.92226303
 21
1.05730555
 31
0.0
  0
LINE
  5
11FC
330
CF1
100
AcDbEntity
  8
240
100
AcDbLine
 10
134.18414098
 20
1.10896645
 30
0.0
 11
135.0
 21
-3.518
 31
0.0
  0
LINE
  5
11FD
330
CF1
100
AcDbEntity
  8
240
100
AcDbLine
 10
135.0
 20
-3.518
 30
0.0
 11
134.25
 21
-3.24502232
 31
0.0
  0
LINE
  5
11FE
330
CF1
100
AcDbEntity
  8
240
100
AcDbLine
 10
134.25
 20
1.09735373
 30
0.0
 11
134.18414098
 21
1.10896645
 31
0.0
  0
LINE
  5
11FF
330
CF1
100
AcDbEntity
  8
240
100
AcDbLine
 10
134.25
 20
9.39776986
 30
0.0
 11
125.18194299
 21
9.6
 31
0.0
  0
POLYLINE
  5
1200
330
CF1
100
AcDbEntity
  8
241
100
AcDb3dPolyline
 66
     1
 10
0.0
 20
0.0
 30
0.0
 70
     8
  0
VERTEX
  5
1201
330
1200
100
AcDbEntity
  8
241
100
AcDbVertex
100
AcDb3dPolylineVertex
 10
131.351
 20
6.2117
 30
0.0
 70
    32
  0
VERTEX
  5
1202
330
1200
100
AcDbEntity
  8
241
100
AcDbVertex
100
AcDb3dPolylineVertex
 10
131.356
 20
6.23947
 30
0.0
 70
    32
  0
VERTEX
  5
1203
330
1200
100
AcDbEntity
  8
241
100
AcDbVertex
100
AcDb3dPolylineVertex
 10
131.359
 20
6.26737
 30
0.0
 70
    32
  0
VERTEX
  5
1204
330
1200
100
AcDbEntity
  8
241
100
AcDbVertex
100
AcDb3dPolylineVertex
 10
131.362
 20
6.29537
 30
0.0
 70
    32
  0
VERTEX
  5
1205
330
1200
100
AcDbEntity
  8
241
100
AcDbVertex
100
AcDb3dPolylineVertex
 10
131.364
 20
6.32346
 30
0.0
 70
    32
  0
VERTEX
  5
1206
330
1200
100
AcDbEntity
  8
241
100
AcDbVertex
100
AcDb3dPolylineVertex
 10
131.365
 20
6.35163
 30
0.0
 70
    32
  0
VERTEX
  5
1207
330
1200
100
AcDbEntity
  8
241
100
AcDbVertex
100
AcDb3dPolylineVertex
 10
131.366
 20
6.37985
 30
0.0
 70
    32
  0
VERTEX
  5
1208
330
1200
100
AcDbEntity
  8
241
100
AcDbVertex
100
AcDb3dPolylineVertex
 10
131.366
 20
6.40811
 30
0.0
 70
    32
  0
VERTEX
  5
1209
330
1200
100
AcDbEntity
  8
241
100
AcDbVertex
100
AcDb3dPolylineVertex
 10
131.364
 20
6.4364
 30
0.0
 70
    32
  0
VERTEX
  5
120A
330
1200
100
AcDbEntity
  8
241
100
AcDbVertex
100
AcDb3dPolylineVertex
 10
131.362
 20
6.46469
 30
0.0
 70
    32
  0
VERTEX
  5
120B
330
1200
100
AcDbEntity
  8
241
100
AcDbVertex
100
AcDb3dPolylineVertex
 10
131.36
 20
6.49297
 30
0.0
 70
    32
  0
VERTEX
  5
120C
330
1200
100
AcDbEntity
  8
241
100
AcDbVertex
100
AcDb3dPolylineVertex
 10
131.356
 20
6.52123
 30
0.0
 70
    32
  0
VERTEX
  5
120D
330
1200
100
AcDbEntity
  8
241
100
AcDbVertex
100
AcDb3dPolylineVertex
 10
131.352
 20
6.54944
 30
0.0
 70
    32
  0
VERTEX
  5
120E
330
1200
100
AcDbEntity
  8
241
100
AcDbVertex
100
AcDb3dPolylineVertex
 10
131.346
 20
6.57758
 30
0.0
 70
    32
  0
VERTEX
  5
120F
330
1200
100
AcDbEntity
  8
241
100
AcDbVertex
100
AcDb3dPolylineVertex
 10
131.34
 20
6.60565
 30
0.0
 70
    32
  0
VERTEX
  5
1210
330
1200
100
AcDbEntity
  8
241
100
AcDbVertex
100
AcDb3dPolylineVertex
 10
131.334
 20
6.63362
 30
0.0
 70
    32
  0
VERTEX
  5
1211
330
1200
100
AcDbEntity
  8
241
100
AcDbVertex
100
AcDb3dPolylineVertex
 10
131.326
 20
6.66147
 30
0.0
 70
    32
  0
VERTEX
  5
1212
330
1200
100
AcDbEntity
  8
241
100
AcDbVertex
100
AcDb3dPolylineVertex
 10
131.318
 20
6.6892
 30
0.0
 70
    32
  0
VERTEX
  5
1213
330
1200
100
AcDbEntity
  8
241
100
AcDbVertex
100
AcDb3dPolylineVertex
 10
131.309
 20
6.71678
 30
0.0
 70
    32
  0
VERTEX
  5
1214
330
1200
100
AcDbEntity
  8
241
100
AcDbVertex
100
AcDb3dPolylineVertex
 10
131.299
 20
6.7442
 30
0.0
 70
    32
  0
VERTEX
  5
1215
330
1200
100
AcDbEntity
  8
241
100
AcDbVertex
100
AcDb3dPolylineVertex
 10
131.288
 20
6.77144
 30
0.0
 70
    32
  0
VERTEX
  5
1216
330
1200
100
AcDbEntity
  8
241
100
AcDbVertex
100
AcDb3dPolylineVertex
 10
131.276
 20
6.79848
 30
0.0
 70
    32
  0
VERTEX
  5
1217
330
1200
100
AcDbEntity
  8
241
100
AcDbVertex
100
AcDb3dPolylineVertex
 10
131.264
 20
6.82531
 30
0.0
 70
    32
  0
VERTEX
  5
1218
330
1200
100
AcDbEntity
  8
241
100
AcDbVertex
100
AcDb3dPolylineVertex
 10
131.251
 20
6.85191
 30
0.0
 70
    32
  0
VERTEX
  5
1219
330
1200
100
AcDbEntity
  8
241
100
AcDbVertex
100
AcDb3dPolylineVertex
 10
131.238
 20
6.87827
 30
0.0
 70
    32
  0
VERTEX
  5
121A
330
1200
100
AcDbEntity
  8
241
100
AcDbVertex
100
AcDb3dPolylineVertex
 10
131.223
 20
6.90437
 30
0.0
 70
    32
  0
VERTEX
  5
121B
330
1200
100
AcDbEntity
  8
241
100
AcDbVertex
100
AcDb3dPolylineVertex
 10
131.208
 20
6.93019
 30
0.0
 70
    32
  0
VERTEX
  5
121C
330
1200
100
AcDbEntity
  8
241
100
AcDbVertex
100
AcDb3dPolylineVertex
 10
131.192
 20
6.95572
 30
0.0
 70
    32
  0
VERTEX
  5
121D
330
1200
100
AcDbEntity
  8
241
100
AcDbVertex
100
AcDb3dPolylineVertex
 10
131.176
 20
6.98094
 30
0.0
 70
    32
  0
VERTEX
  5
121E
330
1200
100
AcDbEntity
  8
241
100
AcDbVertex
100
AcDb3dPolylineVertex
 10
131.158
 20
7.00584
 30
0.0
 70
    32
  0
VERTEX
  5
121F
330
1200
100
AcDbEntity
  8
241
100
AcDbVertex
100
AcDb3dPolylineVertex
 10
131.14
 20
7.03041
 30
0.0
 70
    32
  0
VERTEX
  5
1220
330
1200
100
AcDbEntity
  8
241
100
AcDbVertex
100
AcDb3dPolylineVertex
 10
131.122
 20
7.05462
 30
0.0
 70
    32
  0
VERTEX
  5
1221
330
1200
100
AcDbEntity
  8
241
100
AcDbVertex
100
AcDb3dPolylineVertex
 10
131.102
 20
7.07846
 30
0.0
 70
    32
  0
VERTEX
  5
1222
330
1200
100
AcDbEntity
  8
241
100
AcDbVertex
100
AcDb3dPolylineVertex
 10
131.082
 20
7.10193
 30
0.0
 70
    32
  0
VERTEX
  5
1223
330
1200
100
AcDbEntity
  8
241
100
AcDbVertex
100
AcDb3dPolylineVertex
 10
131.062
 20
7.125
 30
0.0
 70
    32
  0
VERTEX
  5
1224
330
1200
100
AcDbEntity
  8
241
100
AcDbVertex
100
AcDb3dPolylineVertex
 10
131.041
 20
7.14766
 30
0.0
 70
    32
  0
VERTEX
  5
1225
330
1200
100
AcDbEntity
  8
241
100
AcDbVertex
100
AcDb3dPolylineVertex
 10
131.019
 20
7.16989
 30
0.0
 70
    32
  0
VERTEX
  5
1226
330
1200
100
AcDbEntity
  8
241
100
AcDbVertex
100
AcDb3dPolylineVertex
 10
130.996
 20
7.1917
 30
0.0
 70
    32
  0
VERTEX
  5
1227
330
1200
100
AcDbEntity
  8
241
100
AcDbVertex
100
AcDb3dPolylineVertex
 10
130.973
 20
7.21305
 30
0.0
 70
    32
  0
VERTEX
  5
1228
330
1200
100
AcDbEntity
  8
241
100
AcDbVertex
100
AcDb3dPolylineVertex
 10
130.95
 20
7.23394
 30
0.0
 70
    32
  0
VERTEX
  5
1229
330
1200
100
AcDbEntity
  8
241
100
AcDbVertex
100
AcDb3dPolylineVertex
 10
130.926
 20
7.25435
 30
0.0
 70
    32
  0
VERTEX
  5
122A
330
1200
100
AcDbEntity
  8
241
100
AcDbVertex
100
AcDb3dPolylineVertex
 10
130.901
 20
7.27428
 30
0.0
 70
    32
  0
VERTEX
  5
122B
330
1200
100
AcDbEntity
  8
241
100
AcDbVertex
100
AcDb3dPolylineVertex
 10
130.876
 20
7.29371
 30
0.0
 70
    32
  0
VERTEX
  5
122C
330
1200
100
AcDbEntity
  8
241
100
AcDbVertex
100
AcDb3dPolylineVertex
 10
130.85
 20
7.31263
 30
0.0
 70
    32
  0
VERTEX
  5
122D
330
1200
100
AcDbEntity
  8
241
100
AcDbVertex
100
AcDb3dPolylineVertex
 10
130.824
 20
7.33103
 30
0.0
 70
    32
  0
VERTEX
  5
122E
330
1200
100
AcDbEntity
  8
241
100
AcDbVertex
100
AcDb3dPolylineVertex
 10
130.797
 20
7.34889
 30
0.0
 70
    32
  0
VERTEX
  5
122F
330
1200
100
AcDbEntity
  8
241
100
AcDbVertex
100
AcDb3dPolylineVertex
 10
130.77
 20
7.36622
 30
0.0
 70
    32
  0
VERTEX
  5
1230
330
1200
100
AcDbEntity
  8
241
100
AcDbVertex
100
AcDb3dPolylineVertex
 10
130.742
 20
7.38298
 30
0.0
 70
    32
  0
VERTEX
  5
1231
330
1200
100
AcDbEntity
  8
241
100
AcDbVertex
100
AcDb3dPolylineVertex
 10
130.714
 20
7.39918
 30
0.0
 70
    32
  0
VERTEX
  5
1232
330
1200
100
AcDbEntity
  8
241
100
AcDbVertex
100
AcDb3dPolylineVertex
 10
130.686
 20
7.41481
 30
0.0
 70
    32
  0
VERTEX
  5
1233
330
1200
100
AcDbEntity
  8
241
100
AcDbVertex
100
AcDb3dPolylineVertex
 10
130.657
 20
7.42986
 30
0.0
 70
    32
  0
VERTEX
  5
1234
330
1200
100
AcDbEntity
  8
241
100
AcDbVertex
100
AcDb3dPolylineVertex
 10
130.628
 20
7.44431
 30
0.0
 70
    32
  0
VERTEX
  5
1235
330
1200
100
AcDbEntity
  8
241
100
AcDbVertex
100
AcDb3dPolylineVertex
 10
130.598
 20
7.45816
 30
0.0
 70
    32
  0
VERTEX
  5
1236
330
1200
100
AcDbEntity
  8
241
100
AcDbVertex
100
AcDb3dPolylineVertex
 10
130.568
 20
7.4714
 30
0.0
 70
    32
  0
VERTEX
  5
1237
330
1200
100
AcDbEntity
  8
241
100
AcDbVertex
100
AcDb3dPolylineVertex
 10
130.538
 20
7.48402
 30
0.0
 70
    32
  0
VERTEX
  5
1238
330
1200
100
AcDbEntity
  8
241
100
AcDbVertex
100
AcDb3dPolylineVertex
 10
130.507
 20
7.49602
 30
0.0
 70
    32
  0
VERTEX
  5
1239
330
1200
100
AcDbEntity
  8
241
100
AcDbVertex
100
AcDb3dPolylineVertex
 10
130.476
 20
7.50739
 30
0.0
 70
    32
  0
VERTEX
  5
123A
330
1200
100
AcDbEntity
  8
241
100
AcDbVertex
100
AcDb3dPolylineVertex
 10
130.445
 20
7.51812
 30
0.0
 70
    32
  0
VERTEX
  5
123B
330
1200
100
AcDbEntity
  8
241
100
AcDbVertex
100
AcDb3dPolylineVertex
 10
130.414
 20
7.5282
 30
0.0
 70
    32
  0
VERTEX
  5
123C
330
1200
100
AcDbEntity
  8
241
100
AcDbVertex
100
AcDb3dPolylineVertex
 10
130.382
 20
7.53763
 30
0.0
 70
    32
  0
VERTEX
  5
123D
330
1200
100
AcDbEntity
  8
241
100
AcDbVertex
100
AcDb3dPolylineVertex
 10
130.35
 20
7.5464
 30
0.0
 70
    32
  0
VERTEX
  5
123E
330
1200
100
AcDbEntity
  8
241
100
AcDbVertex
100
AcDb3dPolylineVertex
 10
130.318
 20
7.55451
 30
0.0
 70
    32
  0
VERTEX
  5
123F
330
1200
100
AcDbEntity
  8
241
100
AcDbVertex
100
AcDb3dPolylineVertex
 10
130.286
 20
7.56195
 30
0.0
 70
    32
  0
VERTEX
  5
1240
330
1200
100
AcDbEntity
  8
241
100
AcDbVertex
100
AcDb3dPolylineVertex
 10
130.253
 20
7.56872
 30
0.0
 70
    32
  0
VERTEX
  5
1241
330
1200
100
AcDbEntity
  8
241
100
AcDbVertex
100
AcDb3dPolylineVertex
 10
130.221
 20
7.57481
 30
0.0
 70
    32
  0
VERTEX
  5
1242
330
1200
100
AcDbEntity
  8
241
100
AcDbVertex
100
AcDb3dPolylineVertex
 10
130.188
 20
7.58022
 30
0.0
 70
    32
  0
VERTEX
  5
1243
330
1200
100
AcDbEntity
  8
241
100
AcDbVertex
100
AcDb3dPolylineVertex
 10
130.155
 20
7.58495
 30
0.0
 70
    32
  0
VERTEX
  5
1244
330
1200
100
AcDbEntity
  8
241
100
AcDbVertex
100
AcDb3dPolylineVertex
 10
130.122
 20
7.589
 30
0.0
 70
    32
  0
VERTEX
  5
1245
330
1200
100
AcDbEntity
  8
241
100
AcDbVertex
100
AcDb3dPolylineVertex
 10
130.089
 20
7.59235
 30
0.0
 70
    32
  0
VERTEX
  5
1246
330
1200
100
AcDbEntity
  8
241
100
AcDbVertex
100
AcDb3dPolylineVertex
 10
130.056
 20
7.59502
 30
0.0
 70
    32
  0
VERTEX
  5
1247
330
1200
100
AcDbEntity
  8
241
100
AcDbVertex
100
AcDb3dPolylineVertex
 10
130.023
 20
7.59699
 30
0.0
 70
    32
  0
VERTEX
  5
1248
330
1200
100
AcDbEntity
  8
241
100
AcDbVertex
100
AcDb3dPolylineVertex
 10
129.99
 20
7.59827
 30
0.0
 70
    32
  0
VERTEX
  5
1249
330
1200
100
AcDbEntity
  8
241
100
AcDbVertex
100
AcDb3dPolylineVertex
 10
129.957
 20
7.59886
 30
0.0
 70
    32
  0
VERTEX
  5
124A
330
1200
100
AcDbEntity
  8
241
100
AcDbVertex
100
AcDb3dPolylineVertex
 10
129.925
 20
7.59875
 30
0.0
 70
    32
  0
VERTEX
  5
124B
330
1200
100
AcDbEntity
  8
241
100
AcDbVertex
100
AcDb3dPolylineVertex
 10
129.892
 20
7.59795
 30
0.0
 70
    32
  0
VERTEX
  5
124C
330
1200
100
AcDbEntity
  8
241
100
AcDbVertex
100
AcDb3dPolylineVertex
 10
129.859
 20
7.59645
 30
0.0
 70
    32
  0
VERTEX
  5
124D
330
1200
100
AcDbEntity
  8
241
100
AcDbVertex
100
AcDb3dPolylineVertex
 10
129.826
 20
7.59426
 30
0.0
 70
    32
  0
VERTEX
  5
124E
330
1200
100
AcDbEntity
  8
241
100
AcDbVertex
100
AcDb3dPolylineVertex
 10
129.794
 20
7.59138
 30
0.0
 70
    32
  0
VERTEX
  5
124F
330
1200
100
AcDbEntity
  8
241
100
AcDbVertex
100
AcDb3dPolylineVertex
 10
129.761
 20
7.58781
 30
0.0
 70
    32
  0
VERTEX
  5
1250
330
1200
100
AcDbEntity
  8
241
100
AcDbVertex
100
AcDb3dPolylineVertex
 10
129.729
 20
7.58355
 30
0.0
 70
    32
  0
VERTEX
  5
1251
330
1200
100
AcDbEntity
  8
241
100
AcDbVertex
100
AcDb3dPolylineVertex
 10
129.697
 20
7.57861
 30
0.0
 70
    32
  0
VERTEX
  5
1252
330
1200
100
AcDbEntity
  8
241
100
AcDbVertex
100
AcDb3dPolylineVertex
 10
129.665
 20
7.57298
 30
0.0
 70
    32
  0
VERTEX
  5
1253
330
1200
100
AcDbEntity
  8
241
100
AcDbVertex
100
AcDb3dPolylineVertex
 10
129.633
 20
7.56667
 30
0.0
 70
    32
  0
VERTEX
  5
1254
330
1200
100
AcDbEntity
  8
241
100
AcDbVertex
100
AcDb3dPolylineVertex
 10
129.602
 20
7.55969
 30
0.0
 70
    32
  0
VERTEX
  5
1255
330
1200
100
AcDbEntity
  8
241
100
AcDbVertex
100
AcDb3dPolylineVertex
 10
129.57
 20
7.55204
 30
0.0
 70
    32
  0
VERTEX
  5
1256
330
1200
100
AcDbEntity
  8
241
100
AcDbVertex
100
AcDb3dPolylineVertex
 10
129.539
 20
7.54373
 30
0.0
 70
    32
  0
VERTEX
  5
1257
330
1200
100
AcDbEntity
  8
241
100
AcDbVertex
100
AcDb3dPolylineVertex
 10
129.509
 20
7.53475
 30
0.0
 70
    32
  0
VERTEX
  5
1258
330
1200
100
AcDbEntity
  8
241
100
AcDbVertex
100
AcDb3dPolylineVertex
 10
129.478
 20
7.52512
 30
0.0
 70
    32
  0
VERTEX
  5
1259
330
1200
100
AcDbEntity
  8
241
100
AcDbVertex
100
AcDb3dPolylineVertex
 10
129.448
 20
7.51483
 30
0.0
 70
    32
  0
VERTEX
  5
125A
330
1200
100
AcDbEntity
  8
241
100
AcDbVertex
100
AcDb3dPolylineVertex
 10
129.419
 20
7.50391
 30
0.0
 70
    32
  0
VERTEX
  5
125B
330
1200
100
AcDbEntity
  8
241
100
AcDbVertex
100
AcDb3dPolylineVertex
 10
129.389
 20
7.49234
 30
0.0
 70
    32
  0
VERTEX
  5
125C
330
1200
100
AcDbEntity
  8
241
100
AcDbVertex
100
AcDb3dPolylineVertex
 10
129.361
 20
7.48015
 30
0.0
 70
    32
  0
VERTEX
  5
125D
330
1200
100
AcDbEntity
  8
241
100
AcDbVertex
100
AcDb3dPolylineVertex
 10
129.332
 20
7.46733
 30
0.0
 70
    32
  0
VERTEX
  5
125E
330
1200
100
AcDbEntity
  8
241
100
AcDbVertex
100
AcDb3dPolylineVertex
 10
129.304
 20
7.4539
 30
0.0
 70
    32
  0
VERTEX
  5
125F
330
1200
100
AcDbEntity
  8
241
100
AcDbVertex
100
AcDb3dPolylineVertex
 10
129.276
 20
7.43986
 30
0.0
 70
    32
  0
VERTEX
  5
1260
330
1200
100
AcDbEntity
  8
241
100
AcDbVertex
100
AcDb3dPolylineVertex
 10
129.249
 20
7.42522
 30
0.0
 70
    32
  0
VERTEX
  5
1261
330
1200
100
AcDbEntity
  8
241
100
AcDbVertex
100
AcDb3dPolylineVertex
 10
129.222
 20
7.40999
 30
0.0
 70
    32
  0
VERTEX
  5
1262
330
1200
100
AcDbEntity
  8
241
100
AcDbVertex
100
AcDb3dPolylineVertex
 10
129.196
 20
7.39418
 30
0.0
 70
    32
  0
VERTEX
  5
1263
330
1200
100
AcDbEntity
  8
241
100
AcDbVertex
100
AcDb3dPolylineVertex
 10
129.17
 20
7.3778
 30
0.0
 70
    32
  0
VERTEX
  5
1264
330
1200
100
AcDbEntity
  8
241
100
AcDbVertex
100
AcDb3dPolylineVertex
 10
129.145
 20
7.36086
 30
0.0
 70
    32
  0
VERTEX
  5
1265
330
1200
100
AcDbEntity
  8
241
100
AcDbVertex
100
AcDb3dPolylineVertex
 10
129.12
 20
7.34337
 30
0.0
 70
    32
  0
VERTEX
  5
1266
330
1200
100
AcDbEntity
  8
241
100
AcDbVertex
100
AcDb3dPolylineVertex
 10
129.096
 20
7.32534
 30
0.0
 70
    32
  0
VERTEX
  5
1267
330
1200
100
AcDbEntity
  8
241
100
AcDbVertex
100
AcDb3dPolylineVertex
 10
129.072
 20
7.30677
 30
0.0
 70
    32
  0
VERTEX
  5
1268
330
1200
100
AcDbEntity
  8
241
100
AcDbVertex
100
AcDb3dPolylineVertex
 10
129.049
 20
7.28769
 30
0.0
 70
    32
  0
VERTEX
  5
1269
330
1200
100
AcDbEntity
  8
241
100
AcDbVertex
100
AcDb3dPolylineVertex
 10
129.027
 20
7.26811
 30
0.0
 70
    32
  0
VERTEX
  5
126A
330
1200
100
AcDbEntity
  8
241
100
AcDbVertex
100
AcDb3dPolylineVertex
 10
129.005
 20
7.24802
 30
0.0
 70
    32
  0
VERTEX
  5
126B
330
1200
100
AcDbEntity
  8
241
100
AcDbVertex
100
AcDb3dPolylineVertex
 10
128.984
 20
7.22746
 30
0.0
 70
    32
  0
VERTEX
  5
126C
330
1200
100
AcDbEntity
  8
241
100
AcDbVertex
100
AcDb3dPolylineVertex
 10
128.963
 20
7.20642
 30
0.0
 70
    32
  0
VERTEX
  5
126D
330
1200
100
AcDbEntity
  8
241
100
AcDbVertex
100
AcDb3dPolylineVertex
 10
128.943
 20
7.18493
 30
0.0
 70
    32
  0
VERTEX
  5
126E
330
1200
100
AcDbEntity
  8
241
100
AcDbVertex
100
AcDb3dPolylineVertex
 10
128.924
 20
7.16299
 30
0.0
 70
    32
  0
VERTEX
  5
126F
330
1200
100
AcDbEntity
  8
241
100
AcDbVertex
100
AcDb3dPolylineVertex
 10
128.905
 20
7.14062
 30
0.0
 70
    32
  0
VERTEX
  5
1270
330
1200
100
AcDbEntity
  8
241
100
AcDbVertex
100
AcDb3dPolylineVertex
 10
128.887
 20
7.11783
 30
0.0
 70
    32
  0
VERTEX
  5
1271
330
1200
100
AcDbEntity
  8
241
100
AcDbVertex
100
AcDb3dPolylineVertex
 10
128.869
 20
7.09464
 30
0.0
 70
    32
  0
VERTEX
  5
1272
330
1200
100
AcDbEntity
  8
241
100
AcDbVertex
100
AcDb3dPolylineVertex
 10
128.853
 20
7.07105
 30
0.0
 70
    32
  0
VERTEX
  5
1273
330
1200
100
AcDbEntity
  8
241
100
AcDbVertex
100
AcDb3dPolylineVertex
 10
128.837
 20
7.04709
 30
0.0
 70
    32
  0
VERTEX
  5
1274
330
1200
100
AcDbEntity
  8
241
100
AcDbVertex
100
AcDb3dPolylineVertex
 10
128.822
 20
7.02277
 30
0.0
 70
    32
  0
VERTEX
  5
1275
330
1200
100
AcDbEntity
  8
241
100
AcDbVertex
100
AcDb3dPolylineVertex
 10
128.807
 20
6.9981
 30
0.0
 70
    32
  0
VERTEX
  5
1276
330
1200
100
AcDbEntity
  8
241
100
AcDbVertex
100
AcDb3dPolylineVertex
 10
128.793
 20
6.97309
 30
0.0
 70
    32
  0
VERTEX
  5
1277
330
1200
100
AcDbEntity
  8
241
100
AcDbVertex
100
AcDb3dPolylineVertex
 10
128.78
 20
6.94777
 30
0.0
 70
    32
  0
VERTEX
  5
1278
330
1200
100
AcDbEntity
  8
241
100
AcDbVertex
100
AcDb3dPolylineVertex
 10
128.768
 20
6.92215
 30
0.0
 70
    32
  0
VERTEX
  5
1279
330
1200
100
AcDbEntity
  8
241
100
AcDbVertex
100
AcDb3dPolylineVertex
 10
128.757
 20
6.89624
 30
0.0
 70
    32
  0
VERTEX
  5
127A
330
1200
100
AcDbEntity
  8
241
100
AcDbVertex
100
AcDb3dPolylineVertex
 10
128.746
 20
6.87006
 30
0.0
 70
    32
  0
VERTEX
  5
127B
330
1200
100
AcDbEntity
  8
241
100
AcDbVertex
100
AcDb3dPolylineVertex
 10
128.736
 20
6.84363
 30
0.0
 70
    32
  0
VERTEX
  5
127C
330
1200
100
AcDbEntity
  8
241
100
AcDbVertex
100
AcDb3dPolylineVertex
 10
128.726
 20
6.81695
 30
0.0
 70
    32
  0
VERTEX
  5
127D
330
1200
100
AcDbEntity
  8
241
100
AcDbVertex
100
AcDb3dPolylineVertex
 10
128.718
 20
6.79005
 30
0.0
 70
    32
  0
VERTEX
  5
127E
330
1200
100
AcDbEntity
  8
241
100
AcDbVertex
100
AcDb3dPolylineVertex
 10
128.71
 20
6.76295
 30
0.0
 70
    32
  0
VERTEX
  5
127F
330
1200
100
AcDbEntity
  8
241
100
AcDbVertex
100
AcDb3dPolylineVertex
 10
128.703
 20
6.73565
 30
0.0
 70
    32
  0
VERTEX
  5
1280
330
1200
100
AcDbEntity
  8
241
100
AcDbVertex
100
AcDb3dPolylineVertex
 10
128.697
 20
6.70818
 30
0.0
 70
    32
  0
VERTEX
  5
1281
330
1200
100
AcDbEntity
  8
241
100
AcDbVertex
100
AcDb3dPolylineVertex
 10
128.692
 20
6.68055
 30
0.0
 70
    32
  0
SEQEND
  5
1282
330
1200
100
AcDbEntity
  8
241
  0
POLYLINE
  5
1283
330
CF1
100
AcDbEntity
  8
241
100
AcDb3dPolyline
 66
     1
 10
0.0
 20
0.0
 30
0.0
 70
     8
  0
VERTEX
  5
1284
330
1283
100
AcDbEntity
  8
241
100
AcDbVertex
100
AcDb3dPolylineVertex
 10
128.692
 20
6.68055
 30
0.0
 70
    32
  0
VERTEX
  5
1285
330
1283
100
AcDbEntity
  8
241
100
AcDbVertex
100
AcDb3dPolylineVertex
 10
128.686
 20
6.64161
 30
0.0
 70
    32
  0
VERTEX
  5
1286
330
1283
100
AcDbEntity
  8
241
100
AcDbVertex
100
AcDb3dPolylineVertex
 10
128.68
 20
6.60255
 30
0.0
 70
    32
  0
VERTEX
  5
1287
330
1283
100
AcDbEntity
  8
241
100
AcDbVertex
100
AcDb3dPolylineVertex
 10
128.675
 20
6.5634
 30
0.0
 70
    32
  0
VERTEX
  5
1288
330
1283
100
AcDbEntity
  8
241
100
AcDbVertex
100
AcDb3dPolylineVertex
 10
128.671
 20
6.52418
 30
0.0
 70
    32
  0
VERTEX
  5
1289
330
1283
100
AcDbEntity
  8
241
100
AcDbVertex
100
AcDb3dPolylineVertex
 10
128.668
 20
6.48491
 30
0.0
 70
    32
  0
VERTEX
  5
128A
330
1283
100
AcDbEntity
  8
241
100
AcDbVertex
100
AcDb3dPolylineVertex
 10
128.666
 20
6.44562
 30
0.0
 70
    32
  0
VERTEX
  5
128B
330
1283
100
AcDbEntity
  8
241
100
AcDbVertex
100
AcDb3dPolylineVertex
 10
128.664
 20
6.40633
 30
0.0
 70
    32
  0
VERTEX
  5
128C
330
1283
100
AcDbEntity
  8
241
100
AcDbVertex
100
AcDb3dPolylineVertex
 10
128.663
 20
6.36706
 30
0.0
 70
    32
  0
VERTEX
  5
128D
330
1283
100
AcDbEntity
  8
241
100
AcDbVertex
100
AcDb3dPolylineVertex
 10
128.663
 20
6.32784
 30
0.0
 70
    32
  0
VERTEX
  5
128E
330
1283
100
AcDbEntity
  8
241
100
AcDbVertex
100
AcDb3dPolylineVertex
 10
128.664
 20
6.28869
 30
0.0
 70
    32
  0
VERTEX
  5
128F
330
1283
100
AcDbEntity
  8
241
100
AcDbVertex
100
AcDb3dPolylineVertex
 10
128.666
 20
6.24964
 30
0.0
 70
    32
  0
VERTEX
  5
1290
330
1283
100
AcDbEntity
  8
241
100
AcDbVertex
100
AcDb3dPolylineVertex
 10
128.668
 20
6.2107
 30
0.0
 70
    32
  0
VERTEX
  5
1291
330
1283
100
AcDbEntity
  8
241
100
AcDbVertex
100
AcDb3dPolylineVertex
 10
128.672
 20
6.1719
 30
0.0
 70
    32
  0
VERTEX
  5
1292
330
1283
100
AcDbEntity
  8
241
100
AcDbVertex
100
AcDb3dPolylineVertex
 10
128.676
 20
6.13328
 30
0.0
 70
    32
  0
VERTEX
  5
1293
330
1283
100
AcDbEntity
  8
241
100
AcDbVertex
100
AcDb3dPolylineVertex
 10
128.681
 20
6.09484
 30
0.0
 70
    32
  0
VERTEX
  5
1294
330
1283
100
AcDbEntity
  8
241
100
AcDbVertex
100
AcDb3dPolylineVertex
 10
128.686
 20
6.05661
 30
0.0
 70
    32
  0
VERTEX
  5
1295
330
1283
100
AcDbEntity
  8
241
100
AcDbVertex
100
AcDb3dPolylineVertex
 10
128.693
 20
6.01861
 30
0.0
 70
    32
  0
VERTEX
  5
1296
330
1283
100
AcDbEntity
  8
241
100
AcDbVertex
100
AcDb3dPolylineVertex
 10
128.7
 20
5.98087
 30
0.0
 70
    32
  0
VERTEX
  5
1297
330
1283
100
AcDbEntity
  8
241
100
AcDbVertex
100
AcDb3dPolylineVertex
 10
128.709
 20
5.94342
 30
0.0
 70
    32
  0
VERTEX
  5
1298
330
1283
100
AcDbEntity
  8
241
100
AcDbVertex
100
AcDb3dPolylineVertex
 10
128.717
 20
5.90626
 30
0.0
 70
    32
  0
VERTEX
  5
1299
330
1283
100
AcDbEntity
  8
241
100
AcDbVertex
100
AcDb3dPolylineVertex
 10
128.727
 20
5.86944
 30
0.0
 70
    32
  0
VERTEX
  5
129A
330
1283
100
AcDbEntity
  8
241
100
AcDbVertex
100
AcDb3dPolylineVertex
 10
128.738
 20
5.83295
 30
0.0
 70
    32
  0
VERTEX
  5
129B
330
1283
100
AcDbEntity
  8
241
100
AcDbVertex
100
AcDb3dPolylineVertex
 10
128.749
 20
5.79684
 30
0.0
 70
    32
  0
VERTEX
  5
129C
330
1283
100
AcDbEntity
  8
241
100
AcDbVertex
100
AcDb3dPolylineVertex
 10
128.761
 20
5.76112
 30
0.0
 70
    32
  0
VERTEX
  5
129D
330
1283
100
AcDbEntity
  8
241
100
AcDbVertex
100
AcDb3dPolylineVertex
 10
128.774
 20
5.72581
 30
0.0
 70
    32
  0
VERTEX
  5
129E
330
1283
100
AcDbEntity
  8
241
100
AcDbVertex
100
AcDb3dPolylineVertex
 10
128.787
 20
5.69094
 30
0.0
 70
    32
  0
VERTEX
  5
129F
330
1283
100
AcDbEntity
  8
241
100
AcDbVertex
100
AcDb3dPolylineVertex
 10
128.802
 20
5.65652
 30
0.0
 70
    32
  0
VERTEX
  5
12A0
330
1283
100
AcDbEntity
  8
241
100
AcDbVertex
100
AcDb3dPolylineVertex
 10
128.817
 20
5.62258
 30
0.0
 70
    32
  0
VERTEX
  5
12A1
330
1283
100
AcDbEntity
  8
241
100
AcDbVertex
100
AcDb3dPolylineVertex
 10
128.833
 20
5.58913
 30
0.0
 70
    32
  0
VERTEX
  5
12A2
330
1283
100
AcDbEntity
  8
241
100
AcDbVertex
100
AcDb3dPolylineVertex
 10
128.849
 20
5.5562
 30
0.0
 70
    32
  0
VERTEX
  5
12A3
330
1283
100
AcDbEntity
  8
241
100
AcDbVertex
100
AcDb3dPolylineVertex
 10
128.866
 20
5.5238
 30
0.0
 70
    32
  0
VERTEX
  5
12A4
330
1283
100
AcDbEntity
  8
241
100
AcDbVertex
100
AcDb3dPolylineVertex
 10
128.884
 20
5.49196
 30
0.0
 70
    32
  0
VERTEX
  5
12A5
330
1283
100
AcDbEntity
  8
241
100
AcDbVertex
100
AcDb3dPolylineVertex
 10
128.903
 20
5.4607
 30
0.0
 70
    32
  0
VERTEX
  5
12A6
330
1283
100
AcDbEntity
  8
241
100
AcDbVertex
100
AcDb3dPolylineVertex
 10
128.922
 20
5.43003
 30
0.0
 70
    32
  0
VERTEX
  5
12A7
330
1283
100
AcDbEntity
  8
241
100
AcDbVertex
100
AcDb3dPolylineVertex
 10
128.942
 20
5.39997
 30
0.0
 70
    32
  0
VERTEX
  5
12A8
330
1283
100
AcDbEntity
  8
241
100
AcDbVertex
100
AcDb3dPolylineVertex
 10
128.962
 20
5.37054
 30
0.0
 70
    32
  0
VERTEX
  5
12A9
330
1283
100
AcDbEntity
  8
241
100
AcDbVertex
100
AcDb3dPolylineVertex
 10
128.984
 20
5.34176
 30
0.0
 70
    32
  0
VERTEX
  5
12AA
330
1283
100
AcDbEntity
  8
241
100
AcDbVertex
100
AcDb3dPolylineVertex
 10
129.005
 20
5.31364
 30
0.0
 70
    32
  0
VERTEX
  5
12AB
330
1283
100
AcDbEntity
  8
241
100
AcDbVertex
100
AcDb3dPolylineVertex
 10
129.028
 20
5.28621
 30
0.0
 70
    32
  0
VERTEX
  5
12AC
330
1283
100
AcDbEntity
  8
241
100
AcDbVertex
100
AcDb3dPolylineVertex
 10
129.051
 20
5.25947
 30
0.0
 70
    32
  0
VERTEX
  5
12AD
330
1283
100
AcDbEntity
  8
241
100
AcDbVertex
100
AcDb3dPolylineVertex
 10
129.074
 20
5.23345
 30
0.0
 70
    32
  0
VERTEX
  5
12AE
330
1283
100
AcDbEntity
  8
241
100
AcDbVertex
100
AcDb3dPolylineVertex
 10
129.099
 20
5.20816
 30
0.0
 70
    32
  0
VERTEX
  5
12AF
330
1283
100
AcDbEntity
  8
241
100
AcDbVertex
100
AcDb3dPolylineVertex
 10
129.123
 20
5.18362
 30
0.0
 70
    32
  0
VERTEX
  5
12B0
330
1283
100
AcDbEntity
  8
241
100
AcDbVertex
100
AcDb3dPolylineVertex
 10
129.149
 20
5.15983
 30
0.0
 70
    32
  0
VERTEX
  5
12B1
330
1283
100
AcDbEntity
  8
241
100
AcDbVertex
100
AcDb3dPolylineVertex
 10
129.174
 20
5.13682
 30
0.0
 70
    32
  0
VERTEX
  5
12B2
330
1283
100
AcDbEntity
  8
241
100
AcDbVertex
100
AcDb3dPolylineVertex
 10
129.201
 20
5.1146
 30
0.0
 70
    32
  0
VERTEX
  5
12B3
330
1283
100
AcDbEntity
  8
241
100
AcDbVertex
100
AcDb3dPolylineVertex
 10
129.228
 20
5.09318
 30
0.0
 70
    32
  0
VERTEX
  5
12B4
330
1283
100
AcDbEntity
  8
241
100
AcDbVertex
100
AcDb3dPolylineVertex
 10
129.255
 20
5.07258
 30
0.0
 70
    32
  0
VERTEX
  5
12B5
330
1283
100
AcDbEntity
  8
241
100
AcDbVertex
100
AcDb3dPolylineVertex
 10
129.283
 20
5.0528
 30
0.0
 70
    32
  0
VERTEX
  5
12B6
330
1283
100
AcDbEntity
  8
241
100
AcDbVertex
100
AcDb3dPolylineVertex
 10
129.311
 20
5.03387
 30
0.0
 70
    32
  0
VERTEX
  5
12B7
330
1283
100
AcDbEntity
  8
241
100
AcDbVertex
100
AcDb3dPolylineVertex
 10
129.339
 20
5.01578
 30
0.0
 70
    32
  0
VERTEX
  5
12B8
330
1283
100
AcDbEntity
  8
241
100
AcDbVertex
100
AcDb3dPolylineVertex
 10
129.368
 20
4.99856
 30
0.0
 70
    32
  0
VERTEX
  5
12B9
330
1283
100
AcDbEntity
  8
241
100
AcDbVertex
100
AcDb3dPolylineVertex
 10
129.398
 20
4.98221
 30
0.0
 70
    32
  0
VERTEX
  5
12BA
330
1283
100
AcDbEntity
  8
241
100
AcDbVertex
100
AcDb3dPolylineVertex
 10
129.428
 20
4.96673
 30
0.0
 70
    32
  0
VERTEX
  5
12BB
330
1283
100
AcDbEntity
  8
241
100
AcDbVertex
100
AcDb3dPolylineVertex
 10
129.458
 20
4.95216
 30
0.0
 70
    32
  0
VERTEX
  5
12BC
330
1283
100
AcDbEntity
  8
241
100
AcDbVertex
100
AcDb3dPolylineVertex
 10
129.488
 20
4.93848
 30
0.0
 70
    32
  0
VERTEX
  5
12BD
330
1283
100
AcDbEntity
  8
241
100
AcDbVertex
100
AcDb3dPolylineVertex
 10
129.519
 20
4.9257
 30
0.0
 70
    32
  0
VERTEX
  5
12BE
330
1283
100
AcDbEntity
  8
241
100
AcDbVertex
100
AcDb3dPolylineVertex
 10
129.55
 20
4.91385
 30
0.0
 70
    32
  0
VERTEX
  5
12BF
330
1283
100
AcDbEntity
  8
241
100
AcDbVertex
100
AcDb3dPolylineVertex
 10
129.582
 20
4.90292
 30
0.0
 70
    32
  0
VERTEX
  5
12C0
330
1283
100
AcDbEntity
  8
241
100
AcDbVertex
100
AcDb3dPolylineVertex
 10
129.613
 20
4.89291
 30
0.0
 70
    32
  0
VERTEX
  5
12C1
330
1283
100
AcDbEntity
  8
241
100
AcDbVertex
100
AcDb3dPolylineVertex
 10
129.645
 20
4.88385
 30
0.0
 70
    32
  0
VERTEX
  5
12C2
330
1283
100
AcDbEntity
  8
241
100
AcDbVertex
100
AcDb3dPolylineVertex
 10
129.677
 20
4.87572
 30
0.0
 70
    32
  0
VERTEX
  5
12C3
330
1283
100
AcDbEntity
  8
241
100
AcDbVertex
100
AcDb3dPolylineVertex
 10
129.71
 20
4.86854
 30
0.0
 70
    32
  0
VERTEX
  5
12C4
330
1283
100
AcDbEntity
  8
241
100
AcDbVertex
100
AcDb3dPolylineVertex
 10
129.742
 20
4.86231
 30
0.0
 70
    32
  0
VERTEX
  5
12C5
330
1283
100
AcDbEntity
  8
241
100
AcDbVertex
100
AcDb3dPolylineVertex
 10
129.775
 20
4.85703
 30
0.0
 70
    32
  0
VERTEX
  5
12C6
330
1283
100
AcDbEntity
  8
241
100
AcDbVertex
100
AcDb3dPolylineVertex
 10
129.808
 20
4.85271
 30
0.0
 70
    32
  0
VERTEX
  5
12C7
330
1283
100
AcDbEntity
  8
241
100
AcDbVertex
100
AcDb3dPolylineVertex
 10
129.841
 20
4.84935
 30
0.0
 70
    32
  0
VERTEX
  5
12C8
330
1283
100
AcDbEntity
  8
241
100
AcDbVertex
100
AcDb3dPolylineVertex
 10
129.874
 20
4.84696
 30
0.0
 70
    32
  0
VERTEX
  5
12C9
330
1283
100
AcDbEntity
  8
241
100
AcDbVertex
100
AcDb3dPolylineVertex
 10
129.907
 20
4.84552
 30
0.0
 70
    32
  0
VERTEX
  5
12CA
330
1283
100
AcDbEntity
  8
241
100
AcDbVertex
100
AcDb3dPolylineVertex
 10
129.94
 20
4.84505
 30
0.0
 70
    32
  0
VERTEX
  5
12CB
330
1283
100
AcDbEntity
  8
241
100
AcDbVertex
100
AcDb3dPolylineVertex
 10
129.974
 20
4.84555
 30
0.0
 70
    32
  0
VERTEX
  5
12CC
330
1283
100
AcDbEntity
  8
241
100
AcDbVertex
100
AcDb3dPolylineVertex
 10
130.007
 20
4.84701
 30
0.0
 70
    32
  0
VERTEX
  5
12CD
330
1283
100
AcDbEntity
  8
241
100
AcDbVertex
100
AcDb3dPolylineVertex
 10
130.04
 20
4.84943
 30
0.0
 70
    32
  0
VERTEX
  5
12CE
330
1283
100
AcDbEntity
  8
241
100
AcDbVertex
100
AcDb3dPolylineVertex
 10
130.074
 20
4.85281
 30
0.0
 70
    32
  0
VERTEX
  5
12CF
330
1283
100
AcDbEntity
  8
241
100
AcDbVertex
100
AcDb3dPolylineVertex
 10
130.107
 20
4.85716
 30
0.0
 70
    32
  0
VERTEX
  5
12D0
330
1283
100
AcDbEntity
  8
241
100
AcDbVertex
100
AcDb3dPolylineVertex
 10
130.14
 20
4.86246
 30
0.0
 70
    32
  0
VERTEX
  5
12D1
330
1283
100
AcDbEntity
  8
241
100
AcDbVertex
100
AcDb3dPolylineVertex
 10
130.173
 20
4.86871
 30
0.0
 70
    32
  0
VERTEX
  5
12D2
330
1283
100
AcDbEntity
  8
241
100
AcDbVertex
100
AcDb3dPolylineVertex
 10
130.207
 20
4.87592
 30
0.0
 70
    32
  0
VERTEX
  5
12D3
330
1283
100
AcDbEntity
  8
241
100
AcDbVertex
100
AcDb3dPolylineVertex
 10
130.24
 20
4.88407
 30
0.0
 70
    32
  0
VERTEX
  5
12D4
330
1283
100
AcDbEntity
  8
241
100
AcDbVertex
100
AcDb3dPolylineVertex
 10
130.272
 20
4.89316
 30
0.0
 70
    32
  0
VERTEX
  5
12D5
330
1283
100
AcDbEntity
  8
241
100
AcDbVertex
100
AcDb3dPolylineVertex
 10
130.305
 20
4.90319
 30
0.0
 70
    32
  0
VERTEX
  5
12D6
330
1283
100
AcDbEntity
  8
241
100
AcDbVertex
100
AcDb3dPolylineVertex
 10
130.338
 20
4.91414
 30
0.0
 70
    32
  0
VERTEX
  5
12D7
330
1283
100
AcDbEntity
  8
241
100
AcDbVertex
100
AcDb3dPolylineVertex
 10
130.37
 20
4.92602
 30
0.0
 70
    32
  0
VERTEX
  5
12D8
330
1283
100
AcDbEntity
  8
241
100
AcDbVertex
100
AcDb3dPolylineVertex
 10
130.402
 20
4.93882
 30
0.0
 70
    32
  0
VERTEX
  5
12D9
330
1283
100
AcDbEntity
  8
241
100
AcDbVertex
100
AcDb3dPolylineVertex
 10
130.434
 20
4.95252
 30
0.0
 70
    32
  0
VERTEX
  5
12DA
330
1283
100
AcDbEntity
  8
241
100
AcDbVertex
100
AcDb3dPolylineVertex
 10
130.466
 20
4.96712
 30
0.0
 70
    32
  0
VERTEX
  5
12DB
330
1283
100
AcDbEntity
  8
241
100
AcDbVertex
100
AcDb3dPolylineVertex
 10
130.497
 20
4.98262
 30
0.0
 70
    32
  0
VERTEX
  5
12DC
330
1283
100
AcDbEntity
  8
241
100
AcDbVertex
100
AcDb3dPolylineVertex
 10
130.528
 20
4.99899
 30
0.0
 70
    32
  0
VERTEX
  5
12DD
330
1283
100
AcDbEntity
  8
241
100
AcDbVertex
100
AcDb3dPolylineVertex
 10
130.559
 20
5.01624
 30
0.0
 70
    32
  0
VERTEX
  5
12DE
330
1283
100
AcDbEntity
  8
241
100
AcDbVertex
100
AcDb3dPolylineVertex
 10
130.589
 20
5.03435
 30
0.0
 70
    32
  0
VERTEX
  5
12DF
330
1283
100
AcDbEntity
  8
241
100
AcDbVertex
100
AcDb3dPolylineVertex
 10
130.619
 20
5.0533
 30
0.0
 70
    32
  0
VERTEX
  5
12E0
330
1283
100
AcDbEntity
  8
241
100
AcDbVertex
100
AcDb3dPolylineVertex
 10
130.649
 20
5.0731
 30
0.0
 70
    32
  0
VERTEX
  5
12E1
330
1283
100
AcDbEntity
  8
241
100
AcDbVertex
100
AcDb3dPolylineVertex
 10
130.679
 20
5.09373
 30
0.0
 70
    32
  0
VERTEX
  5
12E2
330
1283
100
AcDbEntity
  8
241
100
AcDbVertex
100
AcDb3dPolylineVertex
 10
130.708
 20
5.11516
 30
0.0
 70
    32
  0
VERTEX
  5
12E3
330
1283
100
AcDbEntity
  8
241
100
AcDbVertex
100
AcDb3dPolylineVertex
 10
130.736
 20
5.13741
 30
0.0
 70
    32
  0
VERTEX
  5
12E4
330
1283
100
AcDbEntity
  8
241
100
AcDbVertex
100
AcDb3dPolylineVertex
 10
130.764
 20
5.16043
 30
0.0
 70
    32
  0
VERTEX
  5
12E5
330
1283
100
AcDbEntity
  8
241
100
AcDbVertex
100
AcDb3dPolylineVertex
 10
130.792
 20
5.18424
 30
0.0
 70
    32
  0
VERTEX
  5
12E6
330
1283
100
AcDbEntity
  8
241
100
AcDbVertex
100
AcDb3dPolylineVertex
 10
130.819
 20
5.2088
 30
0.0
 70
    32
  0
VERTEX
  5
12E7
330
1283
100
AcDbEntity
  8
241
100
AcDbVertex
100
AcDb3dPolylineVertex
 10
130.846
 20
5.23411
 30
0.0
 70
    32
  0
VERTEX
  5
12E8
330
1283
100
AcDbEntity
  8
241
100
AcDbVertex
100
AcDb3dPolylineVertex
 10
130.872
 20
5.26015
 30
0.0
 70
    32
  0
VERTEX
  5
12E9
330
1283
100
AcDbEntity
  8
241
100
AcDbVertex
100
AcDb3dPolylineVertex
 10
130.898
 20
5.2869
 30
0.0
 70
    32
  0
VERTEX
  5
12EA
330
1283
100
AcDbEntity
  8
241
100
AcDbVertex
100
AcDb3dPolylineVertex
 10
130.923
 20
5.31436
 30
0.0
 70
    32
  0
VERTEX
  5
12EB
330
1283
100
AcDbEntity
  8
241
100
AcDbVertex
100
AcDb3dPolylineVertex
 10
130.948
 20
5.34249
 30
0.0
 70
    32
  0
VERTEX
  5
12EC
330
1283
100
AcDbEntity
  8
241
100
AcDbVertex
100
AcDb3dPolylineVertex
 10
130.972
 20
5.37129
 30
0.0
 70
    32
  0
VERTEX
  5
12ED
330
1283
100
AcDbEntity
  8
241
100
AcDbVertex
100
AcDb3dPolylineVertex
 10
130.995
 20
5.40073
 30
0.0
 70
    32
  0
VERTEX
  5
12EE
330
1283
100
AcDbEntity
  8
241
100
AcDbVertex
100
AcDb3dPolylineVertex
 10
131.018
 20
5.43081
 30
0.0
 70
    32
  0
VERTEX
  5
12EF
330
1283
100
AcDbEntity
  8
241
100
AcDbVertex
100
AcDb3dPolylineVertex
 10
131.041
 20
5.4615
 30
0.0
 70
    32
  0
VERTEX
  5
12F0
330
1283
100
AcDbEntity
  8
241
100
AcDbVertex
100
AcDb3dPolylineVertex
 10
131.062
 20
5.49278
 30
0.0
 70
    32
  0
VERTEX
  5
12F1
330
1283
100
AcDbEntity
  8
241
100
AcDbVertex
100
AcDb3dPolylineVertex
 10
131.084
 20
5.52463
 30
0.0
 70
    32
  0
VERTEX
  5
12F2
330
1283
100
AcDbEntity
  8
241
100
AcDbVertex
100
AcDb3dPolylineVertex
 10
131.104
 20
5.55704
 30
0.0
 70
    32
  0
VERTEX
  5
12F3
330
1283
100
AcDbEntity
  8
241
100
AcDbVertex
100
AcDb3dPolylineVertex
 10
131.124
 20
5.58998
 30
0.0
 70
    32
  0
VERTEX
  5
12F4
330
1283
100
AcDbEntity
  8
241
100
AcDbVertex
100
AcDb3dPolylineVertex
 10
131.143
 20
5.62345
 30
0.0
 70
    32
  0
VERTEX
  5
12F5
330
1283
100
AcDbEntity
  8
241
100
AcDbVertex
100
AcDb3dPolylineVertex
 10
131.162
 20
5.6574
 30
0.0
 70
    32
  0
VERTEX
  5
12F6
330
1283
100
AcDbEntity
  8
241
100
AcDbVertex
100
AcDb3dPolylineVertex
 10
131.179
 20
5.69183
 30
0.0
 70
    32
  0
VERTEX
  5
12F7
330
1283
100
AcDbEntity
  8
241
100
AcDbVertex
100
AcDb3dPolylineVertex
 10
131.196
 20
5.72672
 30
0.0
 70
    32
  0
VERTEX
  5
12F8
330
1283
100
AcDbEntity
  8
241
100
AcDbVertex
100
AcDb3dPolylineVertex
 10
131.213
 20
5.76204
 30
0.0
 70
    32
  0
VERTEX
  5
12F9
330
1283
100
AcDbEntity
  8
241
100
AcDbVertex
100
AcDb3dPolylineVertex
 10
131.228
 20
5.79777
 30
0.0
 70
    32
  0
VERTEX
  5
12FA
330
1283
100
AcDbEntity
  8
241
100
AcDbVertex
100
AcDb3dPolylineVertex
 10
131.243
 20
5.83389
 30
0.0
 70
    32
  0
VERTEX
  5
12FB
330
1283
100
AcDbEntity
  8
241
100
AcDbVertex
100
AcDb3dPolylineVertex
 10
131.258
 20
5.87038
 30
0.0
 70
    32
  0
VERTEX
  5
12FC
330
1283
100
AcDbEntity
  8
241
100
AcDbVertex
100
AcDb3dPolylineVertex
 10
131.271
 20
5.90722
 30
0.0
 70
    32
  0
VERTEX
  5
12FD
330
1283
100
AcDbEntity
  8
241
100
AcDbVertex
100
AcDb3dPolylineVertex
 10
131.284
 20
5.94438
 30
0.0
 70
    32
  0
VERTEX
  5
12FE
330
1283
100
AcDbEntity
  8
241
100
AcDbVertex
100
AcDb3dPolylineVertex
 10
131.296
 20
5.98184
 30
0.0
 70
    32
  0
VERTEX
  5
12FF
330
1283
100
AcDbEntity
  8
241
100
AcDbVertex
100
AcDb3dPolylineVertex
 10
131.307
 20
6.01959
 30
0.0
 70
    32
  0
VERTEX
  5
1300
330
1283
100
AcDbEntity
  8
241
100
AcDbVertex
100
AcDb3dPolylineVertex
 10
131.317
 20
6.05759
 30
0.0
 70
    32
  0
VERTEX
  5
1301
330
1283
100
AcDbEntity
  8
241
100
AcDbVertex
100
AcDb3dPolylineVertex
 10
131.327
 20
6.09582
 30
0.0
 70
    32
  0
VERTEX
  5
1302
330
1283
100
AcDbEntity
  8
241
100
AcDbVertex
100
AcDb3dPolylineVertex
 10
131.336
 20
6.13427
 30
0.0
 70
    32
  0
VERTEX
  5
1303
330
1283
100
AcDbEntity
  8
241
100
AcDbVertex
100
AcDb3dPolylineVertex
 10
131.344
 20
6.1729
 30
0.0
 70
    32
  0
VERTEX
  5
1304
330
1283
100
AcDbEntity
  8
241
100
AcDbVertex
100
AcDb3dPolylineVertex
 10
131.351
 20
6.2117
 30
0.0
 70
    32
  0
SEQEND
  5
1305
330
1283
100
AcDbEntity
  8
241
  0
LINE
  5
1306
330
CF1
100
AcDbEntity
  8
246
100
AcDbLine
 10
127.0
 20
10.0
 30
0.0
 11
135.0
 21
10.0
 31
0.0
  0
LINE
  5
1307
330
CF1
100
AcDbEntity
  8
240
100
AcDbLine
 10
123.87572518
 20
9.25
 30
0.0
 11
125.18194299
 21
9.6
 31
0.0
  0
LINE
  5
1308
330
CF1
100
AcDbEntity
  8
240
  6
CONTINUOUS
100
AcDbLine
 10
27.0
 20
30.5
 30
0.0
 11
27.0
 21
30.0
 31
0.0
  0
ARC
  5
1309
330
CF1
100
AcDbEntity
  8
240
  6
CONTINUOUS
100
AcDbCircle
 10
26.0
 20
30.5
 30
0.0
 40
1.0
100
AcDbArc
 50
0.0
 51
90.0
  0
ENDBLK
  5
CF3
330
CF1
100
AcDbEntity
  8
0
100
AcDbBlockEnd
  0
ENDSEC
  0
SECTION
  2
ENTITIES
  0
INSERT
  5
6E6
330
1A
100
AcDbEntity
  8
245
100
AcDbBlockReference
  2
矢印なし
 10
175.62382697
 20
90.55123572
 30
0.0
  0
TEXT
  5
A1B
330
1A
100
AcDbEntity
  8
241
100
AcDbText
 10
-65.4
 20
56.0
 30
0.0
 40
5.0
  1
BBT40-FCR20082L-135
  7
YOKO
 11
-65.4
 21
56.0
 31
0.0
100
AcDbText
 73
     1
  0
DIMENSION
  5
C7C
330
1A
100
AcDbEntity
  8
250
  6
CONTINUOUS
100
AcDbDimension
  2
*D2
 10
147.0
 20
10.0
 30
0.0
 11
144.6
 21
0.0
 31
0.0
 70
    32
  1
{\H2.8;\U+2205}<>
  3
BIGT
100
AcDbAlignedDimension
 13
135.0
 23
-10.0
 33
0.0
 14
135.0
 24
10.0
 34
0.0
 50
90.0
100
AcDbRotatedDimension
  0
DIMENSION
  5
C8B
330
1A
100
AcDbEntity
  8
250
  6
CONTINUOUS
100
AcDbDimension
  2
*D3
 10
135.0
 20
28.0
 30
0.0
 11
131.0
 21
30.4
 31
0.0
 70
    32
  3
BIGT
100
AcDbAlignedDimension
 13
127.0
 23
10.0
 33
0.0
 14
135.0
 24
10.0
 34
0.0
100
AcDbRotatedDimension
  0
DIMENSION
  5
C9A
330
1A
100
AcDbEntity
  8
250
  6
CONTINUOUS
100
AcDbDimension
  2
*D4
 10
135.0
 20
35.0
 30
0.0
 11
105.0
 21
37.4
 31
0.0
 70
    32
  3
BIGT
100
AcDbAlignedDimension
 13
75.0
 23
9.47550951
 33
0.0
 14
135.0
 24
10.0
 34
0.0
100
AcDbRotatedDimension
  0
DIMENSION
  5
CA9
330
1A
100
AcDbEntity
  8
250
  6
CONTINUOUS
100
AcDbDimension
  2
*D5
 10
135.0
 20
42.0
 30
0.0
 11
67.5
 21
44.4
 31
0.0
 70
    32
  3
BIGT
100
AcDbAlignedDimension
 13
0.0
 23
22.225
 33
0.0
 14
135.0
 24
10.0
 34
0.0
100
AcDbRotatedDimension
  0
LEADER
  5
1159
330
1A
100
AcDbEntity
  8
250
  6
CONTINUOUS
100
AcDbLeader
  3
BIGT
 76
     2
 10
-26.64442081
 20
-18.3393553
 30
0.0
 10
-32.4583971
 20
-28.40945762
 30
0.0
1001
ACAD
1000
DSTYLE
1002
{
1070
     6
1000
OPEN
1070
   343
1005
594
1002
}
  0
MTEXT
  5
115A
330
1A
100
AcDbEntity
  8
250
  6
CONTINUOUS
 62
    40
100
AcDbMText
 10
-47.39173044
 20
-27.40945762
 30
0.0
 40
2.8
 41
0.0
 71
     7
 72
     1
  1
BBT40
  7
YOKO
1001
ITEMNAME
1000
LNSP3
1001
ACAD
1000
MTEXTBEGIN
1070
    73
1070
     1
1070
    44
1040
1.0
1070
    74
1070
     0
1000
MTEXTEND
1000
MTEXTBEGIN
1070
    73
1070
     1
1070
    44
1040
1.0
1070
    74
1070
     0
1000
MTEXTEND
  0
LINE
  5
115D
330
1A
100
AcDbEntity
  8
250
  6
CONTINUOUS
100
AcDbLine
 10
-32.4583971
 20
-28.40945762
 30
0.0
 11
-50.19173044
 21
-28.40945762
 31
0.0
1001
ITEMNAME
1000
LNSP2
  0
INSERT
  5
130A
330
1A
100
AcDbEntity
  8
245
100
AcDbBlockReference
  2
1
 10
0.0
 20
0.0
 30
0.0
  0
VIEWPORT
  5
22
330
17
100
AcDbEntity
 67
     1
  8
0
100
AcDbViewport
 10
261.51769912
 20
148.5
 30
0.0
 40
523.03539823
 41
297.0
 68
     1
 69
     1
1001
ACAD
1000
MVIEW
1002
{
1070
    16
1010
0.0
1020
0.0
1030
0.0
1010
0.0
1020
0.0
1030
1.0
1040
0.0
1040
297.0
1040
261.51769912
1040
148.5
1040
50.0
1040
0.0
1040
0.0
1070
     0
1070
   100
1070
     1
1070
     1
1070
     0
1070
     0
1070
     0
1070
     0
1040
0.0
1040
0.0
1040
0.0
1040
1.0
1040
1.0
1040
10.0
1040
10.0
1070
     0
1002
{
1002
}
1002
}
  0
ENDSEC
  0
SECTION
  2
OBJECTS
  0
DICTIONARY
  5
C
330
0
100
AcDbDictionary
  3
ACAD_GROUP
350
D
  3
ACAD_LAYOUT
350
565
  3
ACAD_MLINESTYLE
350
E
  3
ACAD_PLOTSETTINGS
350
566
  3
ACAD_PLOTSTYLENAME
350
563
  3
ACDBHEADERROUNDTRIPXREC
350
130C
  3
GRADE_DWG
350
540
  0
DICTIONARY
  5
F27
330
1A
100
AcDbDictionary
280
     1
  3
ACAD_LAYOUTSELFREF
360
132E
  0
DICTIONARY
  5
F25
330
17
100
AcDbDictionary
280
     1
  3
ACAD_LAYOUTSELFREF
360
132D
  0
DICTIONARY
  5
D
102
{ACAD_REACTORS
330
C
102
}
330
C
100
AcDbDictionary
  3
*A1
350
6C7
  3
*A2
350
6C8
  3
*A3
350
6D4
  3
*A4
350
6D5
  3
DREC-1
350
5FC
  3
DREC-2
350
654
  3
DREC-3
350
673
  0
DICTIONARY
  5
565
102
{ACAD_REACTORS
330
C
102
}
330
C
100
AcDbDictionary
  0
DICTIONARY
  5
E
102
{ACAD_REACTORS
330
C
102
}
330
C
100
AcDbDictionary
  3
STANDARD
350
13
  0
DICTIONARY
  5
566
102
{ACAD_REACTORS
330
C
102
}
330
C
100
AcDbDictionary
  3
A3_0_5倍_
350
758
  3
A3_1倍_
350
757
  3
A3_1倍__2000_
350
707
  3
A3_2倍_
350
759
  3
A4_0_5倍_
350
755
  3
A4_1倍_
350
754
  3
A4_1倍__2000_
350
708
  3
A4_2倍_
350
756
  0
ACDBDICTIONARYWDFLT
  5
563
102
{ACAD_REACTORS
330
C
102
}
330
C
100
AcDbDictionary
281
     1
  3
Normal
350
564
100
AcDbDictionaryWithDefault
340
564
  0
DICTIONARY
  5
130C
102
{ACAD_REACTORS
330
C
102
}
330
C
100
AcDbDictionary
  3
CEPSNTYPE
350
1316
  3
DIMSTYLEDATA
350
131A
  3
FINGERPRINTGUID
350
1317
  3
HYPERLINKBASE
350
130F
  3
INSUNITS
350
1315
  3
LAYOUTDICT
350
1311
  3
LWETCUNION
350
1314
  3
PLOTSETDICT
350
1312
  3
PLOTSTYLNAMDICT
350
1313
  3
PSVPSCALE
350
1319
  3
PUCSBASE
350
131D
  3
PUCSORGBACK
350
1323
  3
PUCSORGBOTTOM
350
131F
  3
PUCSORGFRONT
350
1322
  3
PUCSORGLEFT
350
1320
  3
PUCSORGRIGHT
350
1321
  3
PUCSORGTOP
350
131E
  3
PUCSORTHOREF
350
131B
  3
PUCSORTHOVIEW
350
131C
  3
STYLESHEET
350
1310
  3
TSTACKALIGN
350
130D
  3
TSTACKSIZE
350
130E
  3
UCSBASE
350
1326
  3
UCSORGBACK
350
132C
  3
UCSORGBOTTOM
350
1328
  3
UCSORGFRONT
350
132B
  3
UCSORGLEFT
350
1329
  3
UCSORGRIGHT
350
132A
  3
UCSORGTOP
350
1327
  3
UCSORTHOREF
350
1324
  3
UCSORTHOVIEW
350
1325
  3
VERSIONGUID
350
1318
  0
DICTIONARY
  5
540
102
{ACAD_REACTORS
330
C
102
}
330
C
100
AcDbDictionary
  3
VERSION
350
560
  0
XRECORD
  5
132E
102
{ACAD_REACTORS
330
F27
102
}
330
F27
100
AcDbXrecord
340
1A
  0
XRECORD
  5
132D
102
{ACAD_REACTORS
330
F25
102
}
330
F25
100
AcDbXrecord
340
17
  0
GROUP
  5
6C7
102
{ACAD_REACTORS
330
D
102
}
330
D
100
AcDbGroup
300

 70
     0
 71
     1
1001
GRPNAME
1000
DMA00
  0
GROUP
  5
6C8
102
{ACAD_REACTORS
330
D
102
}
330
D
100
AcDbGroup
300

 70
     0
 71
     1
1001
GRPNAME
1000
DMA00
  0
GROUP
  5
6D4
102
{ACAD_REACTORS
330
D
102
}
330
D
100
AcDbGroup
300

 70
     0
 71
     1
1001
GRPNAME
1000
DMA00
  0
GROUP
  5
6D5
102
{ACAD_REACTORS
330
D
102
}
330
D
100
AcDbGroup
300

 70
     0
 71
     1
1001
GRPNAME
1000
DMA00
  0
GROUP
  5
5FC
102
{ACAD_REACTORS
330
D
102
}
330
D
100
AcDbGroup
300

 70
     0
 71
     1
1001
GRPNAME
1000
DREC-
1001
GPARA
1000
xsiz
1000
44.182
1000
ysiz
1000
40.677
1000
angl
1000
0
1000
ctyp
1000
0
1000
csiz
1000
5
1000
lfnt
1000
cont
1000
hcnt
1000
hoff
1000
vcnt
1000
voff
1000
opnt
1000
4
1000
dxpt
1000
0
1000
dypt
1000
0
  0
GROUP
  5
654
102
{ACAD_REACTORS
330
D
102
}
330
D
100
AcDbGroup
300

 70
     0
 71
     1
1001
GRPNAME
1000
DREC-
1001
GPARA
1000
xsiz
1000
54.592
1000
ysiz
1000
53.036
1000
angl
1000
0
1000
ctyp
1000
0
1000
csiz
1000
5
1000
lfnt
1000
cont
1000
hcnt
1000
hoff
1000
vcnt
1000
voff
1000
opnt
1000
4
1000
dxpt
1000
0
1000
dypt
1000
0
  0
GROUP
  5
673
102
{ACAD_REACTORS
330
D
102
}
330
D
100
AcDbGroup
300

 70
     0
 71
     1
1001
GRPNAME
1000
DREC-
1001
GPARA
1000
xsiz
1000
30.363
1000
ysiz
1000
36.175
1000
angl
1000
0
1000
ctyp
1000
0
1000
csiz
1000
5
1000
lfnt
1000
cont
1000
hcnt
1000
hoff
1000
vcnt
1000
voff
1000
opnt
1000
4
1000
dxpt
1000
0
1000
dypt
1000
0
  0
MLINESTYLE
  5
13
102
{ACAD_REACTORS
330
E
102
}
330
E
100
AcDbMlineStyle
  2
STANDARD
 70
     0
  3

 62
     0
 51
90.0
 52
90.0
 71
     2
 49
0.5
 62
   256
  6
BYLAYER
 49
-0.5
 62
   256
  6
BYLAYER
  0
PLOTSETTINGS
  5
758
102
{ACAD_REACTORS
330
566
102
}
330
566
100
AcDbPlotSettings
  1
A3(0.5倍)
  2
\\AWTECPC05\HP DeskJet 1120C
  4
A3
  6

 40
5.95841646
 41
13.49375153
 42
6.04309082
 43
3.67242432
 44
296.92599487
 45
419.94665527
 46
89.96
 47
127.14
 48
0.0
 49
0.0
140
0.0
141
0.0
142
1.0
143
2.0
 70
  1716
 72
     1
 73
     1
 74
     2
  7
big.ctb
 75
    17
147
0.5
148
0.0
149
0.0
  0
PLOTSETTINGS
  5
757
102
{ACAD_REACTORS
330
566
102
}
330
566
100
AcDbPlotSettings
  1
A3(1倍)
  2
\\AWTECPC05\HP DeskJet 1120C
  4
A3
  6

 40
5.95841646
 41
13.49375153
 42
6.04309082
 43
3.67242432
 44
296.92599487
 45
419.94665527
 46
37.46
 47
52.89
 48
0.0
 49
0.0
140
0.0
141
0.0
142
1.0
143
1.0
 70
  1716
 72
     1
 73
     1
 74
     2
  7
big.ctb
 75
    16
147
1.0
148
0.0
149
0.0
  0
PLOTSETTINGS
  5
707
102
{ACAD_REACTORS
330
566
102
}
330
566
100
AcDbPlotSettings
  1
A3(1倍)(2000)
  2
SII LS-1300 (D-SCAN)
  4
User258
  6

 40
3.17499995
 41
3.17499995
 42
3.17498779
 43
3.17498779
 44
419.98898315
 45
296.98950195
 46
58.32
 47
40.32
 48
0.0
 49
0.0
140
0.0
141
0.0
142
1.0
143
1.0
 70
  1716
 72
     1
 73
     0
 74
     2
  7
big.ctb
 75
    16
147
1.0
148
0.0
149
0.0
  0
PLOTSETTINGS
  5
759
102
{ACAD_REACTORS
330
566
102
}
330
566
100
AcDbPlotSettings
  1
A3(2倍)
  2
\\AWTECPC05\HP DeskJet 1120C
  4
A3
  6

 40
5.95841646
 41
13.49375153
 42
6.04309082
 43
3.67242432
 44
296.92599487
 45
419.94665527
 46
-67.54
 47
-95.61
 48
0.0
 49
0.0
140
0.0
141
0.0
142
1.0
143
0.5
 70
  1716
 72
     1
 73
     1
 74
     2
  7
big.ctb
 75
    27
147
2.0
148
0.0
149
0.0
  0
PLOTSETTINGS
  5
755
102
{ACAD_REACTORS
330
566
102
}
330
566
100
AcDbPlotSettings
  1
A4(0.5倍)
  2
\\AWTECPC05\HP DeskJet 1120C
  4
A4
  6

 40
4.18041658
 41
13.49374962
 42
4.18040466
 43
3.92642212
 44
209.97332764
 45
296.92599487
 46
48.31
 47
65.5
 48
0.0
 49
0.0
140
0.0
141
0.0
142
1.0
143
2.0
 70
  1716
 72
     1
 73
     1
 74
     2
  7
big.ctb
 75
    17
147
0.5
148
0.0
149
0.0
  0
PLOTSETTINGS
  5
754
102
{ACAD_REACTORS
330
566
102
}
330
566
100
AcDbPlotSettings
  1
A4(1倍)
  2
\\AWTECPC05\HP DeskJet 1120C
  4
A4
  6

 40
4.18041658
 41
13.49374962
 42
4.18040466
 43
3.92642212
 44
209.97332764
 45
296.92599487
 46
-4.19
 47
-8.75
 48
0.0
 49
0.0
140
0.0
141
0.0
142
1.0
143
1.0
 70
  1716
 72
     1
 73
     1
 74
     2
  7
big.ctb
 75
    16
147
1.0
148
0.0
149
0.0
  0
PLOTSETTINGS
  5
708
102
{ACAD_REACTORS
330
566
102
}
330
566
100
AcDbPlotSettings
  1
A4(1倍)(2000)
  2
SII LS-1300 (D-SCAN)
  4
User259
  6

 40
3.17499995
 41
3.17499995
 42
3.17498779
 43
3.17500305
 44
296.98950195
 45
209.99449158
 46
-3.18
 47
-3.18
 48
0.0
 49
0.0
140
0.0
141
0.0
142
1.0
143
1.0
 70
  1716
 72
     1
 73
     0
 74
     2
  7
big.ctb
 75
    16
147
1.0
148
0.0
149
0.0
  0
PLOTSETTINGS
  5
756
102
{ACAD_REACTORS
330
566
102
}
330
566
100
AcDbPlotSettings
  1
A4(2倍)
  2
\\AWTECPC05\HP DeskJet 1120C
  4
A4
  6

 40
4.18041658
 41
13.49374962
 42
4.18040466
 43
3.92642212
 44
209.97332764
 45
296.92599487
 46
-109.19
 47
-157.25
 48
0.0
 49
0.0
140
0.0
141
0.0
142
1.0
143
0.5
 70
  1716
 72
     1
 73
     1
 74
     2
  7
big.ctb
 75
    27
147
2.0
148
0.0
149
0.0
  0
ACDBPLACEHOLDER
  5
564
102
{ACAD_REACTORS
330
563
102
}
330
563
100
AcDbPlaceHolder
280
     0
  0
XRECORD
  5
1316
102
{ACAD_REACTORS
330
130C
102
}
330
130C
100
AcDbXrecord
 90
        0
  0
XRECORD
  5
131A
102
{ACAD_REACTORS
330
130C
102
}
330
130C
100
AcDbXrecord
1000
DSTYLE
1002
{
1070
    79
 70
     2
1070
   179
 70
     3
1070
   341
340
594
1070
   343
340
594
1070
   344
340
594
1070
   371
 70
    -1
1070
   372
 70
    -1
1002
}
  0
XRECORD
  5
1317
102
{ACAD_REACTORS
330
130C
102
}
330
130C
100
AcDbXrecord
  1
{51294030-9CB4-11D3-8E18-00A0C925D94D}
  0
XRECORD
  5
130F
102
{ACAD_REACTORS
330
130C
102
}
330
130C
100
AcDbXrecord
  1

  0
XRECORD
  5
1315
102
{ACAD_REACTORS
330
130C
102
}
330
130C
100
AcDbXrecord
 90
        0
  0
XRECORD
  5
1311
102
{ACAD_REACTORS
330
130C
102
}
330
130C
100
AcDbXrecord
340
565
  0
XRECORD
  5
1314
102
{ACAD_REACTORS
330
130C
102
}
330
130C
100
AcDbXrecord
 90
    10781
  0
XRECORD
  5
1312
102
{ACAD_REACTORS
330
130C
102
}
330
130C
100
AcDbXrecord
340
566
  0
XRECORD
  5
1313
102
{ACAD_REACTORS
330
130C
102
}
330
130C
100
AcDbXrecord
340
563
  0
XRECORD
  5
1319
102
{ACAD_REACTORS
330
130C
102
}
330
130C
100
AcDbXrecord
 40
0.0
  0
XRECORD
  5
131D
102
{ACAD_REACTORS
330
130C
102
}
330
130C
100
AcDbXrecord
340
0
  0
XRECORD
  5
1323
102
{ACAD_REACTORS
330
130C
102
}
330
130C
100
AcDbXrecord
 10
0.0
 20
0.0
 30
0.0
  0
XRECORD
  5
131F
102
{ACAD_REACTORS
330
130C
102
}
330
130C
100
AcDbXrecord
 10
0.0
 20
0.0
 30
0.0
  0
XRECORD
  5
1322
102
{ACAD_REACTORS
330
130C
102
}
330
130C
100
AcDbXrecord
 10
0.0
 20
0.0
 30
0.0
  0
XRECORD
  5
1320
102
{ACAD_REACTORS
330
130C
102
}
330
130C
100
AcDbXrecord
 10
0.0
 20
0.0
 30
0.0
  0
XRECORD
  5
1321
102
{ACAD_REACTORS
330
130C
102
}
330
130C
100
AcDbXrecord
 10
0.0
 20
0.0
 30
0.0
  0
XRECORD
  5
131E
102
{ACAD_REACTORS
330
130C
102
}
330
130C
100
AcDbXrecord
 10
0.0
 20
0.0
 30
0.0
  0
XRECORD
  5
131B
102
{ACAD_REACTORS
330
130C
102
}
330
130C
100
AcDbXrecord
340
0
  0
XRECORD
  5
131C
102
{ACAD_REACTORS
330
130C
102
}
330
130C
100
AcDbXrecord
 70
     0
  0
XRECORD
  5
1310
102
{ACAD_REACTORS
330
130C
102
}
330
130C
100
AcDbXrecord
  1
big.ctb
  0
XRECORD
  5
130D
102
{ACAD_REACTORS
330
130C
102
}
330
130C
100
AcDbXrecord
 90
        1
  0
XRECORD
  5
130E
102
{ACAD_REACTORS
330
130C
102
}
330
130C
100
AcDbXrecord
 90
       70
  0
XRECORD
  5
1326
102
{ACAD_REACTORS
330
130C
102
}
330
130C
100
AcDbXrecord
340
0
  0
XRECORD
  5
132C
102
{ACAD_REACTORS
330
130C
102
}
330
130C
100
AcDbXrecord
 10
0.0
 20
0.0
 30
0.0
  0
XRECORD
  5
1328
102
{ACAD_REACTORS
330
130C
102
}
330
130C
100
AcDbXrecord
 10
0.0
 20
0.0
 30
0.0
  0
XRECORD
  5
132B
102
{ACAD_REACTORS
330
130C
102
}
330
130C
100
AcDbXrecord
 10
0.0
 20
0.0
 30
0.0
  0
XRECORD
  5
1329
102
{ACAD_REACTORS
330
130C
102
}
330
130C
100
AcDbXrecord
 10
0.0
 20
0.0
 30
0.0
  0
XRECORD
  5
132A
102
{ACAD_REACTORS
330
130C
102
}
330
130C
100
AcDbXrecord
 10
0.0
 20
0.0
 30
0.0
  0
XRECORD
  5
1327
102
{ACAD_REACTORS
330
130C
102
}
330
130C
100
AcDbXrecord
 10
0.0
 20
0.0
 30
0.0
  0
XRECORD
  5
1324
102
{ACAD_REACTORS
330
130C
102
}
330
130C
100
AcDbXrecord
340
0
  0
XRECORD
  5
1325
102
{ACAD_REACTORS
330
130C
102
}
330
130C
100
AcDbXrecord
 70
     0
  0
XRECORD
  5
1318
102
{ACAD_REACTORS
330
130C
102
}
330
130C
100
AcDbXrecord
  1
{D0BE740E-D560-444C-9B7A-16E74AE25522}
  0
XRECORD
  5
560
102
{ACAD_REACTORS
330
540
102
}
330
540
100
AcDbXrecord
  1
2.0.0
  0
ENDSEC
  0
EOF
