  0
SECTION
  2
HEADER
  9
$ACADVER
  1
AC1014
  9
$ACADMAINTVER
 70
     9
  9
$DWGCODEPAGE
  3
ANSI_932
  9
$INSBASE
 10
0.0
 20
0.0
 30
0.0
  9
$EXTMIN
 10
-66.41484262
 20
-31.71713736
 30
-0.00152582
  9
$EXTMAX
 10
134.01289142
 20
61.02264515
 30
0.00000003
  9
$LIMMIN
 10
0.0
 20
0.0
  9
$LIMMAX
 10
420.0
 20
297.0
  9
$ORTHOMODE
 70
     0
  9
$REGENMODE
 70
     1
  9
$FILLMODE
 70
     1
  9
$QTEXTMODE
 70
     0
  9
$MIRRTEXT
 70
     1
  9
$DRAGMODE
 70
     2
  9
$LTSCALE
 40
10.0
  9
$OSMODE
 70
   549
  9
$ATTMODE
 70
     1
  9
$TEXTSIZE
 40
3.0
  9
$TRACEWID
 40
1.0
  9
$TEXTSTYLE
  7
YOKO
  9
$CLAYER
  8
245
  9
$CELTYPE
  6
BYLAYER
  9
$CECOLOR
 62
   256
  9
$CELTSCALE
 40
1.0
  9
$DELOBJ
 70
     1
  9
$DISPSILH
 70
     0
  9
$DIMSCALE
 40
1.0
  9
$DIMASZ
 40
2.23
  9
$DIMEXO
 40
0.5
  9
$DIMDLI
 40
2.5
  9
$DIMRND
 40
0.0
  9
$DIMDLE
 40
0.0
  9
$DIMEXE
 40
1.0
  9
$DIMTP
 40
0.0
  9
$DIMTM
 40
0.0
  9
$DIMTXT
 40
2.8
  9
$DIMCEN
 40
0.0
  9
$DIMTSZ
 40
0.0
  9
$DIMTOL
 70
     0
  9
$DIMLIM
 70
     0
  9
$DIMTIH
 70
     0
  9
$DIMTOH
 70
     0
  9
$DIMSE1
 70
     0
  9
$DIMSE2
 70
     0
  9
$DIMTAD
 70
     3
  9
$DIMZIN
 70
     8
  9
$DIMBLK
  1

  9
$DIMASO
 70
     1
  9
$DIMSHO
 70
     1
  9
$DIMPOST
  1

  9
$DIMAPOST
  1

  9
$DIMALT
 70
     0
  9
$DIMALTD
 70
     2
  9
$DIMALTF
 40
25.4
  9
$DIMLFAC
 40
1.0
  9
$DIMTOFL
 70
     1
  9
$DIMTVP
 40
0.0
  9
$DIMTIX
 70
     1
  9
$DIMSOXD
 70
     0
  9
$DIMSAH
 70
     1
  9
$DIMBLK1
  1
OPEN
  9
$DIMBLK2
  1
OPEN
  9
$DIMSTYLE
  2
BIGT
  9
$DIMCLRD
 70
   256
  9
$DIMCLRE
 70
   256
  9
$DIMCLRT
 70
    40
  9
$DIMTFAC
 40
1.0
  9
$DIMGAP
 40
1.0
  9
$DIMJUST
 70
     0
  9
$DIMSD1
 70
     0
  9
$DIMSD2
 70
     0
  9
$DIMTOLJ
 70
     1
  9
$DIMTZIN
 70
     8
  9
$DIMALTZ
 70
     0
  9
$DIMALTTZ
 70
     0
  9
$DIMFIT
 70
     3
  9
$DIMUPT
 70
     0
  9
$DIMUNIT
 70
     2
  9
$DIMDEC
 70
     3
  9
$DIMTDEC
 70
     3
  9
$DIMALTU
 70
     2
  9
$DIMALTTD
 70
     2
  9
$DIMTXSTY
  7
STANDARD
  9
$DIMAUNIT
 70
     0
  9
$LUNITS
 70
     2
  9
$LUPREC
 70
     3
  9
$SKETCHINC
 40
1.0
  9
$FILLETRAD
 40
0.0
  9
$AUNITS
 70
     0
  9
$AUPREC
 70
     3
  9
$MENU
  1
.
  9
$ELEVATION
 40
0.0
  9
$PELEVATION
 40
0.0
  9
$THICKNESS
 40
0.0
  9
$LIMCHECK
 70
     0
  9
$BLIPMODE
 70
     0
  9
$CHAMFERA
 40
10.0
  9
$CHAMFERB
 40
10.0
  9
$CHAMFERC
 40
0.0
  9
$CHAMFERD
 40
0.0
  9
$SKPOLY
 70
     0
  9
$TDCREATE
 40
2455141.456228830
  9
$TDUPDATE
 40
2455383.485618842
  9
$TDINDWG
 40
0.0045379398
  9
$TDUSRTIMER
 40
0.0045377662
  9
$USRTIMER
 70
     1
  9
$ANGBASE
 50
0.0
  9
$ANGDIR
 70
     0
  9
$PDMODE
 70
     1
  9
$PDSIZE
 40
-5.0
  9
$PLINEWID
 40
0.0
  9
$COORDS
 70
     1
  9
$SPLFRAME
 70
     0
  9
$SPLINETYPE
 70
     6
  9
$SPLINESEGS
 70
     8
  9
$ATTDIA
 70
     0
  9
$ATTREQ
 70
     1
  9
$HANDLING
 70
-16383
  9
$HANDSEED
  5
1606
  9
$SURFTAB1
 70
     6
  9
$SURFTAB2
 70
     6
  9
$SURFTYPE
 70
     6
  9
$SURFU
 70
     6
  9
$SURFV
 70
     6
  9
$UCSNAME
  2

  9
$UCSORG
 10
0.0
 20
0.0
 30
0.0
  9
$UCSXDIR
 10
1.0
 20
0.0
 30
0.0
  9
$UCSYDIR
 10
0.0
 20
1.0
 30
0.0
  9
$PUCSNAME
  2

  9
$PUCSORG
 10
0.0
 20
0.0
 30
0.0
  9
$PUCSXDIR
 10
1.0
 20
0.0
 30
0.0
  9
$PUCSYDIR
 10
0.0
 20
1.0
 30
0.0
  9
$USERI1
 70
     1
  9
$USERI2
 70
     0
  9
$USERI3
 70
     0
  9
$USERI4
 70
     0
  9
$USERI5
 70
     0
  9
$USERR1
 40
0.0
  9
$USERR2
 40
0.0
  9
$USERR3
 40
0.0
  9
$USERR4
 40
0.0
  9
$USERR5
 40
0.0
  9
$WORLDVIEW
 70
     1
  9
$SHADEDGE
 70
     3
  9
$SHADEDIF
 70
    70
  9
$TILEMODE
 70
     1
  9
$MAXACTVP
 70
    16
  9
$PINSBASE
 10
0.0
 20
0.0
 30
0.0
  9
$PLIMCHECK
 70
     0
  9
$PEXTMIN
 10
1.00000000E+20
 20
1.00000000E+20
 30
1.00000000E+20
  9
$PEXTMAX
 10
-1.00000000E+20
 20
-1.00000000E+20
 30
-1.00000000E+20
  9
$PLIMMIN
 10
0.0
 20
0.0
  9
$PLIMMAX
 10
420.0
 20
297.0
  9
$UNITMODE
 70
     0
  9
$VISRETAIN
 70
     0
  9
$PLINEGEN
 70
     0
  9
$PSLTSCALE
 70
     1
  9
$TREEDEPTH
 70
  3020
  9
$PICKSTYLE
 70
     0
  9
$CMLSTYLE
  2
STANDARD
  9
$CMLJUST
 70
     0
  9
$CMLSCALE
 40
1.0
  9
$PROXYGRAPHICS
 70
     1
  9
$MEASUREMENT
 70
     1
  0
ENDSEC
  0
SECTION
  2
CLASSES
  0
CLASS
  1
XRECORD
  2
AcDbXrecord
  3
AutoCAD 2000
 90
        0
280
     0
281
     0
  0
CLASS
  1
ACDBDICTIONARYWDFLT
  2
AcDbDictionaryWithDefault
  3
AutoCAD 2000
 90
        0
280
     0
281
     0
  0
CLASS
  1
ACDBPLACEHOLDER
  2
AcDbPlaceHolder
  3
AutoCAD 2000
 90
        0
280
     0
281
     0
  0
CLASS
  1
LAYOUT
  2
AcDbLayout
  3
AutoCAD 2000
 90
        0
280
     0
281
     0
  0
CLASS
  1
PLOTSETTINGS
  2
AcDbPlotSettings
  3
AutoCAD 2000
 90
        0
280
     0
281
     0
  0
CLASS
  1
LONG_TRANSACTION
  2
AcDbLongTransaction
  3
AutoCAD 2000
 90
        0
280
     0
281
     0
  0
CLASS
  1
LWPOLYLINE
  2
AcDbPolyline
  3
AutoCAD 2000
 90
        0
280
     0
281
     1
  0
CLASS
  1
HATCH
  2
AcDbHatch
  3
AutoCAD 2000
 90
        0
280
     0
281
     1
  0
CLASS
  1
XRECORD
  2
AcDbXrecord
  3
AutoCAD 2000
 90
        0
280
     0
281
     0
  0
CLASS
  1
LONG_TRANSACTION
  2
AcDbLongTransaction
  3
AutoCAD 2000
 90
        0
280
     0
281
     0
  0
CLASS
  1
LWPOLYLINE
  2
AcDbPolyline
  3
AutoCAD 2000
 90
        0
280
     0
281
     1
  0
CLASS
  1
HATCH
  2
AcDbHatch
  3
AutoCAD 2000
 90
        0
280
     0
281
     1
  0
CLASS
  1
XRECORD
  2
AcDbXrecord
  3
AutoCAD 2000
 90
        0
280
     0
281
     0
  0
ENDSEC
  0
SECTION
  2
TABLES
  0
TABLE
  2
VPORT
  5
8
330
0
100
AcDbSymbolTable
 70
     2
  0
VPORT
  5
15E1
330
8
100
AcDbSymbolTableRecord
100
AcDbViewportTableRecord
  2
*ACTIVE
 70
     0
 10
0.0
 20
0.0
 11
1.0
 21
1.0
 12
33.7990244
 22
14.65275389
 13
0.0
 23
0.0
 14
7.0
 24
7.0
 15
7.0
 25
7.0
 16
0.0
 26
0.0
 36
1.0
 17
0.0
 27
0.0
 37
0.0
 40
138.39422077
 41
1.45595855
 42
50.0
 43
0.0
 44
0.0
 50
0.0
 51
0.0
 71
     0
 72
  2000
 73
     1
 74
     0
 75
     0
 76
     0
 77
     0
 78
     0
  0
ENDTAB
  0
TABLE
  2
LTYPE
  5
5
330
0
100
AcDbSymbolTable
 70
     4
  0
LTYPE
  5
14
330
5
100
AcDbSymbolTableRecord
100
AcDbLinetypeTableRecord
  2
BYBLOCK
 70
     0
  3

 72
    65
 73
     0
 40
0.0
  0
LTYPE
  5
15
330
5
100
AcDbSymbolTableRecord
100
AcDbLinetypeTableRecord
  2
BYLAYER
 70
     0
  3

 72
    65
 73
     0
 40
0.0
  0
LTYPE
  5
16
330
5
100
AcDbSymbolTableRecord
100
AcDbLinetypeTableRecord
  2
CONTINUOUS
 70
     0
  3
Solid line
 72
    65
 73
     0
 40
0.0
  0
LTYPE
  5
258
330
5
100
AcDbSymbolTableRecord
100
AcDbLinetypeTableRecord
  2
CENTER2
 70
     0
  3
___ _ ___ _ ___ _ ___ _ ___ _ ___ _ ___ _ ___ _
 72
    65
 73
     4
 40
1.125
 49
0.75
 74
     0
 49
-0.125
 74
     0
 49
0.125
 74
     0
 49
-0.125
 74
     0
  0
LTYPE
  5
25C
330
5
100
AcDbSymbolTableRecord
100
AcDbLinetypeTableRecord
  2
HIDDEN2
 70
     0
  3
_ _ _ _ _ _ _ _ _ _ _ _ _ _ _ _ _ _ _ _ _ _ _ _
 72
    65
 73
     2
 40
0.1875
 49
0.125
 74
     0
 49
-0.0625
 74
     0
  0
LTYPE
  5
25D
330
5
100
AcDbSymbolTableRecord
100
AcDbLinetypeTableRecord
  2
PHANTOM2
 70
     0
  3
___ _ _ ___ _ _ ___ _ _ ___ _ _ ___ _ _ ___ _ _
 72
    65
 73
     6
 40
1.25
 49
0.625
 74
     0
 49
-0.125
 74
     0
 49
0.125
 74
     0
 49
-0.125
 74
     0
 49
0.125
 74
     0
 49
-0.125
 74
     0
  0
ENDTAB
  0
TABLE
  2
LAYER
  5
2
330
0
100
AcDbSymbolTable
 70
    11
  0
LAYER
  5
F
330
2
100
AcDbSymbolTableRecord
100
AcDbLayerTableRecord
  2
0
 70
     0
 62
     7
  6
CONTINUOUS
  0
LAYER
  5
1AA
330
2
100
AcDbSymbolTableRecord
100
AcDbLayerTableRecord
  2
240
 70
     0
 62
     4
  6
CONTINUOUS
  0
LAYER
  5
1AB
330
2
100
AcDbSymbolTableRecord
100
AcDbLayerTableRecord
  2
241
 70
     0
 62
   211
  6
CONTINUOUS
  0
LAYER
  5
1AF
330
2
100
AcDbSymbolTableRecord
100
AcDbLayerTableRecord
  2
245
 70
     0
 62
     2
  6
CENTER2
  0
LAYER
  5
21A
330
2
100
AcDbSymbolTableRecord
100
AcDbLayerTableRecord
  2
246
 70
     0
 62
     3
  6
PHANTOM2
  0
LAYER
  5
21E
330
2
100
AcDbSymbolTableRecord
100
AcDbLayerTableRecord
  2
250
 70
     0
 62
     3
  6
CONTINUOUS
  0
LAYER
  5
5C4
330
2
100
AcDbSymbolTableRecord
100
AcDbLayerTableRecord
  2
DEFPOINTS
 70
     0
 62
     7
  6
CONTINUOUS
  0
ENDTAB
  0
TABLE
  2
STYLE
  5
3
330
0
100
AcDbSymbolTable
 70
     2
  0
STYLE
  5
10
330
3
100
AcDbSymbolTableRecord
100
AcDbTextStyleTableRecord
  2
STANDARD
 70
     0
 40
0.0
 41
1.0
 50
0.0
 71
     0
 42
3.0
  3
romans.shx
  4
BIGFONT.SHX
  0
STYLE
  5
339
330
3
100
AcDbSymbolTableRecord
100
AcDbTextStyleTableRecord
  2
YOKO
 70
     0
 40
0.0
 41
1.0
 50
0.0
 71
     0
 42
3.0
  3
romans.shx
  4
extfont.shx
  0
ENDTAB
  0
TABLE
  2
VIEW
  5
6
330
0
100
AcDbSymbolTable
 70
     0
  0
ENDTAB
  0
TABLE
  2
UCS
  5
7
330
0
100
AcDbSymbolTable
 70
     0
  0
ENDTAB
  0
TABLE
  2
APPID
  5
9
330
0
100
AcDbSymbolTable
 70
    12
  0
APPID
  5
11
330
9
100
AcDbSymbolTableRecord
100
AcDbRegAppTableRecord
  2
ACAD
 70
     0
  0
APPID
  5
1B1
330
9
100
AcDbSymbolTableRecord
100
AcDbRegAppTableRecord
  2
GLOBAL
 70
     0
  0
APPID
  5
2A4
330
9
100
AcDbSymbolTableRecord
100
AcDbRegAppTableRecord
  2
DETAIL
 70
     0
  0
APPID
  5
5FD
330
9
100
AcDbSymbolTableRecord
100
AcDbRegAppTableRecord
  2
GRPNAME
 70
     0
  0
APPID
  5
5FE
330
9
100
AcDbSymbolTableRecord
100
AcDbRegAppTableRecord
  2
GPARA
 70
     0
  0
APPID
  5
6C4
330
9
100
AcDbSymbolTableRecord
100
AcDbRegAppTableRecord
  2
DCO15
 70
     0
  0
APPID
  5
6C5
330
9
100
AcDbSymbolTableRecord
100
AcDbRegAppTableRecord
  2
ITEMNAME
 70
     0
  0
APPID
  5
6C6
330
9
100
AcDbSymbolTableRecord
100
AcDbRegAppTableRecord
  2
GRADE_0
 70
     0
  0
APPID
  5
7B1
330
9
100
AcDbSymbolTableRecord
100
AcDbRegAppTableRecord
  2
HATCH_TYPE
 70
     0
  0
APPID
  5
7B2
330
9
100
AcDbSymbolTableRecord
100
AcDbRegAppTableRecord
  2
HATCH_DISPLAY
 70
     0
  0
APPID
  5
7B3
330
9
100
AcDbSymbolTableRecord
100
AcDbRegAppTableRecord
  2
HATCH_DISTANCE
 70
     0
  0
APPID
  5
11FE
330
9
100
AcDbSymbolTableRecord
100
AcDbRegAppTableRecord
  2
CONTENTBLOCKICON
 70
     0
  0
ENDTAB
  0
TABLE
  2
DIMSTYLE
  5
A
330
0
100
AcDbSymbolTable
 70
     4
  0
DIMSTYLE
105
725
102
{ACAD_REACTORS
330
F20
330
F2F
330
F3E
330
F68
102
}
330
A
100
AcDbSymbolTableRecord
100
AcDbDimStyleTableRecord
  2
BIGT
 70
     0
  3

  4

  5

  6
OPEN
  7
OPEN
 40
1.0
 41
2.23
 42
0.5
 43
2.5
 44
1.0
 45
0.0
 46
0.0
 47
0.0
 48
0.0
140
2.8
141
0.0
142
0.0
143
25.4
144
1.0
145
0.0
146
1.0
147
1.0
 71
     0
 72
     0
 73
     0
 74
     0
 75
     0
 76
     0
 77
     3
 78
     8
170
     0
171
     2
172
     1
173
     1
174
     1
175
     0
176
   256
177
   256
178
    40
270
     2
271
     3
272
     3
273
     2
274
     2
340
10
275
     0
280
     0
281
     0
282
     0
283
     1
284
     8
285
     0
286
     0
287
     3
288
     0
  0
ENDTAB
  0
TABLE
  2
BLOCK_RECORD
  5
1
330
0
100
AcDbSymbolTable
 70
     8
  0
BLOCK_RECORD
  5
1A
102
{ACAD_XDICTIONARY
360
11FC
102
}
330
1
100
AcDbSymbolTableRecord
100
AcDbBlockTableRecord
  2
*MODEL_SPACE
  0
BLOCK_RECORD
  5
17
102
{ACAD_XDICTIONARY
360
11FA
102
}
330
1
100
AcDbSymbolTableRecord
100
AcDbBlockTableRecord
  2
*PAPER_SPACE
  0
BLOCK_RECORD
  5
594
330
1
100
AcDbSymbolTableRecord
100
AcDbBlockTableRecord
  2
_OPEN
  0
BLOCK_RECORD
  5
6E3
330
1
100
AcDbSymbolTableRecord
100
AcDbBlockTableRecord
  2
矢印なし
  0
BLOCK_RECORD
  5
F21
330
1
100
AcDbSymbolTableRecord
100
AcDbBlockTableRecord
  2
*D2
  0
BLOCK_RECORD
  5
F30
330
1
100
AcDbSymbolTableRecord
100
AcDbBlockTableRecord
  2
*D3
  0
BLOCK_RECORD
  5
F3F
330
1
100
AcDbSymbolTableRecord
100
AcDbBlockTableRecord
  2
*D4
  0
BLOCK_RECORD
  5
F69
330
1
100
AcDbSymbolTableRecord
100
AcDbBlockTableRecord
  2
*D5
  0
BLOCK_RECORD
  5
FC7
330
1
100
AcDbSymbolTableRecord
100
AcDbBlockTableRecord
  2
1
1001
CONTENTBLOCKICON
1071
        0
1004
2800000020000000200000000100080000000000000400000000000000000000000000000000000000000000000080000080000000808000800000008000800080800000C0C0C000C0DCC000F0CAA6000020400000206000002080000020A0000020C0000020E00000400000004020000040400000406000004080000040A0
1004
000040C0000040E00000600000006020000060400000606000006080000060A0000060C0000060E00000800000008020000080400000806000008080000080A0000080C0000080E00000A0000000A0200000A0400000A0600000A0800000A0A00000A0C00000A0E00000C0000000C0200000C0400000C0600000C0800000C0
1004
A00000C0C00000C0E00000E0000000E0200000E0400000E0600000E0800000E0A00000E0C00000E0E00040000000400020004000400040006000400080004000A0004000C0004000E00040200000402020004020400040206000402080004020A0004020C0004020E000404000004040200040404000404060004040800040
1004
40A0004040C0004040E00040600000406020004060400040606000406080004060A0004060C0004060E00040800000408020004080400040806000408080004080A0004080C0004080E00040A0000040A0200040A0400040A0600040A0800040A0A00040A0C00040A0E00040C0000040C0200040C0400040C0600040C08000
1004
40C0A00040C0C00040C0E00040E0000040E0200040E0400040E0600040E0800040E0A00040E0C00040E0E00080000000800020008000400080006000800080008000A0008000C0008000E00080200000802020008020400080206000802080008020A0008020C0008020E00080400000804020008040400080406000804080
1004
008040A0008040C0008040E00080600000806020008060400080606000806080008060A0008060C0008060E00080800000808020008080400080806000808080008080A0008080C0008080E00080A0000080A0200080A0400080A0600080A0800080A0A00080A0C00080A0E00080C0000080C0200080C0400080C0600080C0
1004
800080C0A00080C0C00080C0E00080E0000080E0200080E0400080E0600080E0800080E0A00080E0C00080E0E000C0000000C0002000C0004000C0006000C0008000C000A000C000C000C000E000C0200000C0202000C0204000C0206000C0208000C020A000C020C000C020E000C0400000C0402000C0404000C0406000C0
1004
408000C040A000C040C000C040E000C0600000C0602000C0604000C0606000C0608000C060A000C060C000C060E000C0800000C0802000C0804000C0806000C0808000C080A000C080C000C080E000C0A00000C0A02000C0A04000C0A06000C0A08000C0A0A000C0A0C000C0A0E000C0C00000C0C02000C0C04000C0C06000
1004
C0C08000C0C0A000F0FBFF00A4A0A000808080000000FF0000FF000000FFFF00FF000000FF00FF00FFFF0000FFFFFF0000000000000000000000000000000000000000000000000000000000000000000000000000000000000000000000000000000000000000000000000000000000000000000000000000000000000000
1004
00000000000000000000000000000000000000000000000000000000000000000000000000000000000000000000000000000000000000000000000000000000000000000000000000000000000000000000000000000000000000000000000000000000000000000000000000000000000000000000000000000000000000
1004
00000000000000000000000000000000000000000000000000000000000000000000000000000000000000000000000000000000000000000000000000000000000000000000000000000000000000000000000000000000000000000000000000000000000000000000000000000000000000000000000000000000000000
1004
00000000000000000000000000000000000000000000000000000000000000FEFEFBFE00000000000000000000000000000000000000000000000000FEFEFEFEE7FEE7FEE700000000000000000000000000000000000000FEFEFEFE0000E7E7E7E7E7E7E7FEFE0000000000000000000000000000FEFEFE000000000000E7
1004
E7E7E7E7E7E70000E7FEFEFEFEFEFEFEFEFE00000000FE0000000000000000E7E7E7E7E7E7E70000E7000000000000E7E7E7000000FBFEFBFBFBFBFBFBFBFBE7E7E7E7E7E7E7FBFBE7FBFBFBFBFBFBE7E7E7FB000000FEFEFE000000000000E7E7E7E7E7E7E70000E7FEFEFEFEFEFEFEE7E700000000000000FEFEFEFE0000
1004
E7E7E7E7E7E7E7FEFEFE0000000000000000000000000000000000000000FEFEFEFEE7FEE7FEFE0000000000000000000000000000000000000000000000000000FEFEFBFE00000000000000000000000000000000000000000000000000000000000000000000000000000000000000000000000000000000000000000000
1004
00000000000000000000000000000000000000000000000000000000000000000000000000000000000000000000000000000000000000000000000000000000000000000000000000000000000000000000000000000000000000000000000000000000000000000000000000000000000000000000000000000000000000
1004
00000000000000000000000000000000000000000000000000000000000000000000000000000000000000000000000000000000000000000000000000000000000000000000000000000000000000000000000000000000000000000000000000000000000000000000000000000000000000000000000000000000000000
1004
0000000000000000000000000000000000000000000000000000000000000000000000000000000000000000000000000000000000000000
  0
ENDTAB
  0
ENDSEC
  0
SECTION
  2
BLOCKS
  0
BLOCK
  5
1B
330
1A
100
AcDbEntity
  8
0
100
AcDbBlockBegin
  2
*MODEL_SPACE
 70
     0
 10
0.0
 20
0.0
 30
0.0
  3
*MODEL_SPACE
  1

  0
ENDBLK
  5
1C
330
1A
100
AcDbEntity
  8
0
100
AcDbBlockEnd
  0
BLOCK
  5
18
330
17
100
AcDbEntity
 67
     1
  8
0
100
AcDbBlockBegin
  2
*PAPER_SPACE
 70
     0
 10
0.0
 20
0.0
 30
0.0
  3
*PAPER_SPACE
  1

  0
ENDBLK
  5
19
330
17
100
AcDbEntity
 67
     1
  8
0
100
AcDbBlockEnd
  0
BLOCK
  5
598
330
594
100
AcDbEntity
  8
0
100
AcDbBlockBegin
  2
_OPEN
 70
     0
 10
0.0
 20
0.0
 30
0.0
  3
_OPEN
  1

  0
LINE
  5
595
330
594
100
AcDbEntity
  8
0
  6
BYBLOCK
 62
     0
100
AcDbLine
 10
-1.0
 20
0.16666667
 30
0.0
 11
0.0
 21
0.0
 31
0.0
  0
LINE
  5
596
330
594
100
AcDbEntity
  8
0
  6
BYBLOCK
 62
     0
100
AcDbLine
 10
-1.0
 20
-0.16666667
 30
0.0
 11
0.0
 21
0.0
 31
0.0
  0
LINE
  5
597
330
594
100
AcDbEntity
  8
0
  6
BYBLOCK
 62
     0
100
AcDbLine
 10
0.0
 20
0.0
 30
0.0
 11
-1.0
 21
0.0
 31
0.0
  0
ENDBLK
  5
599
330
594
100
AcDbEntity
  8
0
100
AcDbBlockEnd
  0
BLOCK
  5
6E4
330
6E3
100
AcDbEntity
  8
0
100
AcDbBlockBegin
  2
矢印なし
 70
     0
 10
0.0
 20
0.0
 30
0.0
  3
矢印なし
  1

  0
ENDBLK
  5
6E5
330
6E3
100
AcDbEntity
  8
0
100
AcDbBlockEnd
  0
BLOCK
  5
F2B
330
F21
100
AcDbEntity
  8
0
100
AcDbBlockBegin
  2
*D2
 70
     1
 10
0.0
 20
0.0
 30
0.0
  3
*D2
  1

  0
LINE
  5
FBE
330
F21
100
AcDbEntity
  8
250
  6
CONTINUOUS
100
AcDbLine
 10
120.5
 20
-10.0
 30
0.0
 11
134.0
 21
-10.0
 31
0.0
  0
LINE
  5
FBF
330
F21
100
AcDbEntity
  8
250
  6
CONTINUOUS
100
AcDbLine
 10
120.5
 20
10.0
 30
0.0
 11
134.0
 21
10.0
 31
0.0
  0
LINE
  5
FC0
330
F21
100
AcDbEntity
  8
250
  6
CONTINUOUS
100
AcDbLine
 10
133.0
 20
-7.77
 30
0.0
 11
133.0
 21
7.77
 31
0.0
  0
INSERT
  5
FC1
330
F21
100
AcDbEntity
  8
250
  6
CONTINUOUS
100
AcDbBlockReference
  2
_OPEN
 10
133.0
 20
-10.0
 30
0.0
 41
2.23
 42
2.23
 43
2.23
 50
270.0
  0
INSERT
  5
FC2
330
F21
100
AcDbEntity
  8
250
  6
CONTINUOUS
100
AcDbBlockReference
  2
_OPEN
 10
133.0
 20
10.0
 30
0.0
 41
2.23
 42
2.23
 43
2.23
 50
90.0
  0
MTEXT
  5
FC3
330
F21
100
AcDbEntity
  8
250
  6
CONTINUOUS
 62
    40
100
AcDbMText
 10
130.6
 20
0.0
 30
0.0
 40
2.8
 41
0.0
 71
     5
 72
     1
  1
\A1;{\H2.8;\U+2205}20
 11
0.0
 21
1.0
 31
0.0
1001
ACAD
1000
MTEXTBEGIN
1070
    73
1070
     1
1070
    44
1040
1.0
1070
    74
1070
     0
1000
MTEXTEND
1000
MTEXTBEGIN
1070
    73
1070
     1
1070
    44
1040
1.0
1070
    74
1070
     0
1000
MTEXTEND
  0
POINT
  5
FC4
330
F21
100
AcDbEntity
  8
DEFPOINTS
  6
CONTINUOUS
 62
     0
100
AcDbPoint
 10
120.0
 20
-10.0
 30
0.0
  0
POINT
  5
FC5
330
F21
100
AcDbEntity
  8
DEFPOINTS
  6
CONTINUOUS
 62
     0
100
AcDbPoint
 10
120.0
 20
10.0
 30
0.0
  0
POINT
  5
FC6
330
F21
100
AcDbEntity
  8
DEFPOINTS
  6
CONTINUOUS
 62
     0
100
AcDbPoint
 10
133.0
 20
10.0
 30
0.0
  0
ENDBLK
  5
F2C
330
F21
100
AcDbEntity
  8
0
100
AcDbBlockEnd
  0
BLOCK
  5
F3A
330
F30
100
AcDbEntity
  8
0
100
AcDbBlockBegin
  2
*D3
 70
     1
 10
0.0
 20
0.0
 30
0.0
  3
*D3
  1

  0
LINE
  5
FB5
330
F30
100
AcDbEntity
  8
250
  6
CONTINUOUS
100
AcDbLine
 10
112.0
 20
10.5
 30
0.0
 11
112.0
 21
29.0
 31
0.0
  0
LINE
  5
FB6
330
F30
100
AcDbEntity
  8
250
  6
CONTINUOUS
100
AcDbLine
 10
120.0
 20
10.5
 30
0.0
 11
120.0
 21
29.0
 31
0.0
  0
LINE
  5
FB7
330
F30
100
AcDbEntity
  8
250
  6
CONTINUOUS
100
AcDbLine
 10
114.23
 20
28.0
 30
0.0
 11
117.77
 21
28.0
 31
0.0
  0
INSERT
  5
FB8
330
F30
100
AcDbEntity
  8
250
  6
CONTINUOUS
100
AcDbBlockReference
  2
_OPEN
 10
112.0
 20
28.0
 30
0.0
 41
2.23
 42
2.23
 43
2.23
 50
180.0
  0
INSERT
  5
FB9
330
F30
100
AcDbEntity
  8
250
  6
CONTINUOUS
100
AcDbBlockReference
  2
_OPEN
 10
120.0
 20
28.0
 30
0.0
 41
2.23
 42
2.23
 43
2.23
  0
MTEXT
  5
FBA
330
F30
100
AcDbEntity
  8
250
  6
CONTINUOUS
 62
    40
100
AcDbMText
 10
116.0
 20
30.4
 30
0.0
 40
2.8
 41
0.0
 71
     5
 72
     1
  1
\A1;8
1001
ACAD
1000
MTEXTBEGIN
1070
    73
1070
     1
1070
    44
1040
1.0
1070
    74
1070
     0
1000
MTEXTEND
1000
MTEXTBEGIN
1070
    73
1070
     1
1070
    44
1040
1.0
1070
    74
1070
     0
1000
MTEXTEND
  0
POINT
  5
FBB
330
F30
100
AcDbEntity
  8
DEFPOINTS
  6
CONTINUOUS
 62
     0
100
AcDbPoint
 10
112.0
 20
10.0
 30
0.0
  0
POINT
  5
FBC
330
F30
100
AcDbEntity
  8
DEFPOINTS
  6
CONTINUOUS
 62
     0
100
AcDbPoint
 10
120.0
 20
10.0
 30
0.0
  0
POINT
  5
FBD
330
F30
100
AcDbEntity
  8
DEFPOINTS
  6
CONTINUOUS
 62
     0
100
AcDbPoint
 10
120.0
 20
28.0
 30
0.0
  0
ENDBLK
  5
F3B
330
F30
100
AcDbEntity
  8
0
100
AcDbBlockEnd
  0
BLOCK
  5
F49
330
F3F
100
AcDbEntity
  8
0
100
AcDbBlockBegin
  2
*D4
 70
     1
 10
0.0
 20
0.0
 30
0.0
  3
*D4
  1

  0
LINE
  5
FAC
330
F3F
100
AcDbEntity
  8
250
  6
CONTINUOUS
100
AcDbLine
 10
60.0
 20
9.97198734
 30
0.0
 11
60.0
 21
36.0
 31
0.0
  0
LINE
  5
FAD
330
F3F
100
AcDbEntity
  8
250
  6
CONTINUOUS
100
AcDbLine
 10
120.0
 20
10.5
 30
0.0
 11
120.0
 21
36.0
 31
0.0
  0
LINE
  5
FAE
330
F3F
100
AcDbEntity
  8
250
  6
CONTINUOUS
100
AcDbLine
 10
62.23
 20
35.0
 30
0.0
 11
117.77
 21
35.0
 31
0.0
  0
INSERT
  5
FAF
330
F3F
100
AcDbEntity
  8
250
  6
CONTINUOUS
100
AcDbBlockReference
  2
_OPEN
 10
60.0
 20
35.0
 30
0.0
 41
2.23
 42
2.23
 43
2.23
 50
180.0
  0
INSERT
  5
FB0
330
F3F
100
AcDbEntity
  8
250
  6
CONTINUOUS
100
AcDbBlockReference
  2
_OPEN
 10
120.0
 20
35.0
 30
0.0
 41
2.23
 42
2.23
 43
2.23
  0
MTEXT
  5
FB1
330
F3F
100
AcDbEntity
  8
250
  6
CONTINUOUS
 62
    40
100
AcDbMText
 10
90.0
 20
37.4
 30
0.0
 40
2.8
 41
0.0
 71
     5
 72
     1
  1
\A1;60
1001
ACAD
1000
MTEXTBEGIN
1070
    73
1070
     1
1070
    44
1040
1.0
1070
    74
1070
     0
1000
MTEXTEND
1000
MTEXTBEGIN
1070
    73
1070
     1
1070
    44
1040
1.0
1070
    74
1070
     0
1000
MTEXTEND
  0
POINT
  5
FB2
330
F3F
100
AcDbEntity
  8
DEFPOINTS
  6
CONTINUOUS
 62
     0
100
AcDbPoint
 10
60.0
 20
9.47198734
 30
0.0
  0
POINT
  5
FB3
330
F3F
100
AcDbEntity
  8
DEFPOINTS
  6
CONTINUOUS
 62
     0
100
AcDbPoint
 10
120.0
 20
10.0
 30
0.0
  0
POINT
  5
FB4
330
F3F
100
AcDbEntity
  8
DEFPOINTS
  6
CONTINUOUS
 62
     0
100
AcDbPoint
 10
120.0
 20
35.0
 30
0.0
  0
ENDBLK
  5
F4A
330
F3F
100
AcDbEntity
  8
0
100
AcDbBlockEnd
  0
BLOCK
  5
F73
330
F69
100
AcDbEntity
  8
0
100
AcDbBlockBegin
  2
*D5
 70
     1
 10
0.0
 20
0.0
 30
0.0
  3
*D5
  1

  0
LINE
  5
FA3
330
F69
100
AcDbEntity
  8
250
  6
CONTINUOUS
100
AcDbLine
 10
0.0
 20
22.725
 30
0.0
 11
0.0
 21
43.0
 31
0.0
  0
LINE
  5
FA4
330
F69
100
AcDbEntity
  8
250
  6
CONTINUOUS
100
AcDbLine
 10
120.0
 20
10.5
 30
0.0
 11
120.0
 21
43.0
 31
0.0
  0
LINE
  5
FA5
330
F69
100
AcDbEntity
  8
250
  6
CONTINUOUS
100
AcDbLine
 10
2.23
 20
42.0
 30
0.0
 11
117.77
 21
42.0
 31
0.0
  0
INSERT
  5
FA6
330
F69
100
AcDbEntity
  8
250
  6
CONTINUOUS
100
AcDbBlockReference
  2
_OPEN
 10
0.0
 20
42.0
 30
0.0
 41
2.23
 42
2.23
 43
2.23
 50
180.0
  0
INSERT
  5
FA7
330
F69
100
AcDbEntity
  8
250
  6
CONTINUOUS
100
AcDbBlockReference
  2
_OPEN
 10
120.0
 20
42.0
 30
0.0
 41
2.23
 42
2.23
 43
2.23
  0
MTEXT
  5
FA8
330
F69
100
AcDbEntity
  8
250
  6
CONTINUOUS
 62
    40
100
AcDbMText
 10
60.0
 20
44.4
 30
0.0
 40
2.8
 41
0.0
 71
     5
 72
     1
  1
\A1;120
1001
ACAD
1000
MTEXTBEGIN
1070
    73
1070
     1
1070
    44
1040
1.0
1070
    74
1070
     0
1000
MTEXTEND
1000
MTEXTBEGIN
1070
    73
1070
     1
1070
    44
1040
1.0
1070
    74
1070
     0
1000
MTEXTEND
  0
POINT
  5
FA9
330
F69
100
AcDbEntity
  8
DEFPOINTS
  6
CONTINUOUS
 62
     0
100
AcDbPoint
 10
0.0
 20
22.225
 30
0.0
  0
POINT
  5
FAA
330
F69
100
AcDbEntity
  8
DEFPOINTS
  6
CONTINUOUS
 62
     0
100
AcDbPoint
 10
120.0
 20
10.0
 30
0.0
  0
POINT
  5
FAB
330
F69
100
AcDbEntity
  8
DEFPOINTS
  6
CONTINUOUS
 62
     0
100
AcDbPoint
 10
120.0
 20
42.0
 30
0.0
  0
ENDBLK
  5
F74
330
F69
100
AcDbEntity
  8
0
100
AcDbBlockEnd
  0
BLOCK
  5
FC8
330
FC7
100
AcDbEntity
  8
0
100
AcDbBlockBegin
  2
1
 70
     0
 10
0.0
 20
0.0
 30
0.0
  3
1
  1

  0
LINE
  5
1488
330
FC7
100
AcDbEntity
  8
240
  6
CONTINUOUS
100
AcDbLine
 10
21.6
 20
31.5
 30
0.0
 11
26.0
 21
31.5
 31
0.0
  0
LINE
  5
1489
330
FC7
100
AcDbEntity
  8
240
  6
CONTINUOUS
100
AcDbLine
 10
21.6
 20
-31.5
 30
0.0
 11
26.0
 21
-31.5
 31
0.0
  0
LINE
  5
148A
330
FC7
100
AcDbEntity
  8
245
100
AcDbLine
 10
-66.4
 20
0.0
 30
0.0
 11
121.0
 21
0.0
 31
0.0
  0
LINE
  5
148B
330
FC7
100
AcDbEntity
  8
241
  6
HIDDEN2
100
AcDbLine
 10
23.0
 20
22.5
 30
0.0
 11
23.0
 21
31.5
 31
0.0
  0
LINE
  5
148C
330
FC7
100
AcDbEntity
  8
240
  6
CONTINUOUS
100
AcDbLine
 10
21.6
 20
31.5
 30
0.0
 11
18.71324865
 21
26.5
 31
0.0
  0
LINE
  5
148D
330
FC7
100
AcDbEntity
  8
240
  6
CONTINUOUS
100
AcDbLine
 10
1.0
 20
22.225
 30
0.0
 11
1.0
 21
30.5
 31
0.0
  0
LINE
  5
148E
330
FC7
100
AcDbEntity
  8
240
  6
CONTINUOUS
100
AcDbLine
 10
11.6
 20
31.5
 30
0.0
 11
14.48675135
 21
26.5
 31
0.0
  0
LINE
  5
148F
330
FC7
100
AcDbEntity
  8
241
  6
CONTINUOUS
100
AcDbLine
 10
11.6
 20
31.5
 30
0.0
 11
11.6
 21
0.0
 31
0.0
  0
LINE
  5
1490
330
FC7
100
AcDbEntity
  8
241
  6
CONTINUOUS
100
AcDbLine
 10
21.6
 20
0.0
 30
0.0
 11
21.6
 21
31.5
 31
0.0
  0
LINE
  5
1491
330
FC7
100
AcDbEntity
  8
245
  6
CENTER2
100
AcDbLine
 10
16.6
 20
-31.5
 30
0.0
 11
16.6
 21
31.5
 31
0.0
  0
LINE
  5
1492
330
FC7
100
AcDbEntity
  8
240
  6
CONTINUOUS
100
AcDbLine
 10
0.0
 20
-22.225
 30
0.0
 11
-64.03089103
 21
-12.88716173
 31
0.0
  0
LINE
  5
1493
330
FC7
100
AcDbEntity
  8
240
  6
CONTINUOUS
100
AcDbLine
 10
0.0
 20
22.225
 30
0.0
 11
-64.03089103
 21
12.88716173
 31
0.0
  0
LINE
  5
1494
330
FC7
100
AcDbEntity
  8
240
  6
CONTINUOUS
100
AcDbLine
 10
-65.4
 20
11.30390896
 30
0.0
 11
-65.4
 21
0.0
 31
0.0
  0
LINE
  5
1495
330
FC7
100
AcDbEntity
  8
240
  6
CONTINUOUS
100
AcDbLine
 10
-65.4
 20
-11.30390896
 30
0.0
 11
-65.4
 21
0.0
 31
0.0
  0
ARC
  5
1496
330
FC7
100
AcDbEntity
  8
240
  6
CONTINUOUS
100
AcDbCircle
 10
-63.8
 20
-11.30390896
 30
0.0
 40
1.6
100
AcDbArc
 50
180.0
 51
261.70285503
  0
ARC
  5
1497
330
FC7
100
AcDbEntity
  8
240
  6
CONTINUOUS
100
AcDbCircle
 10
-63.8
 20
11.30390896
 30
0.0
 40
1.6
100
AcDbArc
 50
98.29714497
 51
180.0
  0
LINE
  5
1498
330
FC7
100
AcDbEntity
  8
241
  6
CONTINUOUS
100
AcDbLine
 10
0.0
 20
-22.225
 30
0.0
 11
0.0
 21
0.0
 31
0.0
  0
LINE
  5
1499
330
FC7
100
AcDbEntity
  8
241
100
AcDbLine
 10
1.0
 20
0.0
 30
0.0
 11
1.0
 21
-22.225
 31
0.0
  0
LINE
  5
149A
330
FC7
100
AcDbEntity
  8
241
  6
CONTINUOUS
100
AcDbLine
 10
11.6
 20
-31.5
 30
0.0
 11
11.6
 21
0.0
 31
0.0
  0
LINE
  5
149B
330
FC7
100
AcDbEntity
  8
241
  6
CONTINUOUS
100
AcDbLine
 10
21.6
 20
0.0
 30
0.0
 11
21.6
 21
-31.5
 31
0.0
  0
LINE
  5
149C
330
FC7
100
AcDbEntity
  8
241
  6
CONTINUOUS
100
AcDbLine
 10
18.71324865
 20
-26.5
 30
0.0
 11
18.71324865
 21
0.0
 31
0.0
  0
LINE
  5
149D
330
FC7
100
AcDbEntity
  8
241
  6
CONTINUOUS
100
AcDbLine
 10
14.48675135
 20
-26.5
 30
0.0
 11
14.48675135
 21
0.0
 31
0.0
  0
LINE
  5
149E
330
FC7
100
AcDbEntity
  8
241
  6
HIDDEN2
100
AcDbLine
 10
23.0
 20
-22.5
 30
0.0
 11
1.0
 21
-22.5
 31
0.0
  0
LINE
  5
149F
330
FC7
100
AcDbEntity
  8
240
  6
CONTINUOUS
100
AcDbLine
 10
2.0
 20
-31.5
 30
0.0
 11
11.6
 21
-31.5
 31
0.0
  0
LINE
  5
14A0
330
FC7
100
AcDbEntity
  8
240
  6
CONTINUOUS
100
AcDbLine
 10
1.0
 20
-22.225
 30
0.0
 11
1.0
 21
-30.5
 31
0.0
  0
ARC
  5
14A1
330
FC7
100
AcDbEntity
  8
240
  6
CONTINUOUS
100
AcDbCircle
 10
2.0
 20
-30.5
 30
0.0
 40
1.0
100
AcDbArc
 50
180.0
 51
270.0
  0
LINE
  5
14A2
330
FC7
100
AcDbEntity
  8
240
100
AcDbLine
 10
0.0
 20
-22.225
 30
0.0
 11
1.0
 21
-22.225
 31
0.0
  0
LINE
  5
14A3
330
FC7
100
AcDbEntity
  8
240
  6
CONTINUOUS
100
AcDbLine
 10
18.71324865
 20
-26.5
 30
0.0
 11
14.48675135
 21
-26.5
 31
0.0
  0
LINE
  5
14A4
330
FC7
100
AcDbEntity
  8
240
  6
CONTINUOUS
100
AcDbLine
 10
14.48675135
 20
-26.5
 30
0.0
 11
11.6
 21
-31.5
 31
0.0
  0
LINE
  5
14A5
330
FC7
100
AcDbEntity
  8
240
  6
CONTINUOUS
100
AcDbLine
 10
18.71324865
 20
-26.5
 30
0.0
 11
21.6
 21
-31.5
 31
0.0
  0
LINE
  5
14A6
330
FC7
100
AcDbEntity
  8
241
  6
HIDDEN2
100
AcDbLine
 10
23.0
 20
-22.5
 30
0.0
 11
23.0
 21
-31.5
 31
0.0
  0
LINE
  5
14A7
330
FC7
100
AcDbEntity
  8
241
  6
CONTINUOUS
100
AcDbLine
 10
14.48675135
 20
26.5
 30
0.0
 11
14.48675135
 21
0.0
 31
0.0
  0
LINE
  5
14A8
330
FC7
100
AcDbEntity
  8
241
  6
CONTINUOUS
100
AcDbLine
 10
18.71324865
 20
26.5
 30
0.0
 11
18.71324865
 21
0.0
 31
0.0
  0
LINE
  5
14A9
330
FC7
100
AcDbEntity
  8
241
  6
CONTINUOUS
100
AcDbLine
 10
0.0
 20
22.225
 30
0.0
 11
0.0
 21
0.0
 31
0.0
  0
LINE
  5
14AA
330
FC7
100
AcDbEntity
  8
241
100
AcDbLine
 10
1.0
 20
0.0
 30
0.0
 11
1.0
 21
22.225
 31
0.0
  0
LINE
  5
14AB
330
FC7
100
AcDbEntity
  8
241
  6
HIDDEN2
100
AcDbLine
 10
23.0
 20
22.5
 30
0.0
 11
1.0
 21
22.5
 31
0.0
  0
LINE
  5
14AC
330
FC7
100
AcDbEntity
  8
240
100
AcDbLine
 10
0.0
 20
22.225
 30
0.0
 11
1.0
 21
22.225
 31
0.0
  0
LINE
  5
14AD
330
FC7
100
AcDbEntity
  8
240
  6
CONTINUOUS
100
AcDbLine
 10
18.71324865
 20
26.5
 30
0.0
 11
14.48675135
 21
26.5
 31
0.0
  0
LINE
  5
14AE
330
FC7
100
AcDbEntity
  8
240
  6
CONTINUOUS
100
AcDbLine
 10
2.0
 20
31.5
 30
0.0
 11
11.6
 21
31.5
 31
0.0
  0
ARC
  5
14AF
330
FC7
100
AcDbEntity
  8
240
  6
CONTINUOUS
100
AcDbCircle
 10
2.0
 20
30.5
 30
0.0
 40
1.0
100
AcDbArc
 50
90.0
 51
180.0
  0
ARC
  5
14B0
330
FC7
100
AcDbEntity
  8
240
100
AcDbCircle
 10
32.0
 20
30.0
 30
0.0
 40
5.0
100
AcDbArc
 50
180.0
 51
236.8011556
  0
LINE
  5
14B1
330
FC7
100
AcDbEntity
  8
241
  6
CONTINUOUS
100
AcDbLine
 10
27.0
 20
0.0
 30
0.0
 11
27.0
 21
30.0
 31
0.0
  0
LINE
  5
14B2
330
FC7
100
AcDbEntity
  8
240
100
AcDbLine
 10
108.87572518
 20
-9.25
 30
0.0
 11
63.64279588
 21
-9.25
 31
0.0
  0
ARC
  5
14B3
330
FC7
100
AcDbEntity
  8
241
100
AcDbCircle
 10
104.37893004
 20
-2.024089
 30
0.0
 40
3.128930035431663
100
AcDbArc
 50
79.9999824
 51
256.43374474
  0
LINE
  5
14B4
330
FC7
100
AcDbEntity
  8
240
100
AcDbLine
 10
108.87572518
 20
9.25
 30
0.0
 11
63.64279588
 21
9.25
 31
0.0
  0
LINE
  5
14B5
330
FC7
100
AcDbEntity
  8
241
  6
CONTINUOUS
100
AcDbLine
 10
27.0
 20
-30.0
 30
0.0
 11
27.0
 21
0.0
 31
0.0
  0
LINE
  5
14B6
330
FC7
100
AcDbEntity
  8
241
  6
CONTINUOUS
100
AcDbLine
 10
31.06095171
 20
-24.64704267
 30
0.0
 11
31.06095171
 21
0.0
 31
0.0
1001
GRPNAME
1000
PASTMD01
  0
LINE
  5
14B7
330
FC7
100
AcDbEntity
  8
241
  6
CONTINUOUS
100
AcDbLine
 10
32.06710032
 20
-23.99308169
 30
0.0
 11
32.06710032
 21
0.0
 31
0.0
1001
GRPNAME
1000
PASTMD01
  0
LINE
  5
14B8
330
FC7
100
AcDbEntity
  8
241
  6
CONTINUOUS
100
AcDbLine
 10
35.06095171
 20
-22.04718429
 30
0.0
 11
35.06095171
 21
0.0
 31
0.0
1001
GRPNAME
1000
PASTMD01
  0
LINE
  5
14B9
330
FC7
100
AcDbEntity
  8
240
  6
CONTINUOUS
100
AcDbLine
 10
47.29377144
 20
-14.09628458
 30
0.0
 11
29.26226955
 21
-25.81612237
 31
0.0
  0
ARC
  5
14BA
330
FC7
100
AcDbEntity
  8
240
100
AcDbCircle
 10
32.0
 20
-30.0
 30
0.0
 40
5.0
100
AcDbArc
 50
123.1988268
 51
180.0
  0
LINE
  5
14BB
330
FC7
100
AcDbEntity
  8
240
  6
CONTINUOUS
100
AcDbLine
 10
27.0
 20
-30.5
 30
0.0
 11
27.0
 21
-30.0
 31
0.0
  0
ARC
  5
14BC
330
FC7
100
AcDbEntity
  8
240
  6
CONTINUOUS
100
AcDbCircle
 10
26.0
 20
-30.5
 30
0.0
 40
1.0
100
AcDbArc
 50
270.0
 51
0.0
  0
ARC
  5
14BD
330
FC7
100
AcDbEntity
  8
240
  6
CONTINUOUS
100
AcDbCircle
 10
63.64279588
 20
-39.25
 30
0.0
 40
30.0
100
AcDbArc
 50
90.0
 51
123.02244146
  0
ARC
  5
14BE
330
FC7
100
AcDbEntity
  8
240
  6
CONTINUOUS
100
AcDbCircle
 10
63.64279588
 20
39.25
 30
0.0
 40
30.0
100
AcDbArc
 50
236.97755854
 51
270.0
  0
LINE
  5
14BF
330
FC7
100
AcDbEntity
  8
241
100
AcDbLine
 10
54.75000002
 20
9.25
 30
0.0
 11
54.75000002
 21
0.0
 31
0.0
  0
LINE
  5
14C0
330
FC7
100
AcDbEntity
  8
241
  6
CONTINUOUS
100
AcDbLine
 10
36.06710032
 20
21.39322331
 30
0.0
 11
36.06710032
 21
0.0
 31
0.0
1001
GRPNAME
1000
PASTMD01
  0
LINE
  5
14C1
330
FC7
100
AcDbEntity
  8
241
  6
CONTINUOUS
100
AcDbLine
 10
35.06095171
 20
22.04718429
 30
0.0
 11
35.06095171
 21
0.0
 31
0.0
1001
GRPNAME
1000
PASTMD01
  0
LINE
  5
14C2
330
FC7
100
AcDbEntity
  8
241
  6
CONTINUOUS
100
AcDbLine
 10
32.06710032
 20
23.99308169
 30
0.0
 11
32.06710032
 21
0.0
 31
0.0
1001
GRPNAME
1000
PASTMD01
  0
LINE
  5
14C3
330
FC7
100
AcDbEntity
  8
241
  6
CONTINUOUS
100
AcDbLine
 10
31.06095171
 20
24.64704267
 30
0.0
 11
31.06095171
 21
0.0
 31
0.0
1001
GRPNAME
1000
PASTMD01
  0
LINE
  5
14C4
330
FC7
100
AcDbEntity
  8
241
  6
CONTINUOUS
100
AcDbLine
 10
36.06710032
 20
-21.39322331
 30
0.0
 11
36.06710032
 21
0.0
 31
0.0
1001
GRPNAME
1000
PASTMD01
  0
LINE
  5
14C5
330
FC7
100
AcDbEntity
  8
241
100
AcDbLine
 10
54.75000002
 20
-9.25
 30
0.0
 11
54.75000002
 21
0.0
 31
0.0
  0
LINE
  5
14C6
330
FC7
100
AcDbEntity
  8
240
  6
CONTINUOUS
100
AcDbLine
 10
47.29377144
 20
14.09628458
 30
0.0
 11
29.26226955
 21
25.81612237
 31
0.0
  0
LINE
  5
14C7
330
FC7
100
AcDbEntity
  8
240
100
AcDbLine
 10
119.25
 20
9.39776986
 30
0.0
 11
119.25
 21
1.09735373
 31
0.0
  0
LINE
  5
14C8
330
FC7
100
AcDbEntity
  8
246
100
AcDbLine
 10
120.0
 20
-10.0
 30
0.0
 11
120.0
 21
10.0
 31
0.0
  0
LINE
  5
14C9
330
FC7
100
AcDbEntity
  8
240
100
AcDbLine
 10
120.0
 20
-3.518
 30
0.0
 11
119.25
 21
-3.24502232
 31
0.0
  0
LINE
  5
14CA
330
FC7
100
AcDbEntity
  8
240
100
AcDbLine
 10
119.18414098
 20
1.10896645
 30
0.0
 11
120.0
 21
-3.518
 31
0.0
  0
LINE
  5
14CB
330
FC7
100
AcDbEntity
  8
246
100
AcDbLine
 10
112.0
 20
-10.0
 30
0.0
 11
120.0
 21
-10.0
 31
0.0
  0
LINE
  5
14CC
330
FC7
100
AcDbEntity
  8
240
100
AcDbLine
 10
119.25
 20
-9.39776986
 30
0.0
 11
119.25
 21
-3.24502232
 31
0.0
  0
LINE
  5
14CD
330
FC7
100
AcDbEntity
  8
241
100
AcDbLine
 10
103.64497901
 20
-5.06571999
 30
0.0
 11
119.17099374
 21
-8.81217525
 31
0.0
  0
LINE
  5
14CE
330
FC7
100
AcDbEntity
  8
240
100
AcDbLine
 10
119.25
 20
-9.39776986
 30
0.0
 11
110.18194299
 21
-9.6
 31
0.0
  0
LINE
  5
14CF
330
FC7
100
AcDbEntity
  8
240
100
AcDbLine
 10
108.87572518
 20
-9.25
 30
0.0
 11
110.18194299
 21
-9.6
 31
0.0
  0
LINE
  5
14D0
330
FC7
100
AcDbEntity
  8
241
100
AcDbLine
 10
110.18194298
 20
2.69629684
 30
0.0
 11
119.18414098
 21
1.10896645
 31
0.0
  0
LINE
  5
14D1
330
FC7
100
AcDbEntity
  8
241
100
AcDbLine
 10
108.92202417
 20
0.51405346
 30
0.0
 11
119.25
 21
-3.24502232
 31
0.0
  0
LINE
  5
14D2
330
FC7
100
AcDbEntity
  8
241
100
AcDbLine
 10
108.83712813
 20
0.36700921
 30
0.0
 11
104.92226303
 21
1.05730555
 31
0.0
  0
LINE
  5
14D3
330
FC7
100
AcDbEntity
  8
241
100
AcDbLine
 10
108.83712813
 20
0.36700921
 30
0.0
 11
110.18194298
 21
2.69629684
 31
0.0
  0
LINE
  5
14D4
330
FC7
100
AcDbEntity
  8
240
100
AcDbLine
 10
119.25
 20
1.09735373
 30
0.0
 11
119.18414098
 21
1.10896645
 31
0.0
  0
LINE
  5
14D5
330
FC7
100
AcDbEntity
  8
246
100
AcDbLine
 10
112.0
 20
10.0
 30
0.0
 11
120.0
 21
10.0
 31
0.0
  0
LINE
  5
14D6
330
FC7
100
AcDbEntity
  8
240
100
AcDbLine
 10
119.25
 20
9.39776986
 30
0.0
 11
110.18194299
 21
9.6
 31
0.0
  0
LINE
  5
14D7
330
FC7
100
AcDbEntity
  8
240
100
AcDbLine
 10
108.87572518
 20
9.25
 30
0.0
 11
110.18194299
 21
9.6
 31
0.0
  0
POLYLINE
  5
14D8
330
FC7
100
AcDbEntity
  8
241
100
AcDb3dPolyline
 66
     1
 10
0.0
 20
0.0
 30
0.0
 70
     8
  0
VERTEX
  5
14D9
330
14D8
100
AcDbEntity
  8
241
100
AcDbVertex
100
AcDb3dPolylineVertex
 10
116.351
 20
6.2117
 30
0.0
 70
    32
  0
VERTEX
  5
14DA
330
14D8
100
AcDbEntity
  8
241
100
AcDbVertex
100
AcDb3dPolylineVertex
 10
116.356
 20
6.23947
 30
0.0
 70
    32
  0
VERTEX
  5
14DB
330
14D8
100
AcDbEntity
  8
241
100
AcDbVertex
100
AcDb3dPolylineVertex
 10
116.359
 20
6.26737
 30
0.0
 70
    32
  0
VERTEX
  5
14DC
330
14D8
100
AcDbEntity
  8
241
100
AcDbVertex
100
AcDb3dPolylineVertex
 10
116.362
 20
6.29537
 30
0.0
 70
    32
  0
VERTEX
  5
14DD
330
14D8
100
AcDbEntity
  8
241
100
AcDbVertex
100
AcDb3dPolylineVertex
 10
116.364
 20
6.32346
 30
0.0
 70
    32
  0
VERTEX
  5
14DE
330
14D8
100
AcDbEntity
  8
241
100
AcDbVertex
100
AcDb3dPolylineVertex
 10
116.365
 20
6.35163
 30
0.0
 70
    32
  0
VERTEX
  5
14DF
330
14D8
100
AcDbEntity
  8
241
100
AcDbVertex
100
AcDb3dPolylineVertex
 10
116.366
 20
6.37985
 30
0.0
 70
    32
  0
VERTEX
  5
14E0
330
14D8
100
AcDbEntity
  8
241
100
AcDbVertex
100
AcDb3dPolylineVertex
 10
116.366
 20
6.40811
 30
0.0
 70
    32
  0
VERTEX
  5
14E1
330
14D8
100
AcDbEntity
  8
241
100
AcDbVertex
100
AcDb3dPolylineVertex
 10
116.364
 20
6.4364
 30
0.0
 70
    32
  0
VERTEX
  5
14E2
330
14D8
100
AcDbEntity
  8
241
100
AcDbVertex
100
AcDb3dPolylineVertex
 10
116.362
 20
6.46469
 30
0.0
 70
    32
  0
VERTEX
  5
14E3
330
14D8
100
AcDbEntity
  8
241
100
AcDbVertex
100
AcDb3dPolylineVertex
 10
116.36
 20
6.49297
 30
0.0
 70
    32
  0
VERTEX
  5
14E4
330
14D8
100
AcDbEntity
  8
241
100
AcDbVertex
100
AcDb3dPolylineVertex
 10
116.356
 20
6.52123
 30
0.0
 70
    32
  0
VERTEX
  5
14E5
330
14D8
100
AcDbEntity
  8
241
100
AcDbVertex
100
AcDb3dPolylineVertex
 10
116.352
 20
6.54944
 30
0.0
 70
    32
  0
VERTEX
  5
14E6
330
14D8
100
AcDbEntity
  8
241
100
AcDbVertex
100
AcDb3dPolylineVertex
 10
116.346
 20
6.57758
 30
0.0
 70
    32
  0
VERTEX
  5
14E7
330
14D8
100
AcDbEntity
  8
241
100
AcDbVertex
100
AcDb3dPolylineVertex
 10
116.34
 20
6.60565
 30
0.0
 70
    32
  0
VERTEX
  5
14E8
330
14D8
100
AcDbEntity
  8
241
100
AcDbVertex
100
AcDb3dPolylineVertex
 10
116.334
 20
6.63362
 30
0.0
 70
    32
  0
VERTEX
  5
14E9
330
14D8
100
AcDbEntity
  8
241
100
AcDbVertex
100
AcDb3dPolylineVertex
 10
116.326
 20
6.66147
 30
0.0
 70
    32
  0
VERTEX
  5
14EA
330
14D8
100
AcDbEntity
  8
241
100
AcDbVertex
100
AcDb3dPolylineVertex
 10
116.318
 20
6.6892
 30
0.0
 70
    32
  0
VERTEX
  5
14EB
330
14D8
100
AcDbEntity
  8
241
100
AcDbVertex
100
AcDb3dPolylineVertex
 10
116.309
 20
6.71678
 30
0.0
 70
    32
  0
VERTEX
  5
14EC
330
14D8
100
AcDbEntity
  8
241
100
AcDbVertex
100
AcDb3dPolylineVertex
 10
116.299
 20
6.7442
 30
0.0
 70
    32
  0
VERTEX
  5
14ED
330
14D8
100
AcDbEntity
  8
241
100
AcDbVertex
100
AcDb3dPolylineVertex
 10
116.288
 20
6.77144
 30
0.0
 70
    32
  0
VERTEX
  5
14EE
330
14D8
100
AcDbEntity
  8
241
100
AcDbVertex
100
AcDb3dPolylineVertex
 10
116.276
 20
6.79848
 30
0.0
 70
    32
  0
VERTEX
  5
14EF
330
14D8
100
AcDbEntity
  8
241
100
AcDbVertex
100
AcDb3dPolylineVertex
 10
116.264
 20
6.82531
 30
0.0
 70
    32
  0
VERTEX
  5
14F0
330
14D8
100
AcDbEntity
  8
241
100
AcDbVertex
100
AcDb3dPolylineVertex
 10
116.251
 20
6.85191
 30
0.0
 70
    32
  0
VERTEX
  5
14F1
330
14D8
100
AcDbEntity
  8
241
100
AcDbVertex
100
AcDb3dPolylineVertex
 10
116.238
 20
6.87827
 30
0.0
 70
    32
  0
VERTEX
  5
14F2
330
14D8
100
AcDbEntity
  8
241
100
AcDbVertex
100
AcDb3dPolylineVertex
 10
116.223
 20
6.90437
 30
0.0
 70
    32
  0
VERTEX
  5
14F3
330
14D8
100
AcDbEntity
  8
241
100
AcDbVertex
100
AcDb3dPolylineVertex
 10
116.208
 20
6.93019
 30
0.0
 70
    32
  0
VERTEX
  5
14F4
330
14D8
100
AcDbEntity
  8
241
100
AcDbVertex
100
AcDb3dPolylineVertex
 10
116.192
 20
6.95572
 30
0.0
 70
    32
  0
VERTEX
  5
14F5
330
14D8
100
AcDbEntity
  8
241
100
AcDbVertex
100
AcDb3dPolylineVertex
 10
116.176
 20
6.98094
 30
0.0
 70
    32
  0
VERTEX
  5
14F6
330
14D8
100
AcDbEntity
  8
241
100
AcDbVertex
100
AcDb3dPolylineVertex
 10
116.158
 20
7.00584
 30
0.0
 70
    32
  0
VERTEX
  5
14F7
330
14D8
100
AcDbEntity
  8
241
100
AcDbVertex
100
AcDb3dPolylineVertex
 10
116.14
 20
7.03041
 30
0.0
 70
    32
  0
VERTEX
  5
14F8
330
14D8
100
AcDbEntity
  8
241
100
AcDbVertex
100
AcDb3dPolylineVertex
 10
116.122
 20
7.05462
 30
0.0
 70
    32
  0
VERTEX
  5
14F9
330
14D8
100
AcDbEntity
  8
241
100
AcDbVertex
100
AcDb3dPolylineVertex
 10
116.102
 20
7.07846
 30
0.0
 70
    32
  0
VERTEX
  5
14FA
330
14D8
100
AcDbEntity
  8
241
100
AcDbVertex
100
AcDb3dPolylineVertex
 10
116.082
 20
7.10193
 30
0.0
 70
    32
  0
VERTEX
  5
14FB
330
14D8
100
AcDbEntity
  8
241
100
AcDbVertex
100
AcDb3dPolylineVertex
 10
116.062
 20
7.125
 30
0.0
 70
    32
  0
VERTEX
  5
14FC
330
14D8
100
AcDbEntity
  8
241
100
AcDbVertex
100
AcDb3dPolylineVertex
 10
116.041
 20
7.14766
 30
0.0
 70
    32
  0
VERTEX
  5
14FD
330
14D8
100
AcDbEntity
  8
241
100
AcDbVertex
100
AcDb3dPolylineVertex
 10
116.019
 20
7.16989
 30
0.0
 70
    32
  0
VERTEX
  5
14FE
330
14D8
100
AcDbEntity
  8
241
100
AcDbVertex
100
AcDb3dPolylineVertex
 10
115.996
 20
7.1917
 30
0.0
 70
    32
  0
VERTEX
  5
14FF
330
14D8
100
AcDbEntity
  8
241
100
AcDbVertex
100
AcDb3dPolylineVertex
 10
115.973
 20
7.21305
 30
0.0
 70
    32
  0
VERTEX
  5
1500
330
14D8
100
AcDbEntity
  8
241
100
AcDbVertex
100
AcDb3dPolylineVertex
 10
115.95
 20
7.23394
 30
0.0
 70
    32
  0
VERTEX
  5
1501
330
14D8
100
AcDbEntity
  8
241
100
AcDbVertex
100
AcDb3dPolylineVertex
 10
115.926
 20
7.25435
 30
0.0
 70
    32
  0
VERTEX
  5
1502
330
14D8
100
AcDbEntity
  8
241
100
AcDbVertex
100
AcDb3dPolylineVertex
 10
115.901
 20
7.27428
 30
0.0
 70
    32
  0
VERTEX
  5
1503
330
14D8
100
AcDbEntity
  8
241
100
AcDbVertex
100
AcDb3dPolylineVertex
 10
115.876
 20
7.29371
 30
0.0
 70
    32
  0
VERTEX
  5
1504
330
14D8
100
AcDbEntity
  8
241
100
AcDbVertex
100
AcDb3dPolylineVertex
 10
115.85
 20
7.31263
 30
0.0
 70
    32
  0
VERTEX
  5
1505
330
14D8
100
AcDbEntity
  8
241
100
AcDbVertex
100
AcDb3dPolylineVertex
 10
115.824
 20
7.33103
 30
0.0
 70
    32
  0
VERTEX
  5
1506
330
14D8
100
AcDbEntity
  8
241
100
AcDbVertex
100
AcDb3dPolylineVertex
 10
115.797
 20
7.34889
 30
0.0
 70
    32
  0
VERTEX
  5
1507
330
14D8
100
AcDbEntity
  8
241
100
AcDbVertex
100
AcDb3dPolylineVertex
 10
115.77
 20
7.36622
 30
0.0
 70
    32
  0
VERTEX
  5
1508
330
14D8
100
AcDbEntity
  8
241
100
AcDbVertex
100
AcDb3dPolylineVertex
 10
115.742
 20
7.38298
 30
0.0
 70
    32
  0
VERTEX
  5
1509
330
14D8
100
AcDbEntity
  8
241
100
AcDbVertex
100
AcDb3dPolylineVertex
 10
115.714
 20
7.39918
 30
0.0
 70
    32
  0
VERTEX
  5
150A
330
14D8
100
AcDbEntity
  8
241
100
AcDbVertex
100
AcDb3dPolylineVertex
 10
115.686
 20
7.41481
 30
0.0
 70
    32
  0
VERTEX
  5
150B
330
14D8
100
AcDbEntity
  8
241
100
AcDbVertex
100
AcDb3dPolylineVertex
 10
115.657
 20
7.42986
 30
0.0
 70
    32
  0
VERTEX
  5
150C
330
14D8
100
AcDbEntity
  8
241
100
AcDbVertex
100
AcDb3dPolylineVertex
 10
115.628
 20
7.44431
 30
0.0
 70
    32
  0
VERTEX
  5
150D
330
14D8
100
AcDbEntity
  8
241
100
AcDbVertex
100
AcDb3dPolylineVertex
 10
115.598
 20
7.45816
 30
0.0
 70
    32
  0
VERTEX
  5
150E
330
14D8
100
AcDbEntity
  8
241
100
AcDbVertex
100
AcDb3dPolylineVertex
 10
115.568
 20
7.4714
 30
0.0
 70
    32
  0
VERTEX
  5
150F
330
14D8
100
AcDbEntity
  8
241
100
AcDbVertex
100
AcDb3dPolylineVertex
 10
115.538
 20
7.48402
 30
0.0
 70
    32
  0
VERTEX
  5
1510
330
14D8
100
AcDbEntity
  8
241
100
AcDbVertex
100
AcDb3dPolylineVertex
 10
115.507
 20
7.49602
 30
0.0
 70
    32
  0
VERTEX
  5
1511
330
14D8
100
AcDbEntity
  8
241
100
AcDbVertex
100
AcDb3dPolylineVertex
 10
115.476
 20
7.50739
 30
0.0
 70
    32
  0
VERTEX
  5
1512
330
14D8
100
AcDbEntity
  8
241
100
AcDbVertex
100
AcDb3dPolylineVertex
 10
115.445
 20
7.51812
 30
0.0
 70
    32
  0
VERTEX
  5
1513
330
14D8
100
AcDbEntity
  8
241
100
AcDbVertex
100
AcDb3dPolylineVertex
 10
115.414
 20
7.5282
 30
0.0
 70
    32
  0
VERTEX
  5
1514
330
14D8
100
AcDbEntity
  8
241
100
AcDbVertex
100
AcDb3dPolylineVertex
 10
115.382
 20
7.53763
 30
0.0
 70
    32
  0
VERTEX
  5
1515
330
14D8
100
AcDbEntity
  8
241
100
AcDbVertex
100
AcDb3dPolylineVertex
 10
115.35
 20
7.5464
 30
0.0
 70
    32
  0
VERTEX
  5
1516
330
14D8
100
AcDbEntity
  8
241
100
AcDbVertex
100
AcDb3dPolylineVertex
 10
115.318
 20
7.55451
 30
0.0
 70
    32
  0
VERTEX
  5
1517
330
14D8
100
AcDbEntity
  8
241
100
AcDbVertex
100
AcDb3dPolylineVertex
 10
115.286
 20
7.56195
 30
0.0
 70
    32
  0
VERTEX
  5
1518
330
14D8
100
AcDbEntity
  8
241
100
AcDbVertex
100
AcDb3dPolylineVertex
 10
115.253
 20
7.56872
 30
0.0
 70
    32
  0
VERTEX
  5
1519
330
14D8
100
AcDbEntity
  8
241
100
AcDbVertex
100
AcDb3dPolylineVertex
 10
115.221
 20
7.57481
 30
0.0
 70
    32
  0
VERTEX
  5
151A
330
14D8
100
AcDbEntity
  8
241
100
AcDbVertex
100
AcDb3dPolylineVertex
 10
115.188
 20
7.58022
 30
0.0
 70
    32
  0
VERTEX
  5
151B
330
14D8
100
AcDbEntity
  8
241
100
AcDbVertex
100
AcDb3dPolylineVertex
 10
115.155
 20
7.58495
 30
0.0
 70
    32
  0
VERTEX
  5
151C
330
14D8
100
AcDbEntity
  8
241
100
AcDbVertex
100
AcDb3dPolylineVertex
 10
115.122
 20
7.589
 30
0.0
 70
    32
  0
VERTEX
  5
151D
330
14D8
100
AcDbEntity
  8
241
100
AcDbVertex
100
AcDb3dPolylineVertex
 10
115.089
 20
7.59235
 30
0.0
 70
    32
  0
VERTEX
  5
151E
330
14D8
100
AcDbEntity
  8
241
100
AcDbVertex
100
AcDb3dPolylineVertex
 10
115.056
 20
7.59502
 30
0.0
 70
    32
  0
VERTEX
  5
151F
330
14D8
100
AcDbEntity
  8
241
100
AcDbVertex
100
AcDb3dPolylineVertex
 10
115.023
 20
7.59699
 30
0.0
 70
    32
  0
VERTEX
  5
1520
330
14D8
100
AcDbEntity
  8
241
100
AcDbVertex
100
AcDb3dPolylineVertex
 10
114.99
 20
7.59827
 30
0.0
 70
    32
  0
VERTEX
  5
1521
330
14D8
100
AcDbEntity
  8
241
100
AcDbVertex
100
AcDb3dPolylineVertex
 10
114.957
 20
7.59886
 30
0.0
 70
    32
  0
VERTEX
  5
1522
330
14D8
100
AcDbEntity
  8
241
100
AcDbVertex
100
AcDb3dPolylineVertex
 10
114.925
 20
7.59875
 30
0.0
 70
    32
  0
VERTEX
  5
1523
330
14D8
100
AcDbEntity
  8
241
100
AcDbVertex
100
AcDb3dPolylineVertex
 10
114.892
 20
7.59795
 30
0.0
 70
    32
  0
VERTEX
  5
1524
330
14D8
100
AcDbEntity
  8
241
100
AcDbVertex
100
AcDb3dPolylineVertex
 10
114.859
 20
7.59645
 30
0.0
 70
    32
  0
VERTEX
  5
1525
330
14D8
100
AcDbEntity
  8
241
100
AcDbVertex
100
AcDb3dPolylineVertex
 10
114.826
 20
7.59426
 30
0.0
 70
    32
  0
VERTEX
  5
1526
330
14D8
100
AcDbEntity
  8
241
100
AcDbVertex
100
AcDb3dPolylineVertex
 10
114.794
 20
7.59138
 30
0.0
 70
    32
  0
VERTEX
  5
1527
330
14D8
100
AcDbEntity
  8
241
100
AcDbVertex
100
AcDb3dPolylineVertex
 10
114.761
 20
7.58781
 30
0.0
 70
    32
  0
VERTEX
  5
1528
330
14D8
100
AcDbEntity
  8
241
100
AcDbVertex
100
AcDb3dPolylineVertex
 10
114.729
 20
7.58355
 30
0.0
 70
    32
  0
VERTEX
  5
1529
330
14D8
100
AcDbEntity
  8
241
100
AcDbVertex
100
AcDb3dPolylineVertex
 10
114.697
 20
7.57861
 30
0.0
 70
    32
  0
VERTEX
  5
152A
330
14D8
100
AcDbEntity
  8
241
100
AcDbVertex
100
AcDb3dPolylineVertex
 10
114.665
 20
7.57298
 30
0.0
 70
    32
  0
VERTEX
  5
152B
330
14D8
100
AcDbEntity
  8
241
100
AcDbVertex
100
AcDb3dPolylineVertex
 10
114.633
 20
7.56667
 30
0.0
 70
    32
  0
VERTEX
  5
152C
330
14D8
100
AcDbEntity
  8
241
100
AcDbVertex
100
AcDb3dPolylineVertex
 10
114.602
 20
7.55969
 30
0.0
 70
    32
  0
VERTEX
  5
152D
330
14D8
100
AcDbEntity
  8
241
100
AcDbVertex
100
AcDb3dPolylineVertex
 10
114.57
 20
7.55204
 30
0.0
 70
    32
  0
VERTEX
  5
152E
330
14D8
100
AcDbEntity
  8
241
100
AcDbVertex
100
AcDb3dPolylineVertex
 10
114.539
 20
7.54373
 30
0.0
 70
    32
  0
VERTEX
  5
152F
330
14D8
100
AcDbEntity
  8
241
100
AcDbVertex
100
AcDb3dPolylineVertex
 10
114.509
 20
7.53475
 30
0.0
 70
    32
  0
VERTEX
  5
1530
330
14D8
100
AcDbEntity
  8
241
100
AcDbVertex
100
AcDb3dPolylineVertex
 10
114.478
 20
7.52512
 30
0.0
 70
    32
  0
VERTEX
  5
1531
330
14D8
100
AcDbEntity
  8
241
100
AcDbVertex
100
AcDb3dPolylineVertex
 10
114.448
 20
7.51483
 30
0.0
 70
    32
  0
VERTEX
  5
1532
330
14D8
100
AcDbEntity
  8
241
100
AcDbVertex
100
AcDb3dPolylineVertex
 10
114.419
 20
7.50391
 30
0.0
 70
    32
  0
VERTEX
  5
1533
330
14D8
100
AcDbEntity
  8
241
100
AcDbVertex
100
AcDb3dPolylineVertex
 10
114.389
 20
7.49234
 30
0.0
 70
    32
  0
VERTEX
  5
1534
330
14D8
100
AcDbEntity
  8
241
100
AcDbVertex
100
AcDb3dPolylineVertex
 10
114.361
 20
7.48015
 30
0.0
 70
    32
  0
VERTEX
  5
1535
330
14D8
100
AcDbEntity
  8
241
100
AcDbVertex
100
AcDb3dPolylineVertex
 10
114.332
 20
7.46733
 30
0.0
 70
    32
  0
VERTEX
  5
1536
330
14D8
100
AcDbEntity
  8
241
100
AcDbVertex
100
AcDb3dPolylineVertex
 10
114.304
 20
7.4539
 30
0.0
 70
    32
  0
VERTEX
  5
1537
330
14D8
100
AcDbEntity
  8
241
100
AcDbVertex
100
AcDb3dPolylineVertex
 10
114.276
 20
7.43986
 30
0.0
 70
    32
  0
VERTEX
  5
1538
330
14D8
100
AcDbEntity
  8
241
100
AcDbVertex
100
AcDb3dPolylineVertex
 10
114.249
 20
7.42522
 30
0.0
 70
    32
  0
VERTEX
  5
1539
330
14D8
100
AcDbEntity
  8
241
100
AcDbVertex
100
AcDb3dPolylineVertex
 10
114.222
 20
7.40999
 30
0.0
 70
    32
  0
VERTEX
  5
153A
330
14D8
100
AcDbEntity
  8
241
100
AcDbVertex
100
AcDb3dPolylineVertex
 10
114.196
 20
7.39418
 30
0.0
 70
    32
  0
VERTEX
  5
153B
330
14D8
100
AcDbEntity
  8
241
100
AcDbVertex
100
AcDb3dPolylineVertex
 10
114.17
 20
7.3778
 30
0.0
 70
    32
  0
VERTEX
  5
153C
330
14D8
100
AcDbEntity
  8
241
100
AcDbVertex
100
AcDb3dPolylineVertex
 10
114.145
 20
7.36086
 30
0.0
 70
    32
  0
VERTEX
  5
153D
330
14D8
100
AcDbEntity
  8
241
100
AcDbVertex
100
AcDb3dPolylineVertex
 10
114.12
 20
7.34337
 30
0.0
 70
    32
  0
VERTEX
  5
153E
330
14D8
100
AcDbEntity
  8
241
100
AcDbVertex
100
AcDb3dPolylineVertex
 10
114.096
 20
7.32534
 30
0.0
 70
    32
  0
VERTEX
  5
153F
330
14D8
100
AcDbEntity
  8
241
100
AcDbVertex
100
AcDb3dPolylineVertex
 10
114.072
 20
7.30677
 30
0.0
 70
    32
  0
VERTEX
  5
1540
330
14D8
100
AcDbEntity
  8
241
100
AcDbVertex
100
AcDb3dPolylineVertex
 10
114.049
 20
7.28769
 30
0.0
 70
    32
  0
VERTEX
  5
1541
330
14D8
100
AcDbEntity
  8
241
100
AcDbVertex
100
AcDb3dPolylineVertex
 10
114.027
 20
7.26811
 30
0.0
 70
    32
  0
VERTEX
  5
1542
330
14D8
100
AcDbEntity
  8
241
100
AcDbVertex
100
AcDb3dPolylineVertex
 10
114.005
 20
7.24802
 30
0.0
 70
    32
  0
VERTEX
  5
1543
330
14D8
100
AcDbEntity
  8
241
100
AcDbVertex
100
AcDb3dPolylineVertex
 10
113.984
 20
7.22746
 30
0.0
 70
    32
  0
VERTEX
  5
1544
330
14D8
100
AcDbEntity
  8
241
100
AcDbVertex
100
AcDb3dPolylineVertex
 10
113.963
 20
7.20642
 30
0.0
 70
    32
  0
VERTEX
  5
1545
330
14D8
100
AcDbEntity
  8
241
100
AcDbVertex
100
AcDb3dPolylineVertex
 10
113.943
 20
7.18493
 30
0.0
 70
    32
  0
VERTEX
  5
1546
330
14D8
100
AcDbEntity
  8
241
100
AcDbVertex
100
AcDb3dPolylineVertex
 10
113.924
 20
7.16299
 30
0.0
 70
    32
  0
VERTEX
  5
1547
330
14D8
100
AcDbEntity
  8
241
100
AcDbVertex
100
AcDb3dPolylineVertex
 10
113.905
 20
7.14062
 30
0.0
 70
    32
  0
VERTEX
  5
1548
330
14D8
100
AcDbEntity
  8
241
100
AcDbVertex
100
AcDb3dPolylineVertex
 10
113.887
 20
7.11783
 30
0.0
 70
    32
  0
VERTEX
  5
1549
330
14D8
100
AcDbEntity
  8
241
100
AcDbVertex
100
AcDb3dPolylineVertex
 10
113.869
 20
7.09464
 30
0.0
 70
    32
  0
VERTEX
  5
154A
330
14D8
100
AcDbEntity
  8
241
100
AcDbVertex
100
AcDb3dPolylineVertex
 10
113.853
 20
7.07105
 30
0.0
 70
    32
  0
VERTEX
  5
154B
330
14D8
100
AcDbEntity
  8
241
100
AcDbVertex
100
AcDb3dPolylineVertex
 10
113.837
 20
7.04709
 30
0.0
 70
    32
  0
VERTEX
  5
154C
330
14D8
100
AcDbEntity
  8
241
100
AcDbVertex
100
AcDb3dPolylineVertex
 10
113.822
 20
7.02277
 30
0.0
 70
    32
  0
VERTEX
  5
154D
330
14D8
100
AcDbEntity
  8
241
100
AcDbVertex
100
AcDb3dPolylineVertex
 10
113.807
 20
6.9981
 30
0.0
 70
    32
  0
VERTEX
  5
154E
330
14D8
100
AcDbEntity
  8
241
100
AcDbVertex
100
AcDb3dPolylineVertex
 10
113.793
 20
6.97309
 30
0.0
 70
    32
  0
VERTEX
  5
154F
330
14D8
100
AcDbEntity
  8
241
100
AcDbVertex
100
AcDb3dPolylineVertex
 10
113.78
 20
6.94777
 30
0.0
 70
    32
  0
VERTEX
  5
1550
330
14D8
100
AcDbEntity
  8
241
100
AcDbVertex
100
AcDb3dPolylineVertex
 10
113.768
 20
6.92215
 30
0.0
 70
    32
  0
VERTEX
  5
1551
330
14D8
100
AcDbEntity
  8
241
100
AcDbVertex
100
AcDb3dPolylineVertex
 10
113.757
 20
6.89624
 30
0.0
 70
    32
  0
VERTEX
  5
1552
330
14D8
100
AcDbEntity
  8
241
100
AcDbVertex
100
AcDb3dPolylineVertex
 10
113.746
 20
6.87006
 30
0.0
 70
    32
  0
VERTEX
  5
1553
330
14D8
100
AcDbEntity
  8
241
100
AcDbVertex
100
AcDb3dPolylineVertex
 10
113.736
 20
6.84363
 30
0.0
 70
    32
  0
VERTEX
  5
1554
330
14D8
100
AcDbEntity
  8
241
100
AcDbVertex
100
AcDb3dPolylineVertex
 10
113.726
 20
6.81695
 30
0.0
 70
    32
  0
VERTEX
  5
1555
330
14D8
100
AcDbEntity
  8
241
100
AcDbVertex
100
AcDb3dPolylineVertex
 10
113.718
 20
6.79005
 30
0.0
 70
    32
  0
VERTEX
  5
1556
330
14D8
100
AcDbEntity
  8
241
100
AcDbVertex
100
AcDb3dPolylineVertex
 10
113.71
 20
6.76295
 30
0.0
 70
    32
  0
VERTEX
  5
1557
330
14D8
100
AcDbEntity
  8
241
100
AcDbVertex
100
AcDb3dPolylineVertex
 10
113.703
 20
6.73565
 30
0.0
 70
    32
  0
VERTEX
  5
1558
330
14D8
100
AcDbEntity
  8
241
100
AcDbVertex
100
AcDb3dPolylineVertex
 10
113.697
 20
6.70818
 30
0.0
 70
    32
  0
VERTEX
  5
1559
330
14D8
100
AcDbEntity
  8
241
100
AcDbVertex
100
AcDb3dPolylineVertex
 10
113.692
 20
6.68055
 30
0.0
 70
    32
  0
SEQEND
  5
155A
330
14D8
100
AcDbEntity
  8
241
  0
POLYLINE
  5
155B
330
FC7
100
AcDbEntity
  8
241
100
AcDb3dPolyline
 66
     1
 10
0.0
 20
0.0
 30
0.0
 70
     8
  0
VERTEX
  5
155C
330
155B
100
AcDbEntity
  8
241
100
AcDbVertex
100
AcDb3dPolylineVertex
 10
113.692
 20
6.68055
 30
0.0
 70
    32
  0
VERTEX
  5
155D
330
155B
100
AcDbEntity
  8
241
100
AcDbVertex
100
AcDb3dPolylineVertex
 10
113.686
 20
6.64161
 30
0.0
 70
    32
  0
VERTEX
  5
155E
330
155B
100
AcDbEntity
  8
241
100
AcDbVertex
100
AcDb3dPolylineVertex
 10
113.68
 20
6.60255
 30
0.0
 70
    32
  0
VERTEX
  5
155F
330
155B
100
AcDbEntity
  8
241
100
AcDbVertex
100
AcDb3dPolylineVertex
 10
113.675
 20
6.5634
 30
0.0
 70
    32
  0
VERTEX
  5
1560
330
155B
100
AcDbEntity
  8
241
100
AcDbVertex
100
AcDb3dPolylineVertex
 10
113.671
 20
6.52418
 30
0.0
 70
    32
  0
VERTEX
  5
1561
330
155B
100
AcDbEntity
  8
241
100
AcDbVertex
100
AcDb3dPolylineVertex
 10
113.668
 20
6.48491
 30
0.0
 70
    32
  0
VERTEX
  5
1562
330
155B
100
AcDbEntity
  8
241
100
AcDbVertex
100
AcDb3dPolylineVertex
 10
113.666
 20
6.44562
 30
0.0
 70
    32
  0
VERTEX
  5
1563
330
155B
100
AcDbEntity
  8
241
100
AcDbVertex
100
AcDb3dPolylineVertex
 10
113.664
 20
6.40633
 30
0.0
 70
    32
  0
VERTEX
  5
1564
330
155B
100
AcDbEntity
  8
241
100
AcDbVertex
100
AcDb3dPolylineVertex
 10
113.663
 20
6.36706
 30
0.0
 70
    32
  0
VERTEX
  5
1565
330
155B
100
AcDbEntity
  8
241
100
AcDbVertex
100
AcDb3dPolylineVertex
 10
113.663
 20
6.32784
 30
0.0
 70
    32
  0
VERTEX
  5
1566
330
155B
100
AcDbEntity
  8
241
100
AcDbVertex
100
AcDb3dPolylineVertex
 10
113.664
 20
6.28869
 30
0.0
 70
    32
  0
VERTEX
  5
1567
330
155B
100
AcDbEntity
  8
241
100
AcDbVertex
100
AcDb3dPolylineVertex
 10
113.666
 20
6.24964
 30
0.0
 70
    32
  0
VERTEX
  5
1568
330
155B
100
AcDbEntity
  8
241
100
AcDbVertex
100
AcDb3dPolylineVertex
 10
113.668
 20
6.2107
 30
0.0
 70
    32
  0
VERTEX
  5
1569
330
155B
100
AcDbEntity
  8
241
100
AcDbVertex
100
AcDb3dPolylineVertex
 10
113.672
 20
6.1719
 30
0.0
 70
    32
  0
VERTEX
  5
156A
330
155B
100
AcDbEntity
  8
241
100
AcDbVertex
100
AcDb3dPolylineVertex
 10
113.676
 20
6.13328
 30
0.0
 70
    32
  0
VERTEX
  5
156B
330
155B
100
AcDbEntity
  8
241
100
AcDbVertex
100
AcDb3dPolylineVertex
 10
113.681
 20
6.09484
 30
0.0
 70
    32
  0
VERTEX
  5
156C
330
155B
100
AcDbEntity
  8
241
100
AcDbVertex
100
AcDb3dPolylineVertex
 10
113.686
 20
6.05661
 30
0.0
 70
    32
  0
VERTEX
  5
156D
330
155B
100
AcDbEntity
  8
241
100
AcDbVertex
100
AcDb3dPolylineVertex
 10
113.693
 20
6.01861
 30
0.0
 70
    32
  0
VERTEX
  5
156E
330
155B
100
AcDbEntity
  8
241
100
AcDbVertex
100
AcDb3dPolylineVertex
 10
113.7
 20
5.98087
 30
0.0
 70
    32
  0
VERTEX
  5
156F
330
155B
100
AcDbEntity
  8
241
100
AcDbVertex
100
AcDb3dPolylineVertex
 10
113.709
 20
5.94342
 30
0.0
 70
    32
  0
VERTEX
  5
1570
330
155B
100
AcDbEntity
  8
241
100
AcDbVertex
100
AcDb3dPolylineVertex
 10
113.717
 20
5.90626
 30
0.0
 70
    32
  0
VERTEX
  5
1571
330
155B
100
AcDbEntity
  8
241
100
AcDbVertex
100
AcDb3dPolylineVertex
 10
113.727
 20
5.86944
 30
0.0
 70
    32
  0
VERTEX
  5
1572
330
155B
100
AcDbEntity
  8
241
100
AcDbVertex
100
AcDb3dPolylineVertex
 10
113.738
 20
5.83295
 30
0.0
 70
    32
  0
VERTEX
  5
1573
330
155B
100
AcDbEntity
  8
241
100
AcDbVertex
100
AcDb3dPolylineVertex
 10
113.749
 20
5.79684
 30
0.0
 70
    32
  0
VERTEX
  5
1574
330
155B
100
AcDbEntity
  8
241
100
AcDbVertex
100
AcDb3dPolylineVertex
 10
113.761
 20
5.76112
 30
0.0
 70
    32
  0
VERTEX
  5
1575
330
155B
100
AcDbEntity
  8
241
100
AcDbVertex
100
AcDb3dPolylineVertex
 10
113.774
 20
5.72581
 30
0.0
 70
    32
  0
VERTEX
  5
1576
330
155B
100
AcDbEntity
  8
241
100
AcDbVertex
100
AcDb3dPolylineVertex
 10
113.787
 20
5.69094
 30
0.0
 70
    32
  0
VERTEX
  5
1577
330
155B
100
AcDbEntity
  8
241
100
AcDbVertex
100
AcDb3dPolylineVertex
 10
113.802
 20
5.65652
 30
0.0
 70
    32
  0
VERTEX
  5
1578
330
155B
100
AcDbEntity
  8
241
100
AcDbVertex
100
AcDb3dPolylineVertex
 10
113.817
 20
5.62258
 30
0.0
 70
    32
  0
VERTEX
  5
1579
330
155B
100
AcDbEntity
  8
241
100
AcDbVertex
100
AcDb3dPolylineVertex
 10
113.833
 20
5.58913
 30
0.0
 70
    32
  0
VERTEX
  5
157A
330
155B
100
AcDbEntity
  8
241
100
AcDbVertex
100
AcDb3dPolylineVertex
 10
113.849
 20
5.5562
 30
0.0
 70
    32
  0
VERTEX
  5
157B
330
155B
100
AcDbEntity
  8
241
100
AcDbVertex
100
AcDb3dPolylineVertex
 10
113.866
 20
5.5238
 30
0.0
 70
    32
  0
VERTEX
  5
157C
330
155B
100
AcDbEntity
  8
241
100
AcDbVertex
100
AcDb3dPolylineVertex
 10
113.884
 20
5.49196
 30
0.0
 70
    32
  0
VERTEX
  5
157D
330
155B
100
AcDbEntity
  8
241
100
AcDbVertex
100
AcDb3dPolylineVertex
 10
113.903
 20
5.4607
 30
0.0
 70
    32
  0
VERTEX
  5
157E
330
155B
100
AcDbEntity
  8
241
100
AcDbVertex
100
AcDb3dPolylineVertex
 10
113.922
 20
5.43003
 30
0.0
 70
    32
  0
VERTEX
  5
157F
330
155B
100
AcDbEntity
  8
241
100
AcDbVertex
100
AcDb3dPolylineVertex
 10
113.942
 20
5.39997
 30
0.0
 70
    32
  0
VERTEX
  5
1580
330
155B
100
AcDbEntity
  8
241
100
AcDbVertex
100
AcDb3dPolylineVertex
 10
113.962
 20
5.37054
 30
0.0
 70
    32
  0
VERTEX
  5
1581
330
155B
100
AcDbEntity
  8
241
100
AcDbVertex
100
AcDb3dPolylineVertex
 10
113.984
 20
5.34176
 30
0.0
 70
    32
  0
VERTEX
  5
1582
330
155B
100
AcDbEntity
  8
241
100
AcDbVertex
100
AcDb3dPolylineVertex
 10
114.005
 20
5.31364
 30
0.0
 70
    32
  0
VERTEX
  5
1583
330
155B
100
AcDbEntity
  8
241
100
AcDbVertex
100
AcDb3dPolylineVertex
 10
114.028
 20
5.28621
 30
0.0
 70
    32
  0
VERTEX
  5
1584
330
155B
100
AcDbEntity
  8
241
100
AcDbVertex
100
AcDb3dPolylineVertex
 10
114.051
 20
5.25947
 30
0.0
 70
    32
  0
VERTEX
  5
1585
330
155B
100
AcDbEntity
  8
241
100
AcDbVertex
100
AcDb3dPolylineVertex
 10
114.074
 20
5.23345
 30
0.0
 70
    32
  0
VERTEX
  5
1586
330
155B
100
AcDbEntity
  8
241
100
AcDbVertex
100
AcDb3dPolylineVertex
 10
114.099
 20
5.20816
 30
0.0
 70
    32
  0
VERTEX
  5
1587
330
155B
100
AcDbEntity
  8
241
100
AcDbVertex
100
AcDb3dPolylineVertex
 10
114.123
 20
5.18362
 30
0.0
 70
    32
  0
VERTEX
  5
1588
330
155B
100
AcDbEntity
  8
241
100
AcDbVertex
100
AcDb3dPolylineVertex
 10
114.149
 20
5.15983
 30
0.0
 70
    32
  0
VERTEX
  5
1589
330
155B
100
AcDbEntity
  8
241
100
AcDbVertex
100
AcDb3dPolylineVertex
 10
114.174
 20
5.13682
 30
0.0
 70
    32
  0
VERTEX
  5
158A
330
155B
100
AcDbEntity
  8
241
100
AcDbVertex
100
AcDb3dPolylineVertex
 10
114.201
 20
5.1146
 30
0.0
 70
    32
  0
VERTEX
  5
158B
330
155B
100
AcDbEntity
  8
241
100
AcDbVertex
100
AcDb3dPolylineVertex
 10
114.228
 20
5.09318
 30
0.0
 70
    32
  0
VERTEX
  5
158C
330
155B
100
AcDbEntity
  8
241
100
AcDbVertex
100
AcDb3dPolylineVertex
 10
114.255
 20
5.07258
 30
0.0
 70
    32
  0
VERTEX
  5
158D
330
155B
100
AcDbEntity
  8
241
100
AcDbVertex
100
AcDb3dPolylineVertex
 10
114.283
 20
5.0528
 30
0.0
 70
    32
  0
VERTEX
  5
158E
330
155B
100
AcDbEntity
  8
241
100
AcDbVertex
100
AcDb3dPolylineVertex
 10
114.311
 20
5.03387
 30
0.0
 70
    32
  0
VERTEX
  5
158F
330
155B
100
AcDbEntity
  8
241
100
AcDbVertex
100
AcDb3dPolylineVertex
 10
114.339
 20
5.01578
 30
0.0
 70
    32
  0
VERTEX
  5
1590
330
155B
100
AcDbEntity
  8
241
100
AcDbVertex
100
AcDb3dPolylineVertex
 10
114.368
 20
4.99856
 30
0.0
 70
    32
  0
VERTEX
  5
1591
330
155B
100
AcDbEntity
  8
241
100
AcDbVertex
100
AcDb3dPolylineVertex
 10
114.398
 20
4.98221
 30
0.0
 70
    32
  0
VERTEX
  5
1592
330
155B
100
AcDbEntity
  8
241
100
AcDbVertex
100
AcDb3dPolylineVertex
 10
114.428
 20
4.96673
 30
0.0
 70
    32
  0
VERTEX
  5
1593
330
155B
100
AcDbEntity
  8
241
100
AcDbVertex
100
AcDb3dPolylineVertex
 10
114.458
 20
4.95216
 30
0.0
 70
    32
  0
VERTEX
  5
1594
330
155B
100
AcDbEntity
  8
241
100
AcDbVertex
100
AcDb3dPolylineVertex
 10
114.488
 20
4.93848
 30
0.0
 70
    32
  0
VERTEX
  5
1595
330
155B
100
AcDbEntity
  8
241
100
AcDbVertex
100
AcDb3dPolylineVertex
 10
114.519
 20
4.9257
 30
0.0
 70
    32
  0
VERTEX
  5
1596
330
155B
100
AcDbEntity
  8
241
100
AcDbVertex
100
AcDb3dPolylineVertex
 10
114.55
 20
4.91385
 30
0.0
 70
    32
  0
VERTEX
  5
1597
330
155B
100
AcDbEntity
  8
241
100
AcDbVertex
100
AcDb3dPolylineVertex
 10
114.582
 20
4.90292
 30
0.0
 70
    32
  0
VERTEX
  5
1598
330
155B
100
AcDbEntity
  8
241
100
AcDbVertex
100
AcDb3dPolylineVertex
 10
114.613
 20
4.89291
 30
0.0
 70
    32
  0
VERTEX
  5
1599
330
155B
100
AcDbEntity
  8
241
100
AcDbVertex
100
AcDb3dPolylineVertex
 10
114.645
 20
4.88385
 30
0.0
 70
    32
  0
VERTEX
  5
159A
330
155B
100
AcDbEntity
  8
241
100
AcDbVertex
100
AcDb3dPolylineVertex
 10
114.677
 20
4.87572
 30
0.0
 70
    32
  0
VERTEX
  5
159B
330
155B
100
AcDbEntity
  8
241
100
AcDbVertex
100
AcDb3dPolylineVertex
 10
114.71
 20
4.86854
 30
0.0
 70
    32
  0
VERTEX
  5
159C
330
155B
100
AcDbEntity
  8
241
100
AcDbVertex
100
AcDb3dPolylineVertex
 10
114.742
 20
4.86231
 30
0.0
 70
    32
  0
VERTEX
  5
159D
330
155B
100
AcDbEntity
  8
241
100
AcDbVertex
100
AcDb3dPolylineVertex
 10
114.775
 20
4.85703
 30
0.0
 70
    32
  0
VERTEX
  5
159E
330
155B
100
AcDbEntity
  8
241
100
AcDbVertex
100
AcDb3dPolylineVertex
 10
114.808
 20
4.85271
 30
0.0
 70
    32
  0
VERTEX
  5
159F
330
155B
100
AcDbEntity
  8
241
100
AcDbVertex
100
AcDb3dPolylineVertex
 10
114.841
 20
4.84935
 30
0.0
 70
    32
  0
VERTEX
  5
15A0
330
155B
100
AcDbEntity
  8
241
100
AcDbVertex
100
AcDb3dPolylineVertex
 10
114.874
 20
4.84696
 30
0.0
 70
    32
  0
VERTEX
  5
15A1
330
155B
100
AcDbEntity
  8
241
100
AcDbVertex
100
AcDb3dPolylineVertex
 10
114.907
 20
4.84552
 30
0.0
 70
    32
  0
VERTEX
  5
15A2
330
155B
100
AcDbEntity
  8
241
100
AcDbVertex
100
AcDb3dPolylineVertex
 10
114.94
 20
4.84505
 30
0.0
 70
    32
  0
VERTEX
  5
15A3
330
155B
100
AcDbEntity
  8
241
100
AcDbVertex
100
AcDb3dPolylineVertex
 10
114.974
 20
4.84555
 30
0.0
 70
    32
  0
VERTEX
  5
15A4
330
155B
100
AcDbEntity
  8
241
100
AcDbVertex
100
AcDb3dPolylineVertex
 10
115.007
 20
4.84701
 30
0.0
 70
    32
  0
VERTEX
  5
15A5
330
155B
100
AcDbEntity
  8
241
100
AcDbVertex
100
AcDb3dPolylineVertex
 10
115.04
 20
4.84943
 30
0.0
 70
    32
  0
VERTEX
  5
15A6
330
155B
100
AcDbEntity
  8
241
100
AcDbVertex
100
AcDb3dPolylineVertex
 10
115.074
 20
4.85281
 30
0.0
 70
    32
  0
VERTEX
  5
15A7
330
155B
100
AcDbEntity
  8
241
100
AcDbVertex
100
AcDb3dPolylineVertex
 10
115.107
 20
4.85716
 30
0.0
 70
    32
  0
VERTEX
  5
15A8
330
155B
100
AcDbEntity
  8
241
100
AcDbVertex
100
AcDb3dPolylineVertex
 10
115.14
 20
4.86246
 30
0.0
 70
    32
  0
VERTEX
  5
15A9
330
155B
100
AcDbEntity
  8
241
100
AcDbVertex
100
AcDb3dPolylineVertex
 10
115.173
 20
4.86871
 30
0.0
 70
    32
  0
VERTEX
  5
15AA
330
155B
100
AcDbEntity
  8
241
100
AcDbVertex
100
AcDb3dPolylineVertex
 10
115.207
 20
4.87592
 30
0.0
 70
    32
  0
VERTEX
  5
15AB
330
155B
100
AcDbEntity
  8
241
100
AcDbVertex
100
AcDb3dPolylineVertex
 10
115.24
 20
4.88407
 30
0.0
 70
    32
  0
VERTEX
  5
15AC
330
155B
100
AcDbEntity
  8
241
100
AcDbVertex
100
AcDb3dPolylineVertex
 10
115.272
 20
4.89316
 30
0.0
 70
    32
  0
VERTEX
  5
15AD
330
155B
100
AcDbEntity
  8
241
100
AcDbVertex
100
AcDb3dPolylineVertex
 10
115.305
 20
4.90319
 30
0.0
 70
    32
  0
VERTEX
  5
15AE
330
155B
100
AcDbEntity
  8
241
100
AcDbVertex
100
AcDb3dPolylineVertex
 10
115.338
 20
4.91414
 30
0.0
 70
    32
  0
VERTEX
  5
15AF
330
155B
100
AcDbEntity
  8
241
100
AcDbVertex
100
AcDb3dPolylineVertex
 10
115.37
 20
4.92602
 30
0.0
 70
    32
  0
VERTEX
  5
15B0
330
155B
100
AcDbEntity
  8
241
100
AcDbVertex
100
AcDb3dPolylineVertex
 10
115.402
 20
4.93882
 30
0.0
 70
    32
  0
VERTEX
  5
15B1
330
155B
100
AcDbEntity
  8
241
100
AcDbVertex
100
AcDb3dPolylineVertex
 10
115.434
 20
4.95252
 30
0.0
 70
    32
  0
VERTEX
  5
15B2
330
155B
100
AcDbEntity
  8
241
100
AcDbVertex
100
AcDb3dPolylineVertex
 10
115.466
 20
4.96712
 30
0.0
 70
    32
  0
VERTEX
  5
15B3
330
155B
100
AcDbEntity
  8
241
100
AcDbVertex
100
AcDb3dPolylineVertex
 10
115.497
 20
4.98262
 30
0.0
 70
    32
  0
VERTEX
  5
15B4
330
155B
100
AcDbEntity
  8
241
100
AcDbVertex
100
AcDb3dPolylineVertex
 10
115.528
 20
4.99899
 30
0.0
 70
    32
  0
VERTEX
  5
15B5
330
155B
100
AcDbEntity
  8
241
100
AcDbVertex
100
AcDb3dPolylineVertex
 10
115.559
 20
5.01624
 30
0.0
 70
    32
  0
VERTEX
  5
15B6
330
155B
100
AcDbEntity
  8
241
100
AcDbVertex
100
AcDb3dPolylineVertex
 10
115.589
 20
5.03435
 30
0.0
 70
    32
  0
VERTEX
  5
15B7
330
155B
100
AcDbEntity
  8
241
100
AcDbVertex
100
AcDb3dPolylineVertex
 10
115.619
 20
5.0533
 30
0.0
 70
    32
  0
VERTEX
  5
15B8
330
155B
100
AcDbEntity
  8
241
100
AcDbVertex
100
AcDb3dPolylineVertex
 10
115.649
 20
5.0731
 30
0.0
 70
    32
  0
VERTEX
  5
15B9
330
155B
100
AcDbEntity
  8
241
100
AcDbVertex
100
AcDb3dPolylineVertex
 10
115.679
 20
5.09373
 30
0.0
 70
    32
  0
VERTEX
  5
15BA
330
155B
100
AcDbEntity
  8
241
100
AcDbVertex
100
AcDb3dPolylineVertex
 10
115.708
 20
5.11516
 30
0.0
 70
    32
  0
VERTEX
  5
15BB
330
155B
100
AcDbEntity
  8
241
100
AcDbVertex
100
AcDb3dPolylineVertex
 10
115.736
 20
5.13741
 30
0.0
 70
    32
  0
VERTEX
  5
15BC
330
155B
100
AcDbEntity
  8
241
100
AcDbVertex
100
AcDb3dPolylineVertex
 10
115.764
 20
5.16043
 30
0.0
 70
    32
  0
VERTEX
  5
15BD
330
155B
100
AcDbEntity
  8
241
100
AcDbVertex
100
AcDb3dPolylineVertex
 10
115.792
 20
5.18424
 30
0.0
 70
    32
  0
VERTEX
  5
15BE
330
155B
100
AcDbEntity
  8
241
100
AcDbVertex
100
AcDb3dPolylineVertex
 10
115.819
 20
5.2088
 30
0.0
 70
    32
  0
VERTEX
  5
15BF
330
155B
100
AcDbEntity
  8
241
100
AcDbVertex
100
AcDb3dPolylineVertex
 10
115.846
 20
5.23411
 30
0.0
 70
    32
  0
VERTEX
  5
15C0
330
155B
100
AcDbEntity
  8
241
100
AcDbVertex
100
AcDb3dPolylineVertex
 10
115.872
 20
5.26015
 30
0.0
 70
    32
  0
VERTEX
  5
15C1
330
155B
100
AcDbEntity
  8
241
100
AcDbVertex
100
AcDb3dPolylineVertex
 10
115.898
 20
5.2869
 30
0.0
 70
    32
  0
VERTEX
  5
15C2
330
155B
100
AcDbEntity
  8
241
100
AcDbVertex
100
AcDb3dPolylineVertex
 10
115.923
 20
5.31436
 30
0.0
 70
    32
  0
VERTEX
  5
15C3
330
155B
100
AcDbEntity
  8
241
100
AcDbVertex
100
AcDb3dPolylineVertex
 10
115.948
 20
5.34249
 30
0.0
 70
    32
  0
VERTEX
  5
15C4
330
155B
100
AcDbEntity
  8
241
100
AcDbVertex
100
AcDb3dPolylineVertex
 10
115.972
 20
5.37129
 30
0.0
 70
    32
  0
VERTEX
  5
15C5
330
155B
100
AcDbEntity
  8
241
100
AcDbVertex
100
AcDb3dPolylineVertex
 10
115.995
 20
5.40073
 30
0.0
 70
    32
  0
VERTEX
  5
15C6
330
155B
100
AcDbEntity
  8
241
100
AcDbVertex
100
AcDb3dPolylineVertex
 10
116.018
 20
5.43081
 30
0.0
 70
    32
  0
VERTEX
  5
15C7
330
155B
100
AcDbEntity
  8
241
100
AcDbVertex
100
AcDb3dPolylineVertex
 10
116.041
 20
5.4615
 30
0.0
 70
    32
  0
VERTEX
  5
15C8
330
155B
100
AcDbEntity
  8
241
100
AcDbVertex
100
AcDb3dPolylineVertex
 10
116.062
 20
5.49278
 30
0.0
 70
    32
  0
VERTEX
  5
15C9
330
155B
100
AcDbEntity
  8
241
100
AcDbVertex
100
AcDb3dPolylineVertex
 10
116.084
 20
5.52463
 30
0.0
 70
    32
  0
VERTEX
  5
15CA
330
155B
100
AcDbEntity
  8
241
100
AcDbVertex
100
AcDb3dPolylineVertex
 10
116.104
 20
5.55704
 30
0.0
 70
    32
  0
VERTEX
  5
15CB
330
155B
100
AcDbEntity
  8
241
100
AcDbVertex
100
AcDb3dPolylineVertex
 10
116.124
 20
5.58998
 30
0.0
 70
    32
  0
VERTEX
  5
15CC
330
155B
100
AcDbEntity
  8
241
100
AcDbVertex
100
AcDb3dPolylineVertex
 10
116.143
 20
5.62345
 30
0.0
 70
    32
  0
VERTEX
  5
15CD
330
155B
100
AcDbEntity
  8
241
100
AcDbVertex
100
AcDb3dPolylineVertex
 10
116.162
 20
5.6574
 30
0.0
 70
    32
  0
VERTEX
  5
15CE
330
155B
100
AcDbEntity
  8
241
100
AcDbVertex
100
AcDb3dPolylineVertex
 10
116.179
 20
5.69183
 30
0.0
 70
    32
  0
VERTEX
  5
15CF
330
155B
100
AcDbEntity
  8
241
100
AcDbVertex
100
AcDb3dPolylineVertex
 10
116.196
 20
5.72672
 30
0.0
 70
    32
  0
VERTEX
  5
15D0
330
155B
100
AcDbEntity
  8
241
100
AcDbVertex
100
AcDb3dPolylineVertex
 10
116.213
 20
5.76204
 30
0.0
 70
    32
  0
VERTEX
  5
15D1
330
155B
100
AcDbEntity
  8
241
100
AcDbVertex
100
AcDb3dPolylineVertex
 10
116.228
 20
5.79777
 30
0.0
 70
    32
  0
VERTEX
  5
15D2
330
155B
100
AcDbEntity
  8
241
100
AcDbVertex
100
AcDb3dPolylineVertex
 10
116.243
 20
5.83389
 30
0.0
 70
    32
  0
VERTEX
  5
15D3
330
155B
100
AcDbEntity
  8
241
100
AcDbVertex
100
AcDb3dPolylineVertex
 10
116.258
 20
5.87038
 30
0.0
 70
    32
  0
VERTEX
  5
15D4
330
155B
100
AcDbEntity
  8
241
100
AcDbVertex
100
AcDb3dPolylineVertex
 10
116.271
 20
5.90722
 30
0.0
 70
    32
  0
VERTEX
  5
15D5
330
155B
100
AcDbEntity
  8
241
100
AcDbVertex
100
AcDb3dPolylineVertex
 10
116.284
 20
5.94438
 30
0.0
 70
    32
  0
VERTEX
  5
15D6
330
155B
100
AcDbEntity
  8
241
100
AcDbVertex
100
AcDb3dPolylineVertex
 10
116.296
 20
5.98184
 30
0.0
 70
    32
  0
VERTEX
  5
15D7
330
155B
100
AcDbEntity
  8
241
100
AcDbVertex
100
AcDb3dPolylineVertex
 10
116.307
 20
6.01959
 30
0.0
 70
    32
  0
VERTEX
  5
15D8
330
155B
100
AcDbEntity
  8
241
100
AcDbVertex
100
AcDb3dPolylineVertex
 10
116.317
 20
6.05759
 30
0.0
 70
    32
  0
VERTEX
  5
15D9
330
155B
100
AcDbEntity
  8
241
100
AcDbVertex
100
AcDb3dPolylineVertex
 10
116.327
 20
6.09582
 30
0.0
 70
    32
  0
VERTEX
  5
15DA
330
155B
100
AcDbEntity
  8
241
100
AcDbVertex
100
AcDb3dPolylineVertex
 10
116.336
 20
6.13427
 30
0.0
 70
    32
  0
VERTEX
  5
15DB
330
155B
100
AcDbEntity
  8
241
100
AcDbVertex
100
AcDb3dPolylineVertex
 10
116.344
 20
6.1729
 30
0.0
 70
    32
  0
VERTEX
  5
15DC
330
155B
100
AcDbEntity
  8
241
100
AcDbVertex
100
AcDb3dPolylineVertex
 10
116.351
 20
6.2117
 30
0.0
 70
    32
  0
SEQEND
  5
15DD
330
155B
100
AcDbEntity
  8
241
  0
LINE
  5
15DE
330
FC7
100
AcDbEntity
  8
240
  6
CONTINUOUS
100
AcDbLine
 10
27.0
 20
30.5
 30
0.0
 11
27.0
 21
30.0
 31
0.0
  0
ARC
  5
15DF
330
FC7
100
AcDbEntity
  8
240
  6
CONTINUOUS
100
AcDbCircle
 10
26.0
 20
30.5
 30
0.0
 40
1.0
100
AcDbArc
 50
0.0
 51
90.0
  0
ENDBLK
  5
FC9
330
FC7
100
AcDbEntity
  8
0
100
AcDbBlockEnd
  0
ENDSEC
  0
SECTION
  2
ENTITIES
  0
INSERT
  5
6E6
330
1A
100
AcDbEntity
  8
245
100
AcDbBlockReference
  2
矢印なし
 10
175.62382697
 20
90.55123572
 30
0.0
  0
TEXT
  5
DD4
330
1A
100
AcDbEntity
  8
241
100
AcDbText
 10
-65.4
 20
56.0
 30
0.0
 40
5.0
  1
BBT40-FCR20082L-120
  7
YOKO
 11
-65.4
 21
56.0
 31
0.0
100
AcDbText
 73
     1
  0
DIMENSION
  5
F20
330
1A
100
AcDbEntity
  8
250
  6
CONTINUOUS
100
AcDbDimension
  2
*D2
 10
133.0
 20
10.0
 30
0.0
 11
130.6
 21
0.0
 31
0.0
 70
    32
  1
{\H2.8;\U+2205}<>
  3
BIGT
100
AcDbAlignedDimension
 13
120.0
 23
-10.0
 33
0.0
 14
120.0
 24
10.0
 34
0.0
 50
90.0
100
AcDbRotatedDimension
  0
DIMENSION
  5
F2F
330
1A
100
AcDbEntity
  8
250
  6
CONTINUOUS
100
AcDbDimension
  2
*D3
 10
120.0
 20
28.0
 30
0.0
 11
116.0
 21
30.4
 31
0.0
 70
    32
  3
BIGT
100
AcDbAlignedDimension
 13
112.0
 23
10.0
 33
0.0
 14
120.0
 24
10.0
 34
0.0
100
AcDbRotatedDimension
  0
DIMENSION
  5
F3E
330
1A
100
AcDbEntity
  8
250
  6
CONTINUOUS
100
AcDbDimension
  2
*D4
 10
120.0
 20
35.0
 30
0.0
 11
90.0
 21
37.4
 31
0.0
 70
    32
  3
BIGT
100
AcDbAlignedDimension
 13
60.0
 23
9.47198734
 33
0.0
 14
120.0
 24
10.0
 34
0.0
100
AcDbRotatedDimension
  0
DIMENSION
  5
F68
330
1A
100
AcDbEntity
  8
250
  6
CONTINUOUS
100
AcDbDimension
  2
*D5
 10
120.0
 20
42.0
 30
0.0
 11
60.0
 21
44.4
 31
0.0
 70
    32
  3
BIGT
100
AcDbAlignedDimension
 13
0.0
 23
22.225
 33
0.0
 14
120.0
 24
10.0
 34
0.0
100
AcDbRotatedDimension
  0
LEADER
  5
142D
330
1A
100
AcDbEntity
  8
250
  6
CONTINUOUS
100
AcDbLeader
  3
BIGT
 76
     2
 10
-26.64442081
 20
-18.3393553
 30
0.0
 10
-32.4583971
 20
-28.40945762
 30
0.0
1001
ACAD
1000
DSTYLE
1002
{
1070
     6
1000
OPEN
1070
   343
1005
594
1002
}
  0
MTEXT
  5
142E
330
1A
100
AcDbEntity
  8
250
  6
CONTINUOUS
 62
    40
100
AcDbMText
 10
-47.39173044
 20
-27.40945762
 30
0.0
 40
2.8
 41
0.0
 71
     7
 72
     1
  1
BBT40
  7
YOKO
1001
ITEMNAME
1000
LNSP3
1001
ACAD
1000
MTEXTBEGIN
1070
    73
1070
     1
1070
    44
1040
1.0
1070
    74
1070
     0
1000
MTEXTEND
1000
MTEXTBEGIN
1070
    73
1070
     1
1070
    44
1040
1.0
1070
    74
1070
     0
1000
MTEXTEND
  0
LINE
  5
1431
330
1A
100
AcDbEntity
  8
250
  6
CONTINUOUS
100
AcDbLine
 10
-32.4583971
 20
-28.40945762
 30
0.0
 11
-50.19173044
 21
-28.40945762
 31
0.0
1001
ITEMNAME
1000
LNSP2
  0
INSERT
  5
15E0
330
1A
100
AcDbEntity
  8
245
100
AcDbBlockReference
  2
1
 10
0.0
 20
0.0
 30
0.0
  0
VIEWPORT
  5
22
330
17
100
AcDbEntity
 67
     1
  8
0
100
AcDbViewport
 10
261.51769912
 20
148.5
 30
0.0
 40
523.03539823
 41
297.0
 68
     1
 69
     1
1001
ACAD
1000
MVIEW
1002
{
1070
    16
1010
0.0
1020
0.0
1030
0.0
1010
0.0
1020
0.0
1030
1.0
1040
0.0
1040
297.0
1040
261.51769912
1040
148.5
1040
50.0
1040
0.0
1040
0.0
1070
     0
1070
   100
1070
     1
1070
     1
1070
     0
1070
     0
1070
     0
1070
     0
1040
0.0
1040
0.0
1040
0.0
1040
1.0
1040
1.0
1040
10.0
1040
10.0
1070
     0
1002
{
1002
}
1002
}
  0
ENDSEC
  0
SECTION
  2
OBJECTS
  0
DICTIONARY
  5
C
330
0
100
AcDbDictionary
  3
ACAD_GROUP
350
D
  3
ACAD_LAYOUT
350
565
  3
ACAD_MLINESTYLE
350
E
  3
ACAD_PLOTSETTINGS
350
566
  3
ACAD_PLOTSTYLENAME
350
563
  3
ACDBHEADERROUNDTRIPXREC
350
15E2
  3
GRADE_DWG
350
540
  0
DICTIONARY
  5
11FC
330
1A
100
AcDbDictionary
280
     1
  3
ACAD_LAYOUTSELFREF
360
1604
  0
DICTIONARY
  5
11FA
330
17
100
AcDbDictionary
280
     1
  3
ACAD_LAYOUTSELFREF
360
1603
  0
DICTIONARY
  5
D
102
{ACAD_REACTORS
330
C
102
}
330
C
100
AcDbDictionary
  3
*A1
350
6C7
  3
*A2
350
6C8
  3
*A3
350
6D4
  3
*A4
350
6D5
  3
DREC-1
350
5FC
  3
DREC-2
350
654
  3
DREC-3
350
673
  0
DICTIONARY
  5
565
102
{ACAD_REACTORS
330
C
102
}
330
C
100
AcDbDictionary
  0
DICTIONARY
  5
E
102
{ACAD_REACTORS
330
C
102
}
330
C
100
AcDbDictionary
  3
STANDARD
350
13
  0
DICTIONARY
  5
566
102
{ACAD_REACTORS
330
C
102
}
330
C
100
AcDbDictionary
  3
A3_0_5倍_
350
758
  3
A3_1倍_
350
757
  3
A3_1倍__2000_
350
707
  3
A3_2倍_
350
759
  3
A4_0_5倍_
350
755
  3
A4_1倍_
350
754
  3
A4_1倍__2000_
350
708
  3
A4_2倍_
350
756
  0
ACDBDICTIONARYWDFLT
  5
563
102
{ACAD_REACTORS
330
C
102
}
330
C
100
AcDbDictionary
281
     1
  3
Normal
350
564
100
AcDbDictionaryWithDefault
340
564
  0
DICTIONARY
  5
15E2
102
{ACAD_REACTORS
330
C
102
}
330
C
100
AcDbDictionary
  3
CEPSNTYPE
350
15EC
  3
DIMSTYLEDATA
350
15F0
  3
FINGERPRINTGUID
350
15ED
  3
HYPERLINKBASE
350
15E5
  3
INSUNITS
350
15EB
  3
LAYOUTDICT
350
15E7
  3
LWETCUNION
350
15EA
  3
PLOTSETDICT
350
15E8
  3
PLOTSTYLNAMDICT
350
15E9
  3
PSVPSCALE
350
15EF
  3
PUCSBASE
350
15F3
  3
PUCSORGBACK
350
15F9
  3
PUCSORGBOTTOM
350
15F5
  3
PUCSORGFRONT
350
15F8
  3
PUCSORGLEFT
350
15F6
  3
PUCSORGRIGHT
350
15F7
  3
PUCSORGTOP
350
15F4
  3
PUCSORTHOREF
350
15F1
  3
PUCSORTHOVIEW
350
15F2
  3
STYLESHEET
350
15E6
  3
TSTACKALIGN
350
15E3
  3
TSTACKSIZE
350
15E4
  3
UCSBASE
350
15FC
  3
UCSORGBACK
350
1602
  3
UCSORGBOTTOM
350
15FE
  3
UCSORGFRONT
350
1601
  3
UCSORGLEFT
350
15FF
  3
UCSORGRIGHT
350
1600
  3
UCSORGTOP
350
15FD
  3
UCSORTHOREF
350
15FA
  3
UCSORTHOVIEW
350
15FB
  3
VERSIONGUID
350
15EE
  0
DICTIONARY
  5
540
102
{ACAD_REACTORS
330
C
102
}
330
C
100
AcDbDictionary
  3
VERSION
350
560
  0
XRECORD
  5
1604
102
{ACAD_REACTORS
330
11FC
102
}
330
11FC
100
AcDbXrecord
340
1A
  0
XRECORD
  5
1603
102
{ACAD_REACTORS
330
11FA
102
}
330
11FA
100
AcDbXrecord
340
17
  0
GROUP
  5
6C7
102
{ACAD_REACTORS
330
D
102
}
330
D
100
AcDbGroup
300

 70
     0
 71
     1
1001
GRPNAME
1000
DMA00
  0
GROUP
  5
6C8
102
{ACAD_REACTORS
330
D
102
}
330
D
100
AcDbGroup
300

 70
     0
 71
     1
1001
GRPNAME
1000
DMA00
  0
GROUP
  5
6D4
102
{ACAD_REACTORS
330
D
102
}
330
D
100
AcDbGroup
300

 70
     0
 71
     1
1001
GRPNAME
1000
DMA00
  0
GROUP
  5
6D5
102
{ACAD_REACTORS
330
D
102
}
330
D
100
AcDbGroup
300

 70
     0
 71
     1
1001
GRPNAME
1000
DMA00
  0
GROUP
  5
5FC
102
{ACAD_REACTORS
330
D
102
}
330
D
100
AcDbGroup
300

 70
     0
 71
     1
1001
GRPNAME
1000
DREC-
1001
GPARA
1000
xsiz
1000
44.182
1000
ysiz
1000
40.677
1000
angl
1000
0
1000
ctyp
1000
0
1000
csiz
1000
5
1000
lfnt
1000
cont
1000
hcnt
1000
hoff
1000
vcnt
1000
voff
1000
opnt
1000
4
1000
dxpt
1000
0
1000
dypt
1000
0
  0
GROUP
  5
654
102
{ACAD_REACTORS
330
D
102
}
330
D
100
AcDbGroup
300

 70
     0
 71
     1
1001
GRPNAME
1000
DREC-
1001
GPARA
1000
xsiz
1000
54.592
1000
ysiz
1000
53.036
1000
angl
1000
0
1000
ctyp
1000
0
1000
csiz
1000
5
1000
lfnt
1000
cont
1000
hcnt
1000
hoff
1000
vcnt
1000
voff
1000
opnt
1000
4
1000
dxpt
1000
0
1000
dypt
1000
0
  0
GROUP
  5
673
102
{ACAD_REACTORS
330
D
102
}
330
D
100
AcDbGroup
300

 70
     0
 71
     1
1001
GRPNAME
1000
DREC-
1001
GPARA
1000
xsiz
1000
30.363
1000
ysiz
1000
36.175
1000
angl
1000
0
1000
ctyp
1000
0
1000
csiz
1000
5
1000
lfnt
1000
cont
1000
hcnt
1000
hoff
1000
vcnt
1000
voff
1000
opnt
1000
4
1000
dxpt
1000
0
1000
dypt
1000
0
  0
MLINESTYLE
  5
13
102
{ACAD_REACTORS
330
E
102
}
330
E
100
AcDbMlineStyle
  2
STANDARD
 70
     0
  3

 62
     0
 51
90.0
 52
90.0
 71
     2
 49
0.5
 62
   256
  6
BYLAYER
 49
-0.5
 62
   256
  6
BYLAYER
  0
PLOTSETTINGS
  5
758
102
{ACAD_REACTORS
330
566
102
}
330
566
100
AcDbPlotSettings
  1
A3(0.5倍)
  2
\\AWTECPC05\HP DeskJet 1120C
  4
A3
  6

 40
5.95841646
 41
13.49375153
 42
6.04309082
 43
3.67242432
 44
296.92599487
 45
419.94665527
 46
89.96
 47
127.14
 48
0.0
 49
0.0
140
0.0
141
0.0
142
1.0
143
2.0
 70
  1716
 72
     1
 73
     1
 74
     2
  7
big.ctb
 75
    17
147
0.5
148
0.0
149
0.0
  0
PLOTSETTINGS
  5
757
102
{ACAD_REACTORS
330
566
102
}
330
566
100
AcDbPlotSettings
  1
A3(1倍)
  2
\\AWTECPC05\HP DeskJet 1120C
  4
A3
  6

 40
5.95841646
 41
13.49375153
 42
6.04309082
 43
3.67242432
 44
296.92599487
 45
419.94665527
 46
37.46
 47
52.89
 48
0.0
 49
0.0
140
0.0
141
0.0
142
1.0
143
1.0
 70
  1716
 72
     1
 73
     1
 74
     2
  7
big.ctb
 75
    16
147
1.0
148
0.0
149
0.0
  0
PLOTSETTINGS
  5
707
102
{ACAD_REACTORS
330
566
102
}
330
566
100
AcDbPlotSettings
  1
A3(1倍)(2000)
  2
SII LS-1300 (D-SCAN)
  4
User258
  6

 40
3.17499995
 41
3.17499995
 42
3.17498779
 43
3.17498779
 44
419.98898315
 45
296.98950195
 46
58.32
 47
40.32
 48
0.0
 49
0.0
140
0.0
141
0.0
142
1.0
143
1.0
 70
  1716
 72
     1
 73
     0
 74
     2
  7
big.ctb
 75
    16
147
1.0
148
0.0
149
0.0
  0
PLOTSETTINGS
  5
759
102
{ACAD_REACTORS
330
566
102
}
330
566
100
AcDbPlotSettings
  1
A3(2倍)
  2
\\AWTECPC05\HP DeskJet 1120C
  4
A3
  6

 40
5.95841646
 41
13.49375153
 42
6.04309082
 43
3.67242432
 44
296.92599487
 45
419.94665527
 46
-67.54
 47
-95.61
 48
0.0
 49
0.0
140
0.0
141
0.0
142
1.0
143
0.5
 70
  1716
 72
     1
 73
     1
 74
     2
  7
big.ctb
 75
    27
147
2.0
148
0.0
149
0.0
  0
PLOTSETTINGS
  5
755
102
{ACAD_REACTORS
330
566
102
}
330
566
100
AcDbPlotSettings
  1
A4(0.5倍)
  2
\\AWTECPC05\HP DeskJet 1120C
  4
A4
  6

 40
4.18041658
 41
13.49374962
 42
4.18040466
 43
3.92642212
 44
209.97332764
 45
296.92599487
 46
48.31
 47
65.5
 48
0.0
 49
0.0
140
0.0
141
0.0
142
1.0
143
2.0
 70
  1716
 72
     1
 73
     1
 74
     2
  7
big.ctb
 75
    17
147
0.5
148
0.0
149
0.0
  0
PLOTSETTINGS
  5
754
102
{ACAD_REACTORS
330
566
102
}
330
566
100
AcDbPlotSettings
  1
A4(1倍)
  2
\\AWTECPC05\HP DeskJet 1120C
  4
A4
  6

 40
4.18041658
 41
13.49374962
 42
4.18040466
 43
3.92642212
 44
209.97332764
 45
296.92599487
 46
-4.19
 47
-8.75
 48
0.0
 49
0.0
140
0.0
141
0.0
142
1.0
143
1.0
 70
  1716
 72
     1
 73
     1
 74
     2
  7
big.ctb
 75
    16
147
1.0
148
0.0
149
0.0
  0
PLOTSETTINGS
  5
708
102
{ACAD_REACTORS
330
566
102
}
330
566
100
AcDbPlotSettings
  1
A4(1倍)(2000)
  2
SII LS-1300 (D-SCAN)
  4
User259
  6

 40
3.17499995
 41
3.17499995
 42
3.17498779
 43
3.17500305
 44
296.98950195
 45
209.99449158
 46
-3.18
 47
-3.18
 48
0.0
 49
0.0
140
0.0
141
0.0
142
1.0
143
1.0
 70
  1716
 72
     1
 73
     0
 74
     2
  7
big.ctb
 75
    16
147
1.0
148
0.0
149
0.0
  0
PLOTSETTINGS
  5
756
102
{ACAD_REACTORS
330
566
102
}
330
566
100
AcDbPlotSettings
  1
A4(2倍)
  2
\\AWTECPC05\HP DeskJet 1120C
  4
A4
  6

 40
4.18041658
 41
13.49374962
 42
4.18040466
 43
3.92642212
 44
209.97332764
 45
296.92599487
 46
-109.19
 47
-157.25
 48
0.0
 49
0.0
140
0.0
141
0.0
142
1.0
143
0.5
 70
  1716
 72
     1
 73
     1
 74
     2
  7
big.ctb
 75
    27
147
2.0
148
0.0
149
0.0
  0
ACDBPLACEHOLDER
  5
564
102
{ACAD_REACTORS
330
563
102
}
330
563
100
AcDbPlaceHolder
280
     0
  0
XRECORD
  5
15EC
102
{ACAD_REACTORS
330
15E2
102
}
330
15E2
100
AcDbXrecord
 90
        0
  0
XRECORD
  5
15F0
102
{ACAD_REACTORS
330
15E2
102
}
330
15E2
100
AcDbXrecord
1000
DSTYLE
1002
{
1070
    79
 70
     2
1070
   179
 70
     3
1070
   341
340
594
1070
   343
340
594
1070
   344
340
594
1070
   371
 70
    -1
1070
   372
 70
    -1
1002
}
  0
XRECORD
  5
15ED
102
{ACAD_REACTORS
330
15E2
102
}
330
15E2
100
AcDbXrecord
  1
{51294030-9CB4-11D3-8E18-00A0C925D94D}
  0
XRECORD
  5
15E5
102
{ACAD_REACTORS
330
15E2
102
}
330
15E2
100
AcDbXrecord
  1

  0
XRECORD
  5
15EB
102
{ACAD_REACTORS
330
15E2
102
}
330
15E2
100
AcDbXrecord
 90
        0
  0
XRECORD
  5
15E7
102
{ACAD_REACTORS
330
15E2
102
}
330
15E2
100
AcDbXrecord
340
565
  0
XRECORD
  5
15EA
102
{ACAD_REACTORS
330
15E2
102
}
330
15E2
100
AcDbXrecord
 90
    10781
  0
XRECORD
  5
15E8
102
{ACAD_REACTORS
330
15E2
102
}
330
15E2
100
AcDbXrecord
340
566
  0
XRECORD
  5
15E9
102
{ACAD_REACTORS
330
15E2
102
}
330
15E2
100
AcDbXrecord
340
563
  0
XRECORD
  5
15EF
102
{ACAD_REACTORS
330
15E2
102
}
330
15E2
100
AcDbXrecord
 40
0.0
  0
XRECORD
  5
15F3
102
{ACAD_REACTORS
330
15E2
102
}
330
15E2
100
AcDbXrecord
340
0
  0
XRECORD
  5
15F9
102
{ACAD_REACTORS
330
15E2
102
}
330
15E2
100
AcDbXrecord
 10
0.0
 20
0.0
 30
0.0
  0
XRECORD
  5
15F5
102
{ACAD_REACTORS
330
15E2
102
}
330
15E2
100
AcDbXrecord
 10
0.0
 20
0.0
 30
0.0
  0
XRECORD
  5
15F8
102
{ACAD_REACTORS
330
15E2
102
}
330
15E2
100
AcDbXrecord
 10
0.0
 20
0.0
 30
0.0
  0
XRECORD
  5
15F6
102
{ACAD_REACTORS
330
15E2
102
}
330
15E2
100
AcDbXrecord
 10
0.0
 20
0.0
 30
0.0
  0
XRECORD
  5
15F7
102
{ACAD_REACTORS
330
15E2
102
}
330
15E2
100
AcDbXrecord
 10
0.0
 20
0.0
 30
0.0
  0
XRECORD
  5
15F4
102
{ACAD_REACTORS
330
15E2
102
}
330
15E2
100
AcDbXrecord
 10
0.0
 20
0.0
 30
0.0
  0
XRECORD
  5
15F1
102
{ACAD_REACTORS
330
15E2
102
}
330
15E2
100
AcDbXrecord
340
0
  0
XRECORD
  5
15F2
102
{ACAD_REACTORS
330
15E2
102
}
330
15E2
100
AcDbXrecord
 70
     0
  0
XRECORD
  5
15E6
102
{ACAD_REACTORS
330
15E2
102
}
330
15E2
100
AcDbXrecord
  1
big.ctb
  0
XRECORD
  5
15E3
102
{ACAD_REACTORS
330
15E2
102
}
330
15E2
100
AcDbXrecord
 90
        1
  0
XRECORD
  5
15E4
102
{ACAD_REACTORS
330
15E2
102
}
330
15E2
100
AcDbXrecord
 90
       70
  0
XRECORD
  5
15FC
102
{ACAD_REACTORS
330
15E2
102
}
330
15E2
100
AcDbXrecord
340
0
  0
XRECORD
  5
1602
102
{ACAD_REACTORS
330
15E2
102
}
330
15E2
100
AcDbXrecord
 10
0.0
 20
0.0
 30
0.0
  0
XRECORD
  5
15FE
102
{ACAD_REACTORS
330
15E2
102
}
330
15E2
100
AcDbXrecord
 10
0.0
 20
0.0
 30
0.0
  0
XRECORD
  5
1601
102
{ACAD_REACTORS
330
15E2
102
}
330
15E2
100
AcDbXrecord
 10
0.0
 20
0.0
 30
0.0
  0
XRECORD
  5
15FF
102
{ACAD_REACTORS
330
15E2
102
}
330
15E2
100
AcDbXrecord
 10
0.0
 20
0.0
 30
0.0
  0
XRECORD
  5
1600
102
{ACAD_REACTORS
330
15E2
102
}
330
15E2
100
AcDbXrecord
 10
0.0
 20
0.0
 30
0.0
  0
XRECORD
  5
15FD
102
{ACAD_REACTORS
330
15E2
102
}
330
15E2
100
AcDbXrecord
 10
0.0
 20
0.0
 30
0.0
  0
XRECORD
  5
15FA
102
{ACAD_REACTORS
330
15E2
102
}
330
15E2
100
AcDbXrecord
340
0
  0
XRECORD
  5
15FB
102
{ACAD_REACTORS
330
15E2
102
}
330
15E2
100
AcDbXrecord
 70
     0
  0
XRECORD
  5
15EE
102
{ACAD_REACTORS
330
15E2
102
}
330
15E2
100
AcDbXrecord
  1
{5B02D29A-25A1-4F29-984E-5A4C2CC293D9}
  0
XRECORD
  5
560
102
{ACAD_REACTORS
330
540
102
}
330
540
100
AcDbXrecord
  1
2.0.0
  0
ENDSEC
  0
EOF
