  0
SECTION
  2
HEADER
  9
$ACADVER
  1
AC1014
  9
$ACADMAINTVER
 70
     9
  9
$DWGCODEPAGE
  3
ANSI_932
  9
$INSBASE
 10
0.0
 20
0.0
 30
0.0
  9
$EXTMIN
 10
-66.41484262
 20
-31.71713736
 30
-0.00152582
  9
$EXTMAX
 10
120.02265703
 20
61.02264515
 30
0.00000003
  9
$LIMMIN
 10
0.0
 20
0.0
  9
$LIMMAX
 10
420.0
 20
297.0
  9
$ORTHOMODE
 70
     0
  9
$REGENMODE
 70
     1
  9
$FILLMODE
 70
     1
  9
$QTEXTMODE
 70
     0
  9
$MIRRTEXT
 70
     1
  9
$DRAGMODE
 70
     2
  9
$LTSCALE
 40
10.0
  9
$OSMODE
 70
   549
  9
$ATTMODE
 70
     1
  9
$TEXTSIZE
 40
3.0
  9
$TRACEWID
 40
1.0
  9
$TEXTSTYLE
  7
YOKO
  9
$CLAYER
  8
245
  9
$CELTYPE
  6
BYLAYER
  9
$CECOLOR
 62
   256
  9
$CELTSCALE
 40
1.0
  9
$DELOBJ
 70
     1
  9
$DISPSILH
 70
     0
  9
$DIMSCALE
 40
1.0
  9
$DIMASZ
 40
2.23
  9
$DIMEXO
 40
0.5
  9
$DIMDLI
 40
2.5
  9
$DIMRND
 40
0.0
  9
$DIMDLE
 40
0.0
  9
$DIMEXE
 40
1.0
  9
$DIMTP
 40
0.0
  9
$DIMTM
 40
0.0
  9
$DIMTXT
 40
2.8
  9
$DIMCEN
 40
0.0
  9
$DIMTSZ
 40
0.0
  9
$DIMTOL
 70
     0
  9
$DIMLIM
 70
     0
  9
$DIMTIH
 70
     0
  9
$DIMTOH
 70
     0
  9
$DIMSE1
 70
     0
  9
$DIMSE2
 70
     0
  9
$DIMTAD
 70
     3
  9
$DIMZIN
 70
     8
  9
$DIMBLK
  1

  9
$DIMASO
 70
     1
  9
$DIMSHO
 70
     1
  9
$DIMPOST
  1

  9
$DIMAPOST
  1

  9
$DIMALT
 70
     0
  9
$DIMALTD
 70
     2
  9
$DIMALTF
 40
25.4
  9
$DIMLFAC
 40
1.0
  9
$DIMTOFL
 70
     1
  9
$DIMTVP
 40
0.0
  9
$DIMTIX
 70
     1
  9
$DIMSOXD
 70
     0
  9
$DIMSAH
 70
     1
  9
$DIMBLK1
  1
OPEN
  9
$DIMBLK2
  1
OPEN
  9
$DIMSTYLE
  2
BIGT
  9
$DIMCLRD
 70
   256
  9
$DIMCLRE
 70
   256
  9
$DIMCLRT
 70
    40
  9
$DIMTFAC
 40
1.0
  9
$DIMGAP
 40
1.0
  9
$DIMJUST
 70
     0
  9
$DIMSD1
 70
     0
  9
$DIMSD2
 70
     0
  9
$DIMTOLJ
 70
     1
  9
$DIMTZIN
 70
     8
  9
$DIMALTZ
 70
     0
  9
$DIMALTTZ
 70
     0
  9
$DIMFIT
 70
     3
  9
$DIMUPT
 70
     0
  9
$DIMUNIT
 70
     2
  9
$DIMDEC
 70
     3
  9
$DIMTDEC
 70
     3
  9
$DIMALTU
 70
     2
  9
$DIMALTTD
 70
     2
  9
$DIMTXSTY
  7
STANDARD
  9
$DIMAUNIT
 70
     0
  9
$LUNITS
 70
     2
  9
$LUPREC
 70
     3
  9
$SKETCHINC
 40
1.0
  9
$FILLETRAD
 40
30.0
  9
$AUNITS
 70
     0
  9
$AUPREC
 70
     3
  9
$MENU
  1
.
  9
$ELEVATION
 40
0.0
  9
$PELEVATION
 40
0.0
  9
$THICKNESS
 40
0.0
  9
$LIMCHECK
 70
     0
  9
$BLIPMODE
 70
     0
  9
$CHAMFERA
 40
10.0
  9
$CHAMFERB
 40
10.0
  9
$CHAMFERC
 40
0.0
  9
$CHAMFERD
 40
0.0
  9
$SKPOLY
 70
     0
  9
$TDCREATE
 40
2455141.486435358
  9
$TDUPDATE
 40
2455383.478600984
  9
$TDINDWG
 40
0.0044305208
  9
$TDUSRTIMER
 40
0.0044303472
  9
$USRTIMER
 70
     1
  9
$ANGBASE
 50
0.0
  9
$ANGDIR
 70
     0
  9
$PDMODE
 70
     1
  9
$PDSIZE
 40
-5.0
  9
$PLINEWID
 40
0.0
  9
$COORDS
 70
     1
  9
$SPLFRAME
 70
     0
  9
$SPLINETYPE
 70
     6
  9
$SPLINESEGS
 70
     8
  9
$ATTDIA
 70
     0
  9
$ATTREQ
 70
     1
  9
$HANDLING
 70
-16383
  9
$HANDSEED
  5
1343
  9
$SURFTAB1
 70
     6
  9
$SURFTAB2
 70
     6
  9
$SURFTYPE
 70
     6
  9
$SURFU
 70
     6
  9
$SURFV
 70
     6
  9
$UCSNAME
  2

  9
$UCSORG
 10
0.0
 20
0.0
 30
0.0
  9
$UCSXDIR
 10
1.0
 20
0.0
 30
0.0
  9
$UCSYDIR
 10
0.0
 20
1.0
 30
0.0
  9
$PUCSNAME
  2

  9
$PUCSORG
 10
0.0
 20
0.0
 30
0.0
  9
$PUCSXDIR
 10
1.0
 20
0.0
 30
0.0
  9
$PUCSYDIR
 10
0.0
 20
1.0
 30
0.0
  9
$USERI1
 70
     1
  9
$USERI2
 70
     0
  9
$USERI3
 70
     0
  9
$USERI4
 70
     0
  9
$USERI5
 70
     0
  9
$USERR1
 40
0.0
  9
$USERR2
 40
0.0
  9
$USERR3
 40
0.0
  9
$USERR4
 40
0.0
  9
$USERR5
 40
0.0
  9
$WORLDVIEW
 70
     1
  9
$SHADEDGE
 70
     3
  9
$SHADEDIF
 70
    70
  9
$TILEMODE
 70
     1
  9
$MAXACTVP
 70
    16
  9
$PINSBASE
 10
0.0
 20
0.0
 30
0.0
  9
$PLIMCHECK
 70
     0
  9
$PEXTMIN
 10
1.00000000E+20
 20
1.00000000E+20
 30
1.00000000E+20
  9
$PEXTMAX
 10
-1.00000000E+20
 20
-1.00000000E+20
 30
-1.00000000E+20
  9
$PLIMMIN
 10
0.0
 20
0.0
  9
$PLIMMAX
 10
420.0
 20
297.0
  9
$UNITMODE
 70
     0
  9
$VISRETAIN
 70
     0
  9
$PLINEGEN
 70
     0
  9
$PSLTSCALE
 70
     1
  9
$TREEDEPTH
 70
  3020
  9
$PICKSTYLE
 70
     0
  9
$CMLSTYLE
  2
STANDARD
  9
$CMLJUST
 70
     0
  9
$CMLSCALE
 40
1.0
  9
$PROXYGRAPHICS
 70
     1
  9
$MEASUREMENT
 70
     1
  0
ENDSEC
  0
SECTION
  2
CLASSES
  0
CLASS
  1
XRECORD
  2
AcDbXrecord
  3
AutoCAD 2000
 90
        0
280
     0
281
     0
  0
CLASS
  1
ACDBDICTIONARYWDFLT
  2
AcDbDictionaryWithDefault
  3
AutoCAD 2000
 90
        0
280
     0
281
     0
  0
CLASS
  1
ACDBPLACEHOLDER
  2
AcDbPlaceHolder
  3
AutoCAD 2000
 90
        0
280
     0
281
     0
  0
CLASS
  1
LAYOUT
  2
AcDbLayout
  3
AutoCAD 2000
 90
        0
280
     0
281
     0
  0
CLASS
  1
PLOTSETTINGS
  2
AcDbPlotSettings
  3
AutoCAD 2000
 90
        0
280
     0
281
     0
  0
CLASS
  1
LONG_TRANSACTION
  2
AcDbLongTransaction
  3
AutoCAD 2000
 90
        0
280
     0
281
     0
  0
CLASS
  1
LWPOLYLINE
  2
AcDbPolyline
  3
AutoCAD 2000
 90
        0
280
     0
281
     1
  0
CLASS
  1
HATCH
  2
AcDbHatch
  3
AutoCAD 2000
 90
        0
280
     0
281
     1
  0
CLASS
  1
XRECORD
  2
AcDbXrecord
  3
AutoCAD 2000
 90
        0
280
     0
281
     0
  0
CLASS
  1
LONG_TRANSACTION
  2
AcDbLongTransaction
  3
AutoCAD 2000
 90
        0
280
     0
281
     0
  0
CLASS
  1
LWPOLYLINE
  2
AcDbPolyline
  3
AutoCAD 2000
 90
        0
280
     0
281
     1
  0
CLASS
  1
HATCH
  2
AcDbHatch
  3
AutoCAD 2000
 90
        0
280
     0
281
     1
  0
CLASS
  1
XRECORD
  2
AcDbXrecord
  3
AutoCAD 2000
 90
        0
280
     0
281
     0
  0
ENDSEC
  0
SECTION
  2
TABLES
  0
TABLE
  2
VPORT
  5
8
330
0
100
AcDbSymbolTable
 70
     2
  0
VPORT
  5
131E
330
8
100
AcDbSymbolTableRecord
100
AcDbViewportTableRecord
  2
*ACTIVE
 70
     0
 10
0.0
 20
0.0
 11
1.0
 21
1.0
 12
26.80390721
 22
14.65275389
 13
0.0
 23
0.0
 14
7.0
 24
7.0
 15
7.0
 25
7.0
 16
0.0
 26
0.0
 36
1.0
 17
0.0
 27
0.0
 37
0.0
 40
128.73404277
 41
1.45595855
 42
50.0
 43
0.0
 44
0.0
 50
0.0
 51
0.0
 71
     0
 72
  2000
 73
     1
 74
     0
 75
     0
 76
     0
 77
     0
 78
     0
  0
ENDTAB
  0
TABLE
  2
LTYPE
  5
5
330
0
100
AcDbSymbolTable
 70
     4
  0
LTYPE
  5
14
330
5
100
AcDbSymbolTableRecord
100
AcDbLinetypeTableRecord
  2
BYBLOCK
 70
     0
  3

 72
    65
 73
     0
 40
0.0
  0
LTYPE
  5
15
330
5
100
AcDbSymbolTableRecord
100
AcDbLinetypeTableRecord
  2
BYLAYER
 70
     0
  3

 72
    65
 73
     0
 40
0.0
  0
LTYPE
  5
16
330
5
100
AcDbSymbolTableRecord
100
AcDbLinetypeTableRecord
  2
CONTINUOUS
 70
     0
  3
Solid line
 72
    65
 73
     0
 40
0.0
  0
LTYPE
  5
258
330
5
100
AcDbSymbolTableRecord
100
AcDbLinetypeTableRecord
  2
CENTER2
 70
     0
  3
___ _ ___ _ ___ _ ___ _ ___ _ ___ _ ___ _ ___ _
 72
    65
 73
     4
 40
1.125
 49
0.75
 74
     0
 49
-0.125
 74
     0
 49
0.125
 74
     0
 49
-0.125
 74
     0
  0
LTYPE
  5
25C
330
5
100
AcDbSymbolTableRecord
100
AcDbLinetypeTableRecord
  2
HIDDEN2
 70
     0
  3
_ _ _ _ _ _ _ _ _ _ _ _ _ _ _ _ _ _ _ _ _ _ _ _
 72
    65
 73
     2
 40
0.1875
 49
0.125
 74
     0
 49
-0.0625
 74
     0
  0
LTYPE
  5
25D
330
5
100
AcDbSymbolTableRecord
100
AcDbLinetypeTableRecord
  2
PHANTOM2
 70
     0
  3
___ _ _ ___ _ _ ___ _ _ ___ _ _ ___ _ _ ___ _ _
 72
    65
 73
     6
 40
1.25
 49
0.625
 74
     0
 49
-0.125
 74
     0
 49
0.125
 74
     0
 49
-0.125
 74
     0
 49
0.125
 74
     0
 49
-0.125
 74
     0
  0
ENDTAB
  0
TABLE
  2
LAYER
  5
2
330
0
100
AcDbSymbolTable
 70
    11
  0
LAYER
  5
F
330
2
100
AcDbSymbolTableRecord
100
AcDbLayerTableRecord
  2
0
 70
     0
 62
     7
  6
CONTINUOUS
  0
LAYER
  5
1AA
330
2
100
AcDbSymbolTableRecord
100
AcDbLayerTableRecord
  2
240
 70
     0
 62
     4
  6
CONTINUOUS
  0
LAYER
  5
1AB
330
2
100
AcDbSymbolTableRecord
100
AcDbLayerTableRecord
  2
241
 70
     0
 62
   211
  6
CONTINUOUS
  0
LAYER
  5
1AF
330
2
100
AcDbSymbolTableRecord
100
AcDbLayerTableRecord
  2
245
 70
     0
 62
     2
  6
CENTER2
  0
LAYER
  5
21A
330
2
100
AcDbSymbolTableRecord
100
AcDbLayerTableRecord
  2
246
 70
     0
 62
     3
  6
PHANTOM2
  0
LAYER
  5
21E
330
2
100
AcDbSymbolTableRecord
100
AcDbLayerTableRecord
  2
250
 70
     0
 62
     3
  6
CONTINUOUS
  0
LAYER
  5
5C4
330
2
100
AcDbSymbolTableRecord
100
AcDbLayerTableRecord
  2
DEFPOINTS
 70
     0
 62
     7
  6
CONTINUOUS
  0
ENDTAB
  0
TABLE
  2
STYLE
  5
3
330
0
100
AcDbSymbolTable
 70
     2
  0
STYLE
  5
10
330
3
100
AcDbSymbolTableRecord
100
AcDbTextStyleTableRecord
  2
STANDARD
 70
     0
 40
0.0
 41
1.0
 50
0.0
 71
     0
 42
3.0
  3
romans.shx
  4
BIGFONT.SHX
  0
STYLE
  5
339
330
3
100
AcDbSymbolTableRecord
100
AcDbTextStyleTableRecord
  2
YOKO
 70
     0
 40
0.0
 41
1.0
 50
0.0
 71
     0
 42
3.0
  3
romans.shx
  4
extfont.shx
  0
ENDTAB
  0
TABLE
  2
VIEW
  5
6
330
0
100
AcDbSymbolTable
 70
     0
  0
ENDTAB
  0
TABLE
  2
UCS
  5
7
330
0
100
AcDbSymbolTable
 70
     0
  0
ENDTAB
  0
TABLE
  2
APPID
  5
9
330
0
100
AcDbSymbolTable
 70
    12
  0
APPID
  5
11
330
9
100
AcDbSymbolTableRecord
100
AcDbRegAppTableRecord
  2
ACAD
 70
     0
  0
APPID
  5
1B1
330
9
100
AcDbSymbolTableRecord
100
AcDbRegAppTableRecord
  2
GLOBAL
 70
     0
  0
APPID
  5
2A4
330
9
100
AcDbSymbolTableRecord
100
AcDbRegAppTableRecord
  2
DETAIL
 70
     0
  0
APPID
  5
5FD
330
9
100
AcDbSymbolTableRecord
100
AcDbRegAppTableRecord
  2
GRPNAME
 70
     0
  0
APPID
  5
5FE
330
9
100
AcDbSymbolTableRecord
100
AcDbRegAppTableRecord
  2
GPARA
 70
     0
  0
APPID
  5
6C4
330
9
100
AcDbSymbolTableRecord
100
AcDbRegAppTableRecord
  2
DCO15
 70
     0
  0
APPID
  5
6C5
330
9
100
AcDbSymbolTableRecord
100
AcDbRegAppTableRecord
  2
ITEMNAME
 70
     0
  0
APPID
  5
6C6
330
9
100
AcDbSymbolTableRecord
100
AcDbRegAppTableRecord
  2
GRADE_0
 70
     0
  0
APPID
  5
9E4
330
9
100
AcDbSymbolTableRecord
100
AcDbRegAppTableRecord
  2
HATCH_TYPE
 70
     0
  0
APPID
  5
9E5
330
9
100
AcDbSymbolTableRecord
100
AcDbRegAppTableRecord
  2
HATCH_DISPLAY
 70
     0
  0
APPID
  5
9E6
330
9
100
AcDbSymbolTableRecord
100
AcDbRegAppTableRecord
  2
HATCH_DISTANCE
 70
     0
  0
APPID
  5
F2C
330
9
100
AcDbSymbolTableRecord
100
AcDbRegAppTableRecord
  2
CONTENTBLOCKICON
 70
     0
  0
ENDTAB
  0
TABLE
  2
DIMSTYLE
  5
A
330
0
100
AcDbSymbolTable
 70
     4
  0
DIMSTYLE
105
725
102
{ACAD_REACTORS
330
C8D
330
C9C
330
CAB
330
CBA
102
}
330
A
100
AcDbSymbolTableRecord
100
AcDbDimStyleTableRecord
  2
BIGT
 70
     0
  3

  4

  5

  6
OPEN
  7
OPEN
 40
1.0
 41
2.23
 42
0.5
 43
2.5
 44
1.0
 45
0.0
 46
0.0
 47
0.0
 48
0.0
140
2.8
141
0.0
142
0.0
143
25.4
144
1.0
145
0.0
146
1.0
147
1.0
 71
     0
 72
     0
 73
     0
 74
     0
 75
     0
 76
     0
 77
     3
 78
     8
170
     0
171
     2
172
     1
173
     1
174
     1
175
     0
176
   256
177
   256
178
    40
270
     2
271
     3
272
     3
273
     2
274
     2
340
10
275
     0
280
     0
281
     0
282
     0
283
     1
284
     8
285
     0
286
     0
287
     3
288
     0
  0
ENDTAB
  0
TABLE
  2
BLOCK_RECORD
  5
1
330
0
100
AcDbSymbolTable
 70
     8
  0
BLOCK_RECORD
  5
1A
102
{ACAD_XDICTIONARY
360
F2A
102
}
330
1
100
AcDbSymbolTableRecord
100
AcDbBlockTableRecord
  2
*MODEL_SPACE
  0
BLOCK_RECORD
  5
17
102
{ACAD_XDICTIONARY
360
F28
102
}
330
1
100
AcDbSymbolTableRecord
100
AcDbBlockTableRecord
  2
*PAPER_SPACE
  0
BLOCK_RECORD
  5
594
330
1
100
AcDbSymbolTableRecord
100
AcDbBlockTableRecord
  2
_OPEN
  0
BLOCK_RECORD
  5
6E3
330
1
100
AcDbSymbolTableRecord
100
AcDbBlockTableRecord
  2
矢印なし
  0
BLOCK_RECORD
  5
C8E
330
1
100
AcDbSymbolTableRecord
100
AcDbBlockTableRecord
  2
*D2
  0
BLOCK_RECORD
  5
C9D
330
1
100
AcDbSymbolTableRecord
100
AcDbBlockTableRecord
  2
*D3
  0
BLOCK_RECORD
  5
CAC
330
1
100
AcDbSymbolTableRecord
100
AcDbBlockTableRecord
  2
*D4
  0
BLOCK_RECORD
  5
CBB
330
1
100
AcDbSymbolTableRecord
100
AcDbBlockTableRecord
  2
*D5
  0
BLOCK_RECORD
  5
CF5
330
1
100
AcDbSymbolTableRecord
100
AcDbBlockTableRecord
  2
1
1001
CONTENTBLOCKICON
1071
        0
1004
2800000020000000200000000100080000000000000400000000000000000000000000000000000000000000000080000080000000808000800000008000800080800000C0C0C000C0DCC000F0CAA6000020400000206000002080000020A0000020C0000020E00000400000004020000040400000406000004080000040A0
1004
000040C0000040E00000600000006020000060400000606000006080000060A0000060C0000060E00000800000008020000080400000806000008080000080A0000080C0000080E00000A0000000A0200000A0400000A0600000A0800000A0A00000A0C00000A0E00000C0000000C0200000C0400000C0600000C0800000C0
1004
A00000C0C00000C0E00000E0000000E0200000E0400000E0600000E0800000E0A00000E0C00000E0E00040000000400020004000400040006000400080004000A0004000C0004000E00040200000402020004020400040206000402080004020A0004020C0004020E000404000004040200040404000404060004040800040
1004
40A0004040C0004040E00040600000406020004060400040606000406080004060A0004060C0004060E00040800000408020004080400040806000408080004080A0004080C0004080E00040A0000040A0200040A0400040A0600040A0800040A0A00040A0C00040A0E00040C0000040C0200040C0400040C0600040C08000
1004
40C0A00040C0C00040C0E00040E0000040E0200040E0400040E0600040E0800040E0A00040E0C00040E0E00080000000800020008000400080006000800080008000A0008000C0008000E00080200000802020008020400080206000802080008020A0008020C0008020E00080400000804020008040400080406000804080
1004
008040A0008040C0008040E00080600000806020008060400080606000806080008060A0008060C0008060E00080800000808020008080400080806000808080008080A0008080C0008080E00080A0000080A0200080A0400080A0600080A0800080A0A00080A0C00080A0E00080C0000080C0200080C0400080C0600080C0
1004
800080C0A00080C0C00080C0E00080E0000080E0200080E0400080E0600080E0800080E0A00080E0C00080E0E000C0000000C0002000C0004000C0006000C0008000C000A000C000C000C000E000C0200000C0202000C0204000C0206000C0208000C020A000C020C000C020E000C0400000C0402000C0404000C0406000C0
1004
408000C040A000C040C000C040E000C0600000C0602000C0604000C0606000C0608000C060A000C060C000C060E000C0800000C0802000C0804000C0806000C0808000C080A000C080C000C080E000C0A00000C0A02000C0A04000C0A06000C0A08000C0A0A000C0A0C000C0A0E000C0C00000C0C02000C0C04000C0C06000
1004
C0C08000C0C0A000F0FBFF00A4A0A000808080000000FF0000FF000000FFFF00FF000000FF00FF00FFFF0000FFFFFF0000000000000000000000000000000000000000000000000000000000000000000000000000000000000000000000000000000000000000000000000000000000000000000000000000000000000000
1004
00000000000000000000000000000000000000000000000000000000000000000000000000000000000000000000000000000000000000000000000000000000000000000000000000000000000000000000000000000000000000000000000000000000000000000000000000000000000000000000000000000000000000
1004
00000000000000000000000000000000000000000000000000000000000000000000000000000000000000000000000000000000000000000000000000000000000000000000000000000000000000000000000000000000000000000000000000000000000000000000000000000000000000000000000000000000000000
1004
FEFEFBE7FE0000000000000000000000000000000000000000000000000000FE00E7FEE7FE00000000000000000000000000000000000000000000FEFEFEFEFEE7E7E7E7E7E7FE0000000000000000000000000000FEFEFEFEFEFE00000000E700E7E7E7E7E700FEFE000000000000000000000000FE000000000000000000
1004
E700E7E7E7E7E70000E7FEFEFEFEFEFEFEFE00000000FE000000000000000000E700E7E7E7E7E70000E700000000E7E7E7FE000000FBFEFBFBFBFBFBFBFBFBFBE7FBE7E7E7E7E7FBFBE7FBFBFBFBFBE7E7FEFB000000FE000000000000000000E700E7E7E7E7E70000E7FEFEFEFEFEFEFEFA00000000FEFEFEFEFE00000000
1004
00E700E7E7E7E7E700FEFE0000000000000000000000000000000000FEFEFEFEFEFEE7E7E7E7E7FEFE000000000000000000000000000000000000000000000000FE00E7FEE7FE000000000000000000000000000000000000000000000000000000FEFEFBE7FE000000000000000000000000000000000000000000000000
1004
00000000000000000000000000000000000000000000000000000000000000000000000000000000000000000000000000000000000000000000000000000000000000000000000000000000000000000000000000000000000000000000000000000000000000000000000000000000000000000000000000000000000000
1004
00000000000000000000000000000000000000000000000000000000000000000000000000000000000000000000000000000000000000000000000000000000000000000000000000000000000000000000000000000000000000000000000000000000000000000000000000000000000000000000000000000000000000
1004
0000000000000000000000000000000000000000000000000000000000000000000000000000000000000000000000000000000000000000
  0
ENDTAB
  0
ENDSEC
  0
SECTION
  2
BLOCKS
  0
BLOCK
  5
1B
330
1A
100
AcDbEntity
  8
0
100
AcDbBlockBegin
  2
*MODEL_SPACE
 70
     0
 10
0.0
 20
0.0
 30
0.0
  3
*MODEL_SPACE
  1

  0
ENDBLK
  5
1C
330
1A
100
AcDbEntity
  8
0
100
AcDbBlockEnd
  0
BLOCK
  5
18
330
17
100
AcDbEntity
 67
     1
  8
0
100
AcDbBlockBegin
  2
*PAPER_SPACE
 70
     0
 10
0.0
 20
0.0
 30
0.0
  3
*PAPER_SPACE
  1

  0
ENDBLK
  5
19
330
17
100
AcDbEntity
 67
     1
  8
0
100
AcDbBlockEnd
  0
BLOCK
  5
598
330
594
100
AcDbEntity
  8
0
100
AcDbBlockBegin
  2
_OPEN
 70
     0
 10
0.0
 20
0.0
 30
0.0
  3
_OPEN
  1

  0
LINE
  5
595
330
594
100
AcDbEntity
  8
0
  6
BYBLOCK
 62
     0
100
AcDbLine
 10
-1.0
 20
0.16666667
 30
0.0
 11
0.0
 21
0.0
 31
0.0
  0
LINE
  5
596
330
594
100
AcDbEntity
  8
0
  6
BYBLOCK
 62
     0
100
AcDbLine
 10
-1.0
 20
-0.16666667
 30
0.0
 11
0.0
 21
0.0
 31
0.0
  0
LINE
  5
597
330
594
100
AcDbEntity
  8
0
  6
BYBLOCK
 62
     0
100
AcDbLine
 10
0.0
 20
0.0
 30
0.0
 11
-1.0
 21
0.0
 31
0.0
  0
ENDBLK
  5
599
330
594
100
AcDbEntity
  8
0
100
AcDbBlockEnd
  0
BLOCK
  5
6E4
330
6E3
100
AcDbEntity
  8
0
100
AcDbBlockBegin
  2
矢印なし
 70
     0
 10
0.0
 20
0.0
 30
0.0
  3
矢印なし
  1

  0
ENDBLK
  5
6E5
330
6E3
100
AcDbEntity
  8
0
100
AcDbBlockEnd
  0
BLOCK
  5
C98
330
C8E
100
AcDbEntity
  8
0
100
AcDbBlockBegin
  2
*D2
 70
     1
 10
0.0
 20
0.0
 30
0.0
  3
*D2
  1

  0
LINE
  5
CEC
330
C8E
100
AcDbEntity
  8
250
  6
CONTINUOUS
100
AcDbLine
 10
105.5
 20
-8.0
 30
0.0
 11
120.0
 21
-8.0
 31
0.0
  0
LINE
  5
CED
330
C8E
100
AcDbEntity
  8
250
  6
CONTINUOUS
100
AcDbLine
 10
105.5
 20
8.0
 30
0.0
 11
120.0
 21
8.0
 31
0.0
  0
LINE
  5
CEE
330
C8E
100
AcDbEntity
  8
250
  6
CONTINUOUS
100
AcDbLine
 10
119.0
 20
-5.77
 30
0.0
 11
119.0
 21
5.77
 31
0.0
  0
INSERT
  5
CEF
330
C8E
100
AcDbEntity
  8
250
  6
CONTINUOUS
100
AcDbBlockReference
  2
_OPEN
 10
119.0
 20
-8.0
 30
0.0
 41
2.23
 42
2.23
 43
2.23
 50
270.0
  0
INSERT
  5
CF0
330
C8E
100
AcDbEntity
  8
250
  6
CONTINUOUS
100
AcDbBlockReference
  2
_OPEN
 10
119.0
 20
8.0
 30
0.0
 41
2.23
 42
2.23
 43
2.23
 50
90.0
  0
MTEXT
  5
CF1
330
C8E
100
AcDbEntity
  8
250
  6
CONTINUOUS
 62
    40
100
AcDbMText
 10
116.6
 20
0.0
 30
0.0
 40
2.8
 41
0.0
 71
     5
 72
     1
  1
\A1;{\H2.8;\U+2205}16
 11
0.0
 21
1.0
 31
0.0
1001
ACAD
1000
MTEXTBEGIN
1070
    73
1070
     1
1070
    44
1040
1.0
1070
    74
1070
     0
1000
MTEXTEND
1000
MTEXTBEGIN
1070
    73
1070
     1
1070
    44
1040
1.0
1070
    74
1070
     0
1000
MTEXTEND
  0
POINT
  5
CF2
330
C8E
100
AcDbEntity
  8
DEFPOINTS
  6
CONTINUOUS
 62
     0
100
AcDbPoint
 10
105.0
 20
-8.0
 30
0.0
  0
POINT
  5
CF3
330
C8E
100
AcDbEntity
  8
DEFPOINTS
  6
CONTINUOUS
 62
     0
100
AcDbPoint
 10
105.0
 20
8.0
 30
0.0
  0
POINT
  5
CF4
330
C8E
100
AcDbEntity
  8
DEFPOINTS
  6
CONTINUOUS
 62
     0
100
AcDbPoint
 10
119.0
 20
8.0
 30
0.0
  0
ENDBLK
  5
C99
330
C8E
100
AcDbEntity
  8
0
100
AcDbBlockEnd
  0
BLOCK
  5
CA7
330
C9D
100
AcDbEntity
  8
0
100
AcDbBlockBegin
  2
*D3
 70
     1
 10
0.0
 20
0.0
 30
0.0
  3
*D3
  1

  0
LINE
  5
CE3
330
C9D
100
AcDbEntity
  8
250
  6
CONTINUOUS
100
AcDbLine
 10
97.0
 20
8.5
 30
0.0
 11
97.0
 21
29.0
 31
0.0
  0
LINE
  5
CE4
330
C9D
100
AcDbEntity
  8
250
  6
CONTINUOUS
100
AcDbLine
 10
105.0
 20
8.5
 30
0.0
 11
105.0
 21
29.0
 31
0.0
  0
LINE
  5
CE5
330
C9D
100
AcDbEntity
  8
250
  6
CONTINUOUS
100
AcDbLine
 10
99.23
 20
28.0
 30
0.0
 11
102.77
 21
28.0
 31
0.0
  0
INSERT
  5
CE6
330
C9D
100
AcDbEntity
  8
250
  6
CONTINUOUS
100
AcDbBlockReference
  2
_OPEN
 10
97.0
 20
28.0
 30
0.0
 41
2.23
 42
2.23
 43
2.23
 50
180.0
  0
INSERT
  5
CE7
330
C9D
100
AcDbEntity
  8
250
  6
CONTINUOUS
100
AcDbBlockReference
  2
_OPEN
 10
105.0
 20
28.0
 30
0.0
 41
2.23
 42
2.23
 43
2.23
  0
MTEXT
  5
CE8
330
C9D
100
AcDbEntity
  8
250
  6
CONTINUOUS
 62
    40
100
AcDbMText
 10
101.0
 20
30.4
 30
0.0
 40
2.8
 41
0.0
 71
     5
 72
     1
  1
\A1;8
1001
ACAD
1000
MTEXTBEGIN
1070
    73
1070
     1
1070
    44
1040
1.0
1070
    74
1070
     0
1000
MTEXTEND
1000
MTEXTBEGIN
1070
    73
1070
     1
1070
    44
1040
1.0
1070
    74
1070
     0
1000
MTEXTEND
  0
POINT
  5
CE9
330
C9D
100
AcDbEntity
  8
DEFPOINTS
  6
CONTINUOUS
 62
     0
100
AcDbPoint
 10
97.0
 20
8.0
 30
0.0
  0
POINT
  5
CEA
330
C9D
100
AcDbEntity
  8
DEFPOINTS
  6
CONTINUOUS
 62
     0
100
AcDbPoint
 10
105.0
 20
8.0
 30
0.0
  0
POINT
  5
CEB
330
C9D
100
AcDbEntity
  8
DEFPOINTS
  6
CONTINUOUS
 62
     0
100
AcDbPoint
 10
105.0
 20
28.0
 30
0.0
  0
ENDBLK
  5
CA8
330
C9D
100
AcDbEntity
  8
0
100
AcDbBlockEnd
  0
BLOCK
  5
CB6
330
CAC
100
AcDbEntity
  8
0
100
AcDbBlockBegin
  2
*D4
 70
     1
 10
0.0
 20
0.0
 30
0.0
  3
*D4
  1

  0
LINE
  5
11BC
330
CAC
100
AcDbEntity
  8
250
  6
CONTINUOUS
100
AcDbLine
 10
60.0
 20
7.95427829
 30
0.0
 11
60.0
 21
36.0
 31
0.0
  0
LINE
  5
11BD
330
CAC
100
AcDbEntity
  8
250
  6
CONTINUOUS
100
AcDbLine
 10
105.0
 20
8.5
 30
0.0
 11
105.0
 21
36.0
 31
0.0
  0
LINE
  5
11BE
330
CAC
100
AcDbEntity
  8
250
  6
CONTINUOUS
100
AcDbLine
 10
62.23
 20
35.0
 30
0.0
 11
102.77
 21
35.0
 31
0.0
  0
INSERT
  5
11BF
330
CAC
100
AcDbEntity
  8
250
  6
CONTINUOUS
100
AcDbBlockReference
  2
_OPEN
 10
60.0
 20
35.0
 30
0.0
 41
2.23
 42
2.23
 43
2.23
 50
180.0
  0
INSERT
  5
11C0
330
CAC
100
AcDbEntity
  8
250
  6
CONTINUOUS
100
AcDbBlockReference
  2
_OPEN
 10
105.0
 20
35.0
 30
0.0
 41
2.23
 42
2.23
 43
2.23
  0
MTEXT
  5
11C1
330
CAC
100
AcDbEntity
  8
250
  6
CONTINUOUS
 62
    40
100
AcDbMText
 10
82.5
 20
37.4
 30
0.0
 40
2.8
 41
0.0
 71
     5
 72
     1
  1
\A1;45
1001
ACAD
1000
MTEXTBEGIN
1070
    73
1070
     1
1070
    44
1040
1.0
1070
    74
1070
     0
1000
MTEXTEND
  0
POINT
  5
11C2
330
CAC
100
AcDbEntity
  8
DEFPOINTS
  6
CONTINUOUS
 62
     0
100
AcDbPoint
 10
60.0
 20
7.45427829
 30
0.0
  0
POINT
  5
11C3
330
CAC
100
AcDbEntity
  8
DEFPOINTS
  6
CONTINUOUS
 62
     0
100
AcDbPoint
 10
105.0
 20
8.0
 30
0.0
  0
POINT
  5
11C4
330
CAC
100
AcDbEntity
  8
DEFPOINTS
  6
CONTINUOUS
 62
     0
100
AcDbPoint
 10
105.0
 20
35.0
 30
0.0
  0
ENDBLK
  5
CB7
330
CAC
100
AcDbEntity
  8
0
100
AcDbBlockEnd
  0
BLOCK
  5
CC5
330
CBB
100
AcDbEntity
  8
0
100
AcDbBlockBegin
  2
*D5
 70
     1
 10
0.0
 20
0.0
 30
0.0
  3
*D5
  1

  0
LINE
  5
CD1
330
CBB
100
AcDbEntity
  8
250
  6
CONTINUOUS
100
AcDbLine
 10
0.0
 20
22.725
 30
0.0
 11
0.0
 21
43.0
 31
0.0
  0
LINE
  5
CD2
330
CBB
100
AcDbEntity
  8
250
  6
CONTINUOUS
100
AcDbLine
 10
105.0
 20
8.5
 30
0.0
 11
105.0
 21
43.0
 31
0.0
  0
LINE
  5
CD3
330
CBB
100
AcDbEntity
  8
250
  6
CONTINUOUS
100
AcDbLine
 10
2.23
 20
42.0
 30
0.0
 11
102.77
 21
42.0
 31
0.0
  0
INSERT
  5
CD4
330
CBB
100
AcDbEntity
  8
250
  6
CONTINUOUS
100
AcDbBlockReference
  2
_OPEN
 10
0.0
 20
42.0
 30
0.0
 41
2.23
 42
2.23
 43
2.23
 50
180.0
  0
INSERT
  5
CD5
330
CBB
100
AcDbEntity
  8
250
  6
CONTINUOUS
100
AcDbBlockReference
  2
_OPEN
 10
105.0
 20
42.0
 30
0.0
 41
2.23
 42
2.23
 43
2.23
  0
MTEXT
  5
CD6
330
CBB
100
AcDbEntity
  8
250
  6
CONTINUOUS
 62
    40
100
AcDbMText
 10
52.5
 20
44.4
 30
0.0
 40
2.8
 41
0.0
 71
     5
 72
     1
  1
\A1;105
1001
ACAD
1000
MTEXTBEGIN
1070
    73
1070
     1
1070
    44
1040
1.0
1070
    74
1070
     0
1000
MTEXTEND
1000
MTEXTBEGIN
1070
    73
1070
     1
1070
    44
1040
1.0
1070
    74
1070
     0
1000
MTEXTEND
  0
POINT
  5
CD7
330
CBB
100
AcDbEntity
  8
DEFPOINTS
  6
CONTINUOUS
 62
     0
100
AcDbPoint
 10
0.0
 20
22.225
 30
0.0
  0
POINT
  5
CD8
330
CBB
100
AcDbEntity
  8
DEFPOINTS
  6
CONTINUOUS
 62
     0
100
AcDbPoint
 10
105.0
 20
8.0
 30
0.0
  0
POINT
  5
CD9
330
CBB
100
AcDbEntity
  8
DEFPOINTS
  6
CONTINUOUS
 62
     0
100
AcDbPoint
 10
105.0
 20
42.0
 30
0.0
  0
ENDBLK
  5
CC6
330
CBB
100
AcDbEntity
  8
0
100
AcDbBlockEnd
  0
BLOCK
  5
CF6
330
CF5
100
AcDbEntity
  8
0
100
AcDbBlockBegin
  2
1
 70
     0
 10
0.0
 20
0.0
 30
0.0
  3
1
  1

  0
LINE
  5
11C5
330
CF5
100
AcDbEntity
  8
240
  6
CONTINUOUS
100
AcDbLine
 10
21.6
 20
31.5
 30
0.0
 11
26.0
 21
31.5
 31
0.0
  0
LINE
  5
11C6
330
CF5
100
AcDbEntity
  8
240
  6
CONTINUOUS
100
AcDbLine
 10
21.6
 20
-31.5
 30
0.0
 11
26.0
 21
-31.5
 31
0.0
  0
LINE
  5
11C7
330
CF5
100
AcDbEntity
  8
245
100
AcDbLine
 10
-66.4
 20
0.0
 30
0.0
 11
106.0
 21
0.0
 31
0.0
  0
LINE
  5
11C8
330
CF5
100
AcDbEntity
  8
241
  6
HIDDEN2
100
AcDbLine
 10
23.0
 20
22.5
 30
0.0
 11
23.0
 21
31.5
 31
0.0
  0
LINE
  5
11C9
330
CF5
100
AcDbEntity
  8
240
  6
CONTINUOUS
100
AcDbLine
 10
21.6
 20
31.5
 30
0.0
 11
18.71324865
 21
26.5
 31
0.0
  0
LINE
  5
11CA
330
CF5
100
AcDbEntity
  8
240
  6
CONTINUOUS
100
AcDbLine
 10
1.0
 20
22.225
 30
0.0
 11
1.0
 21
30.5
 31
0.0
  0
LINE
  5
11CB
330
CF5
100
AcDbEntity
  8
240
  6
CONTINUOUS
100
AcDbLine
 10
11.6
 20
31.5
 30
0.0
 11
14.48675135
 21
26.5
 31
0.0
  0
LINE
  5
11CC
330
CF5
100
AcDbEntity
  8
241
  6
CONTINUOUS
100
AcDbLine
 10
11.6
 20
31.5
 30
0.0
 11
11.6
 21
0.0
 31
0.0
  0
LINE
  5
11CD
330
CF5
100
AcDbEntity
  8
241
  6
CONTINUOUS
100
AcDbLine
 10
21.6
 20
0.0
 30
0.0
 11
21.6
 21
31.5
 31
0.0
  0
LINE
  5
11CE
330
CF5
100
AcDbEntity
  8
245
  6
CENTER2
100
AcDbLine
 10
16.6
 20
-31.5
 30
0.0
 11
16.6
 21
31.5
 31
0.0
  0
LINE
  5
11CF
330
CF5
100
AcDbEntity
  8
240
  6
CONTINUOUS
100
AcDbLine
 10
0.0
 20
-22.225
 30
0.0
 11
-64.03089103
 21
-12.88716173
 31
0.0
  0
LINE
  5
11D0
330
CF5
100
AcDbEntity
  8
240
  6
CONTINUOUS
100
AcDbLine
 10
0.0
 20
22.225
 30
0.0
 11
-64.03089103
 21
12.88716173
 31
0.0
  0
LINE
  5
11D1
330
CF5
100
AcDbEntity
  8
240
  6
CONTINUOUS
100
AcDbLine
 10
-65.4
 20
11.30390896
 30
0.0
 11
-65.4
 21
0.0
 31
0.0
  0
LINE
  5
11D2
330
CF5
100
AcDbEntity
  8
240
  6
CONTINUOUS
100
AcDbLine
 10
-65.4
 20
-11.30390896
 30
0.0
 11
-65.4
 21
0.0
 31
0.0
  0
ARC
  5
11D3
330
CF5
100
AcDbEntity
  8
240
  6
CONTINUOUS
100
AcDbCircle
 10
-63.8
 20
-11.30390896
 30
0.0
 40
1.6
100
AcDbArc
 50
180.0
 51
261.70285503
  0
ARC
  5
11D4
330
CF5
100
AcDbEntity
  8
240
  6
CONTINUOUS
100
AcDbCircle
 10
-63.8
 20
11.30390896
 30
0.0
 40
1.6
100
AcDbArc
 50
98.29714497
 51
180.0
  0
LINE
  5
11D5
330
CF5
100
AcDbEntity
  8
241
  6
CONTINUOUS
100
AcDbLine
 10
0.0
 20
-22.225
 30
0.0
 11
0.0
 21
0.0
 31
0.0
  0
LINE
  5
11D6
330
CF5
100
AcDbEntity
  8
241
100
AcDbLine
 10
1.0
 20
0.0
 30
0.0
 11
1.0
 21
-22.225
 31
0.0
  0
LINE
  5
11D7
330
CF5
100
AcDbEntity
  8
241
  6
CONTINUOUS
100
AcDbLine
 10
11.6
 20
-31.5
 30
0.0
 11
11.6
 21
0.0
 31
0.0
  0
LINE
  5
11D8
330
CF5
100
AcDbEntity
  8
241
  6
CONTINUOUS
100
AcDbLine
 10
21.6
 20
0.0
 30
0.0
 11
21.6
 21
-31.5
 31
0.0
  0
LINE
  5
11D9
330
CF5
100
AcDbEntity
  8
241
  6
CONTINUOUS
100
AcDbLine
 10
18.71324865
 20
-26.5
 30
0.0
 11
18.71324865
 21
0.0
 31
0.0
  0
LINE
  5
11DA
330
CF5
100
AcDbEntity
  8
241
  6
CONTINUOUS
100
AcDbLine
 10
14.48675135
 20
-26.5
 30
0.0
 11
14.48675135
 21
0.0
 31
0.0
  0
LINE
  5
11DB
330
CF5
100
AcDbEntity
  8
241
  6
HIDDEN2
100
AcDbLine
 10
23.0
 20
-22.5
 30
0.0
 11
1.0
 21
-22.5
 31
0.0
  0
LINE
  5
11DC
330
CF5
100
AcDbEntity
  8
240
  6
CONTINUOUS
100
AcDbLine
 10
2.0
 20
-31.5
 30
0.0
 11
11.6
 21
-31.5
 31
0.0
  0
LINE
  5
11DD
330
CF5
100
AcDbEntity
  8
240
  6
CONTINUOUS
100
AcDbLine
 10
1.0
 20
-22.225
 30
0.0
 11
1.0
 21
-30.5
 31
0.0
  0
ARC
  5
11DE
330
CF5
100
AcDbEntity
  8
240
  6
CONTINUOUS
100
AcDbCircle
 10
2.0
 20
-30.5
 30
0.0
 40
1.0
100
AcDbArc
 50
180.0
 51
270.0
  0
LINE
  5
11DF
330
CF5
100
AcDbEntity
  8
240
100
AcDbLine
 10
0.0
 20
-22.225
 30
0.0
 11
1.0
 21
-22.225
 31
0.0
  0
LINE
  5
11E0
330
CF5
100
AcDbEntity
  8
240
  6
CONTINUOUS
100
AcDbLine
 10
18.71324865
 20
-26.5
 30
0.0
 11
14.48675135
 21
-26.5
 31
0.0
  0
LINE
  5
11E1
330
CF5
100
AcDbEntity
  8
240
  6
CONTINUOUS
100
AcDbLine
 10
14.48675135
 20
-26.5
 30
0.0
 11
11.6
 21
-31.5
 31
0.0
  0
LINE
  5
11E2
330
CF5
100
AcDbEntity
  8
240
  6
CONTINUOUS
100
AcDbLine
 10
18.71324865
 20
-26.5
 30
0.0
 11
21.6
 21
-31.5
 31
0.0
  0
LINE
  5
11E3
330
CF5
100
AcDbEntity
  8
241
  6
HIDDEN2
100
AcDbLine
 10
23.0
 20
-22.5
 30
0.0
 11
23.0
 21
-31.5
 31
0.0
  0
LINE
  5
11E4
330
CF5
100
AcDbEntity
  8
241
  6
CONTINUOUS
100
AcDbLine
 10
14.48675135
 20
26.5
 30
0.0
 11
14.48675135
 21
0.0
 31
0.0
  0
LINE
  5
11E5
330
CF5
100
AcDbEntity
  8
241
  6
CONTINUOUS
100
AcDbLine
 10
18.71324865
 20
26.5
 30
0.0
 11
18.71324865
 21
0.0
 31
0.0
  0
LINE
  5
11E6
330
CF5
100
AcDbEntity
  8
241
  6
CONTINUOUS
100
AcDbLine
 10
0.0
 20
22.225
 30
0.0
 11
0.0
 21
0.0
 31
0.0
  0
LINE
  5
11E7
330
CF5
100
AcDbEntity
  8
241
100
AcDbLine
 10
1.0
 20
0.0
 30
0.0
 11
1.0
 21
22.225
 31
0.0
  0
LINE
  5
11E8
330
CF5
100
AcDbEntity
  8
241
  6
HIDDEN2
100
AcDbLine
 10
23.0
 20
22.5
 30
0.0
 11
1.0
 21
22.5
 31
0.0
  0
LINE
  5
11E9
330
CF5
100
AcDbEntity
  8
240
100
AcDbLine
 10
0.0
 20
22.225
 30
0.0
 11
1.0
 21
22.225
 31
0.0
  0
LINE
  5
11EA
330
CF5
100
AcDbEntity
  8
240
  6
CONTINUOUS
100
AcDbLine
 10
18.71324865
 20
26.5
 30
0.0
 11
14.48675135
 21
26.5
 31
0.0
  0
LINE
  5
11EB
330
CF5
100
AcDbEntity
  8
240
  6
CONTINUOUS
100
AcDbLine
 10
2.0
 20
31.5
 30
0.0
 11
11.6
 21
31.5
 31
0.0
  0
ARC
  5
11EC
330
CF5
100
AcDbEntity
  8
240
  6
CONTINUOUS
100
AcDbCircle
 10
2.0
 20
30.5
 30
0.0
 40
1.0
100
AcDbArc
 50
90.0
 51
180.0
  0
LINE
  5
11ED
330
CF5
100
AcDbEntity
  8
241
  6
CONTINUOUS
100
AcDbLine
 10
27.0
 20
0.0
 30
0.0
 11
27.0
 21
30.0
 31
0.0
  0
ARC
  5
11EE
330
CF5
100
AcDbEntity
  8
240
100
AcDbCircle
 10
32.0
 20
30.0
 30
0.0
 40
5.0
100
AcDbArc
 50
179.9999824
 51
232.28995594
  0
LINE
  5
11EF
330
CF5
100
AcDbEntity
  8
241
100
AcDbLine
 10
93.96385985
 20
0.29682651
 30
0.0
 11
104.25
 21
-3.44702232
 31
0.0
  0
LINE
  5
11F0
330
CF5
100
AcDbEntity
  8
241
100
AcDbLine
 10
95.19330642
 20
2.42629043
 30
0.0
 11
104.19615249
 21
0.83884577
 31
0.0
  0
LINE
  5
11F1
330
CF5
100
AcDbEntity
  8
240
100
AcDbLine
 10
104.25
 20
7.39776704
 30
0.0
 11
95.19330643
 21
7.6
 31
0.0
  0
LINE
  5
11F2
330
CF5
100
AcDbEntity
  8
241
100
AcDbLine
 10
88.363904
 20
-4.31821439
 30
0.0
 11
104.25
 21
-7.23344519
 31
0.0
  0
LINE
  5
11F3
330
CF5
100
AcDbEntity
  8
240
100
AcDbLine
 10
104.25
 20
-7.39776704
 30
0.0
 11
95.19330643
 21
-7.6
 31
0.0
  0
POLYLINE
  5
11F4
330
CF5
100
AcDbEntity
  8
241
100
AcDb3dPolyline
 66
     1
 10
0.0
 20
0.0
 30
0.0
 70
     8
  0
VERTEX
  5
11F5
330
11F4
100
AcDbEntity
  8
241
100
AcDbVertex
100
AcDb3dPolylineVertex
 10
98.5983
 20
5.90613
 30
0.0
 70
    32
  0
VERTEX
  5
11F6
330
11F4
100
AcDbEntity
  8
241
100
AcDbVertex
100
AcDb3dPolylineVertex
 10
98.5939
 20
5.87893
 30
0.0
 70
    32
  0
VERTEX
  5
11F7
330
11F4
100
AcDbEntity
  8
241
100
AcDbVertex
100
AcDb3dPolylineVertex
 10
98.5903
 20
5.85161
 30
0.0
 70
    32
  0
VERTEX
  5
11F8
330
11F4
100
AcDbEntity
  8
241
100
AcDbVertex
100
AcDb3dPolylineVertex
 10
98.5876
 20
5.82419
 30
0.0
 70
    32
  0
VERTEX
  5
11F9
330
11F4
100
AcDbEntity
  8
241
100
AcDbVertex
100
AcDb3dPolylineVertex
 10
98.5856
 20
5.79666
 30
0.0
 70
    32
  0
VERTEX
  5
11FA
330
11F4
100
AcDbEntity
  8
241
100
AcDbVertex
100
AcDb3dPolylineVertex
 10
98.5844
 20
5.76907
 30
0.0
 70
    32
  0
VERTEX
  5
11FB
330
11F4
100
AcDbEntity
  8
241
100
AcDbVertex
100
AcDb3dPolylineVertex
 10
98.5841
 20
5.74141
 30
0.0
 70
    32
  0
VERTEX
  5
11FC
330
11F4
100
AcDbEntity
  8
241
100
AcDbVertex
100
AcDb3dPolylineVertex
 10
98.5846
 20
5.71372
 30
0.0
 70
    32
  0
VERTEX
  5
11FD
330
11F4
100
AcDbEntity
  8
241
100
AcDbVertex
100
AcDb3dPolylineVertex
 10
98.5858
 20
5.68599
 30
0.0
 70
    32
  0
VERTEX
  5
11FE
330
11F4
100
AcDbEntity
  8
241
100
AcDbVertex
100
AcDb3dPolylineVertex
 10
98.5879
 20
5.65826
 30
0.0
 70
    32
  0
VERTEX
  5
11FF
330
11F4
100
AcDbEntity
  8
241
100
AcDbVertex
100
AcDb3dPolylineVertex
 10
98.5908
 20
5.63054
 30
0.0
 70
    32
  0
VERTEX
  5
1200
330
11F4
100
AcDbEntity
  8
241
100
AcDbVertex
100
AcDb3dPolylineVertex
 10
98.5945
 20
5.60284
 30
0.0
 70
    32
  0
VERTEX
  5
1201
330
11F4
100
AcDbEntity
  8
241
100
AcDbVertex
100
AcDb3dPolylineVertex
 10
98.599
 20
5.57519
 30
0.0
 70
    32
  0
VERTEX
  5
1202
330
11F4
100
AcDbEntity
  8
241
100
AcDbVertex
100
AcDb3dPolylineVertex
 10
98.6043
 20
5.54759
 30
0.0
 70
    32
  0
VERTEX
  5
1203
330
11F4
100
AcDbEntity
  8
241
100
AcDbVertex
100
AcDb3dPolylineVertex
 10
98.6104
 20
5.52007
 30
0.0
 70
    32
  0
VERTEX
  5
1204
330
11F4
100
AcDbEntity
  8
241
100
AcDbVertex
100
AcDb3dPolylineVertex
 10
98.6172
 20
5.49263
 30
0.0
 70
    32
  0
VERTEX
  5
1205
330
11F4
100
AcDbEntity
  8
241
100
AcDbVertex
100
AcDb3dPolylineVertex
 10
98.6249
 20
5.46531
 30
0.0
 70
    32
  0
VERTEX
  5
1206
330
11F4
100
AcDbEntity
  8
241
100
AcDbVertex
100
AcDb3dPolylineVertex
 10
98.6334
 20
5.43811
 30
0.0
 70
    32
  0
VERTEX
  5
1207
330
11F4
100
AcDbEntity
  8
241
100
AcDbVertex
100
AcDb3dPolylineVertex
 10
98.6426
 20
5.41105
 30
0.0
 70
    32
  0
VERTEX
  5
1208
330
11F4
100
AcDbEntity
  8
241
100
AcDbVertex
100
AcDb3dPolylineVertex
 10
98.6526
 20
5.38415
 30
0.0
 70
    32
  0
VERTEX
  5
1209
330
11F4
100
AcDbEntity
  8
241
100
AcDbVertex
100
AcDb3dPolylineVertex
 10
98.6634
 20
5.35742
 30
0.0
 70
    32
  0
VERTEX
  5
120A
330
11F4
100
AcDbEntity
  8
241
100
AcDbVertex
100
AcDb3dPolylineVertex
 10
98.675
 20
5.33088
 30
0.0
 70
    32
  0
VERTEX
  5
120B
330
11F4
100
AcDbEntity
  8
241
100
AcDbVertex
100
AcDb3dPolylineVertex
 10
98.6873
 20
5.30455
 30
0.0
 70
    32
  0
VERTEX
  5
120C
330
11F4
100
AcDbEntity
  8
241
100
AcDbVertex
100
AcDb3dPolylineVertex
 10
98.7003
 20
5.27843
 30
0.0
 70
    32
  0
VERTEX
  5
120D
330
11F4
100
AcDbEntity
  8
241
100
AcDbVertex
100
AcDb3dPolylineVertex
 10
98.7141
 20
5.25256
 30
0.0
 70
    32
  0
VERTEX
  5
120E
330
11F4
100
AcDbEntity
  8
241
100
AcDbVertex
100
AcDb3dPolylineVertex
 10
98.7286
 20
5.22693
 30
0.0
 70
    32
  0
VERTEX
  5
120F
330
11F4
100
AcDbEntity
  8
241
100
AcDbVertex
100
AcDb3dPolylineVertex
 10
98.7438
 20
5.20158
 30
0.0
 70
    32
  0
VERTEX
  5
1210
330
11F4
100
AcDbEntity
  8
241
100
AcDbVertex
100
AcDb3dPolylineVertex
 10
98.7598
 20
5.1765
 30
0.0
 70
    32
  0
VERTEX
  5
1211
330
11F4
100
AcDbEntity
  8
241
100
AcDbVertex
100
AcDb3dPolylineVertex
 10
98.7764
 20
5.15173
 30
0.0
 70
    32
  0
VERTEX
  5
1212
330
11F4
100
AcDbEntity
  8
241
100
AcDbVertex
100
AcDb3dPolylineVertex
 10
98.7938
 20
5.12727
 30
0.0
 70
    32
  0
VERTEX
  5
1213
330
11F4
100
AcDbEntity
  8
241
100
AcDbVertex
100
AcDb3dPolylineVertex
 10
98.8118
 20
5.10314
 30
0.0
 70
    32
  0
VERTEX
  5
1214
330
11F4
100
AcDbEntity
  8
241
100
AcDbVertex
100
AcDb3dPolylineVertex
 10
98.8305
 20
5.07934
 30
0.0
 70
    32
  0
VERTEX
  5
1215
330
11F4
100
AcDbEntity
  8
241
100
AcDbVertex
100
AcDb3dPolylineVertex
 10
98.8499
 20
5.05591
 30
0.0
 70
    32
  0
VERTEX
  5
1216
330
11F4
100
AcDbEntity
  8
241
100
AcDbVertex
100
AcDb3dPolylineVertex
 10
98.8699
 20
5.03285
 30
0.0
 70
    32
  0
VERTEX
  5
1217
330
11F4
100
AcDbEntity
  8
241
100
AcDbVertex
100
AcDb3dPolylineVertex
 10
98.8906
 20
5.01017
 30
0.0
 70
    32
  0
VERTEX
  5
1218
330
11F4
100
AcDbEntity
  8
241
100
AcDbVertex
100
AcDb3dPolylineVertex
 10
98.9118
 20
4.98789
 30
0.0
 70
    32
  0
VERTEX
  5
1219
330
11F4
100
AcDbEntity
  8
241
100
AcDbVertex
100
AcDb3dPolylineVertex
 10
98.9337
 20
4.96602
 30
0.0
 70
    32
  0
VERTEX
  5
121A
330
11F4
100
AcDbEntity
  8
241
100
AcDbVertex
100
AcDb3dPolylineVertex
 10
98.9562
 20
4.94458
 30
0.0
 70
    32
  0
VERTEX
  5
121B
330
11F4
100
AcDbEntity
  8
241
100
AcDbVertex
100
AcDb3dPolylineVertex
 10
98.9793
 20
4.92357
 30
0.0
 70
    32
  0
VERTEX
  5
121C
330
11F4
100
AcDbEntity
  8
241
100
AcDbVertex
100
AcDb3dPolylineVertex
 10
99.0029
 20
4.90302
 30
0.0
 70
    32
  0
VERTEX
  5
121D
330
11F4
100
AcDbEntity
  8
241
100
AcDbVertex
100
AcDb3dPolylineVertex
 10
99.0271
 20
4.88293
 30
0.0
 70
    32
  0
VERTEX
  5
121E
330
11F4
100
AcDbEntity
  8
241
100
AcDbVertex
100
AcDb3dPolylineVertex
 10
99.0519
 20
4.86331
 30
0.0
 70
    32
  0
VERTEX
  5
121F
330
11F4
100
AcDbEntity
  8
241
100
AcDbVertex
100
AcDb3dPolylineVertex
 10
99.0771
 20
4.84419
 30
0.0
 70
    32
  0
VERTEX
  5
1220
330
11F4
100
AcDbEntity
  8
241
100
AcDbVertex
100
AcDb3dPolylineVertex
 10
99.1029
 20
4.82555
 30
0.0
 70
    32
  0
VERTEX
  5
1221
330
11F4
100
AcDbEntity
  8
241
100
AcDbVertex
100
AcDb3dPolylineVertex
 10
99.1292
 20
4.80743
 30
0.0
 70
    32
  0
VERTEX
  5
1222
330
11F4
100
AcDbEntity
  8
241
100
AcDbVertex
100
AcDb3dPolylineVertex
 10
99.156
 20
4.78983
 30
0.0
 70
    32
  0
VERTEX
  5
1223
330
11F4
100
AcDbEntity
  8
241
100
AcDbVertex
100
AcDb3dPolylineVertex
 10
99.1832
 20
4.77276
 30
0.0
 70
    32
  0
VERTEX
  5
1224
330
11F4
100
AcDbEntity
  8
241
100
AcDbVertex
100
AcDb3dPolylineVertex
 10
99.2109
 20
4.75624
 30
0.0
 70
    32
  0
VERTEX
  5
1225
330
11F4
100
AcDbEntity
  8
241
100
AcDbVertex
100
AcDb3dPolylineVertex
 10
99.239
 20
4.74026
 30
0.0
 70
    32
  0
VERTEX
  5
1226
330
11F4
100
AcDbEntity
  8
241
100
AcDbVertex
100
AcDb3dPolylineVertex
 10
99.2675
 20
4.72485
 30
0.0
 70
    32
  0
VERTEX
  5
1227
330
11F4
100
AcDbEntity
  8
241
100
AcDbVertex
100
AcDb3dPolylineVertex
 10
99.2964
 20
4.71
 30
0.0
 70
    32
  0
VERTEX
  5
1228
330
11F4
100
AcDbEntity
  8
241
100
AcDbVertex
100
AcDb3dPolylineVertex
 10
99.3257
 20
4.69574
 30
0.0
 70
    32
  0
VERTEX
  5
1229
330
11F4
100
AcDbEntity
  8
241
100
AcDbVertex
100
AcDb3dPolylineVertex
 10
99.3554
 20
4.68206
 30
0.0
 70
    32
  0
VERTEX
  5
122A
330
11F4
100
AcDbEntity
  8
241
100
AcDbVertex
100
AcDb3dPolylineVertex
 10
99.3854
 20
4.66898
 30
0.0
 70
    32
  0
VERTEX
  5
122B
330
11F4
100
AcDbEntity
  8
241
100
AcDbVertex
100
AcDb3dPolylineVertex
 10
99.4157
 20
4.6565
 30
0.0
 70
    32
  0
VERTEX
  5
122C
330
11F4
100
AcDbEntity
  8
241
100
AcDbVertex
100
AcDb3dPolylineVertex
 10
99.4463
 20
4.64463
 30
0.0
 70
    32
  0
VERTEX
  5
122D
330
11F4
100
AcDbEntity
  8
241
100
AcDbVertex
100
AcDb3dPolylineVertex
 10
99.4773
 20
4.63339
 30
0.0
 70
    32
  0
VERTEX
  5
122E
330
11F4
100
AcDbEntity
  8
241
100
AcDbVertex
100
AcDb3dPolylineVertex
 10
99.5085
 20
4.62277
 30
0.0
 70
    32
  0
VERTEX
  5
122F
330
11F4
100
AcDbEntity
  8
241
100
AcDbVertex
100
AcDb3dPolylineVertex
 10
99.5399
 20
4.61278
 30
0.0
 70
    32
  0
VERTEX
  5
1230
330
11F4
100
AcDbEntity
  8
241
100
AcDbVertex
100
AcDb3dPolylineVertex
 10
99.5716
 20
4.60342
 30
0.0
 70
    32
  0
VERTEX
  5
1231
330
11F4
100
AcDbEntity
  8
241
100
AcDbVertex
100
AcDb3dPolylineVertex
 10
99.6035
 20
4.59472
 30
0.0
 70
    32
  0
VERTEX
  5
1232
330
11F4
100
AcDbEntity
  8
241
100
AcDbVertex
100
AcDb3dPolylineVertex
 10
99.6356
 20
4.58666
 30
0.0
 70
    32
  0
VERTEX
  5
1233
330
11F4
100
AcDbEntity
  8
241
100
AcDbVertex
100
AcDb3dPolylineVertex
 10
99.6679
 20
4.57925
 30
0.0
 70
    32
  0
VERTEX
  5
1234
330
11F4
100
AcDbEntity
  8
241
100
AcDbVertex
100
AcDb3dPolylineVertex
 10
99.7003
 20
4.5725
 30
0.0
 70
    32
  0
VERTEX
  5
1235
330
11F4
100
AcDbEntity
  8
241
100
AcDbVertex
100
AcDb3dPolylineVertex
 10
99.7329
 20
4.56642
 30
0.0
 70
    32
  0
VERTEX
  5
1236
330
11F4
100
AcDbEntity
  8
241
100
AcDbVertex
100
AcDb3dPolylineVertex
 10
99.7656
 20
4.561
 30
0.0
 70
    32
  0
VERTEX
  5
1237
330
11F4
100
AcDbEntity
  8
241
100
AcDbVertex
100
AcDb3dPolylineVertex
 10
99.7984
 20
4.55624
 30
0.0
 70
    32
  0
VERTEX
  5
1238
330
11F4
100
AcDbEntity
  8
241
100
AcDbVertex
100
AcDb3dPolylineVertex
 10
99.8312
 20
4.55216
 30
0.0
 70
    32
  0
VERTEX
  5
1239
330
11F4
100
AcDbEntity
  8
241
100
AcDbVertex
100
AcDb3dPolylineVertex
 10
99.8642
 20
4.54876
 30
0.0
 70
    32
  0
VERTEX
  5
123A
330
11F4
100
AcDbEntity
  8
241
100
AcDbVertex
100
AcDb3dPolylineVertex
 10
99.8971
 20
4.54603
 30
0.0
 70
    32
  0
VERTEX
  5
123B
330
11F4
100
AcDbEntity
  8
241
100
AcDbVertex
100
AcDb3dPolylineVertex
 10
99.9301
 20
4.54398
 30
0.0
 70
    32
  0
VERTEX
  5
123C
330
11F4
100
AcDbEntity
  8
241
100
AcDbVertex
100
AcDb3dPolylineVertex
 10
99.9631
 20
4.54261
 30
0.0
 70
    32
  0
VERTEX
  5
123D
330
11F4
100
AcDbEntity
  8
241
100
AcDbVertex
100
AcDb3dPolylineVertex
 10
99.996
 20
4.54192
 30
0.0
 70
    32
  0
VERTEX
  5
123E
330
11F4
100
AcDbEntity
  8
241
100
AcDbVertex
100
AcDb3dPolylineVertex
 10
100.029
 20
4.54191
 30
0.0
 70
    32
  0
VERTEX
  5
123F
330
11F4
100
AcDbEntity
  8
241
100
AcDbVertex
100
AcDb3dPolylineVertex
 10
100.062
 20
4.54258
 30
0.0
 70
    32
  0
VERTEX
  5
1240
330
11F4
100
AcDbEntity
  8
241
100
AcDbVertex
100
AcDb3dPolylineVertex
 10
100.095
 20
4.54393
 30
0.0
 70
    32
  0
VERTEX
  5
1241
330
11F4
100
AcDbEntity
  8
241
100
AcDbVertex
100
AcDb3dPolylineVertex
 10
100.127
 20
4.54596
 30
0.0
 70
    32
  0
VERTEX
  5
1242
330
11F4
100
AcDbEntity
  8
241
100
AcDbVertex
100
AcDb3dPolylineVertex
 10
100.16
 20
4.54867
 30
0.0
 70
    32
  0
VERTEX
  5
1243
330
11F4
100
AcDbEntity
  8
241
100
AcDbVertex
100
AcDb3dPolylineVertex
 10
100.192
 20
4.55205
 30
0.0
 70
    32
  0
VERTEX
  5
1244
330
11F4
100
AcDbEntity
  8
241
100
AcDbVertex
100
AcDb3dPolylineVertex
 10
100.224
 20
4.55611
 30
0.0
 70
    32
  0
VERTEX
  5
1245
330
11F4
100
AcDbEntity
  8
241
100
AcDbVertex
100
AcDb3dPolylineVertex
 10
100.257
 20
4.56084
 30
0.0
 70
    32
  0
VERTEX
  5
1246
330
11F4
100
AcDbEntity
  8
241
100
AcDbVertex
100
AcDb3dPolylineVertex
 10
100.288
 20
4.56624
 30
0.0
 70
    32
  0
VERTEX
  5
1247
330
11F4
100
AcDbEntity
  8
241
100
AcDbVertex
100
AcDb3dPolylineVertex
 10
100.32
 20
4.57231
 30
0.0
 70
    32
  0
VERTEX
  5
1248
330
11F4
100
AcDbEntity
  8
241
100
AcDbVertex
100
AcDb3dPolylineVertex
 10
100.351
 20
4.57903
 30
0.0
 70
    32
  0
VERTEX
  5
1249
330
11F4
100
AcDbEntity
  8
241
100
AcDbVertex
100
AcDb3dPolylineVertex
 10
100.383
 20
4.58642
 30
0.0
 70
    32
  0
VERTEX
  5
124A
330
11F4
100
AcDbEntity
  8
241
100
AcDbVertex
100
AcDb3dPolylineVertex
 10
100.414
 20
4.59446
 30
0.0
 70
    32
  0
VERTEX
  5
124B
330
11F4
100
AcDbEntity
  8
241
100
AcDbVertex
100
AcDb3dPolylineVertex
 10
100.444
 20
4.60315
 30
0.0
 70
    32
  0
VERTEX
  5
124C
330
11F4
100
AcDbEntity
  8
241
100
AcDbVertex
100
AcDb3dPolylineVertex
 10
100.474
 20
4.61248
 30
0.0
 70
    32
  0
VERTEX
  5
124D
330
11F4
100
AcDbEntity
  8
241
100
AcDbVertex
100
AcDb3dPolylineVertex
 10
100.504
 20
4.62245
 30
0.0
 70
    32
  0
VERTEX
  5
124E
330
11F4
100
AcDbEntity
  8
241
100
AcDbVertex
100
AcDb3dPolylineVertex
 10
100.534
 20
4.63305
 30
0.0
 70
    32
  0
VERTEX
  5
124F
330
11F4
100
AcDbEntity
  8
241
100
AcDbVertex
100
AcDb3dPolylineVertex
 10
100.563
 20
4.64428
 30
0.0
 70
    32
  0
VERTEX
  5
1250
330
11F4
100
AcDbEntity
  8
241
100
AcDbVertex
100
AcDb3dPolylineVertex
 10
100.592
 20
4.65613
 30
0.0
 70
    32
  0
VERTEX
  5
1251
330
11F4
100
AcDbEntity
  8
241
100
AcDbVertex
100
AcDb3dPolylineVertex
 10
100.621
 20
4.66859
 30
0.0
 70
    32
  0
VERTEX
  5
1252
330
11F4
100
AcDbEntity
  8
241
100
AcDbVertex
100
AcDb3dPolylineVertex
 10
100.649
 20
4.68165
 30
0.0
 70
    32
  0
VERTEX
  5
1253
330
11F4
100
AcDbEntity
  8
241
100
AcDbVertex
100
AcDb3dPolylineVertex
 10
100.676
 20
4.69531
 30
0.0
 70
    32
  0
VERTEX
  5
1254
330
11F4
100
AcDbEntity
  8
241
100
AcDbVertex
100
AcDb3dPolylineVertex
 10
100.703
 20
4.70956
 30
0.0
 70
    32
  0
VERTEX
  5
1255
330
11F4
100
AcDbEntity
  8
241
100
AcDbVertex
100
AcDb3dPolylineVertex
 10
100.73
 20
4.72438
 30
0.0
 70
    32
  0
VERTEX
  5
1256
330
11F4
100
AcDbEntity
  8
241
100
AcDbVertex
100
AcDb3dPolylineVertex
 10
100.756
 20
4.73978
 30
0.0
 70
    32
  0
VERTEX
  5
1257
330
11F4
100
AcDbEntity
  8
241
100
AcDbVertex
100
AcDb3dPolylineVertex
 10
100.782
 20
4.75574
 30
0.0
 70
    32
  0
VERTEX
  5
1258
330
11F4
100
AcDbEntity
  8
241
100
AcDbVertex
100
AcDb3dPolylineVertex
 10
100.807
 20
4.77225
 30
0.0
 70
    32
  0
VERTEX
  5
1259
330
11F4
100
AcDbEntity
  8
241
100
AcDbVertex
100
AcDb3dPolylineVertex
 10
100.832
 20
4.7893
 30
0.0
 70
    32
  0
VERTEX
  5
125A
330
11F4
100
AcDbEntity
  8
241
100
AcDbVertex
100
AcDb3dPolylineVertex
 10
100.856
 20
4.80689
 30
0.0
 70
    32
  0
VERTEX
  5
125B
330
11F4
100
AcDbEntity
  8
241
100
AcDbVertex
100
AcDb3dPolylineVertex
 10
100.88
 20
4.82499
 30
0.0
 70
    32
  0
VERTEX
  5
125C
330
11F4
100
AcDbEntity
  8
241
100
AcDbVertex
100
AcDb3dPolylineVertex
 10
100.903
 20
4.84361
 30
0.0
 70
    32
  0
VERTEX
  5
125D
330
11F4
100
AcDbEntity
  8
241
100
AcDbVertex
100
AcDb3dPolylineVertex
 10
100.925
 20
4.86272
 30
0.0
 70
    32
  0
VERTEX
  5
125E
330
11F4
100
AcDbEntity
  8
241
100
AcDbVertex
100
AcDb3dPolylineVertex
 10
100.947
 20
4.88232
 30
0.0
 70
    32
  0
VERTEX
  5
125F
330
11F4
100
AcDbEntity
  8
241
100
AcDbVertex
100
AcDb3dPolylineVertex
 10
100.968
 20
4.9024
 30
0.0
 70
    32
  0
VERTEX
  5
1260
330
11F4
100
AcDbEntity
  8
241
100
AcDbVertex
100
AcDb3dPolylineVertex
 10
100.989
 20
4.92294
 30
0.0
 70
    32
  0
VERTEX
  5
1261
330
11F4
100
AcDbEntity
  8
241
100
AcDbVertex
100
AcDb3dPolylineVertex
 10
101.008
 20
4.94393
 30
0.0
 70
    32
  0
VERTEX
  5
1262
330
11F4
100
AcDbEntity
  8
241
100
AcDbVertex
100
AcDb3dPolylineVertex
 10
101.028
 20
4.96536
 30
0.0
 70
    32
  0
VERTEX
  5
1263
330
11F4
100
AcDbEntity
  8
241
100
AcDbVertex
100
AcDb3dPolylineVertex
 10
101.046
 20
4.98722
 30
0.0
 70
    32
  0
VERTEX
  5
1264
330
11F4
100
AcDbEntity
  8
241
100
AcDbVertex
100
AcDb3dPolylineVertex
 10
101.064
 20
5.00948
 30
0.0
 70
    32
  0
VERTEX
  5
1265
330
11F4
100
AcDbEntity
  8
241
100
AcDbVertex
100
AcDb3dPolylineVertex
 10
101.082
 20
5.03215
 30
0.0
 70
    32
  0
VERTEX
  5
1266
330
11F4
100
AcDbEntity
  8
241
100
AcDbVertex
100
AcDb3dPolylineVertex
 10
101.098
 20
5.0552
 30
0.0
 70
    32
  0
VERTEX
  5
1267
330
11F4
100
AcDbEntity
  8
241
100
AcDbVertex
100
AcDb3dPolylineVertex
 10
101.114
 20
5.07862
 30
0.0
 70
    32
  0
VERTEX
  5
1268
330
11F4
100
AcDbEntity
  8
241
100
AcDbVertex
100
AcDb3dPolylineVertex
 10
101.129
 20
5.1024
 30
0.0
 70
    32
  0
VERTEX
  5
1269
330
11F4
100
AcDbEntity
  8
241
100
AcDbVertex
100
AcDb3dPolylineVertex
 10
101.143
 20
5.12653
 30
0.0
 70
    32
  0
VERTEX
  5
126A
330
11F4
100
AcDbEntity
  8
241
100
AcDbVertex
100
AcDb3dPolylineVertex
 10
101.157
 20
5.15098
 30
0.0
 70
    32
  0
VERTEX
  5
126B
330
11F4
100
AcDbEntity
  8
241
100
AcDbVertex
100
AcDb3dPolylineVertex
 10
101.17
 20
5.17574
 30
0.0
 70
    32
  0
VERTEX
  5
126C
330
11F4
100
AcDbEntity
  8
241
100
AcDbVertex
100
AcDb3dPolylineVertex
 10
101.182
 20
5.20081
 30
0.0
 70
    32
  0
VERTEX
  5
126D
330
11F4
100
AcDbEntity
  8
241
100
AcDbVertex
100
AcDb3dPolylineVertex
 10
101.194
 20
5.22615
 30
0.0
 70
    32
  0
VERTEX
  5
126E
330
11F4
100
AcDbEntity
  8
241
100
AcDbVertex
100
AcDb3dPolylineVertex
 10
101.204
 20
5.25177
 30
0.0
 70
    32
  0
VERTEX
  5
126F
330
11F4
100
AcDbEntity
  8
241
100
AcDbVertex
100
AcDb3dPolylineVertex
 10
101.214
 20
5.27764
 30
0.0
 70
    32
  0
VERTEX
  5
1270
330
11F4
100
AcDbEntity
  8
241
100
AcDbVertex
100
AcDb3dPolylineVertex
 10
101.223
 20
5.30374
 30
0.0
 70
    32
  0
VERTEX
  5
1271
330
11F4
100
AcDbEntity
  8
241
100
AcDbVertex
100
AcDb3dPolylineVertex
 10
101.232
 20
5.33007
 30
0.0
 70
    32
  0
VERTEX
  5
1272
330
11F4
100
AcDbEntity
  8
241
100
AcDbVertex
100
AcDb3dPolylineVertex
 10
101.239
 20
5.35661
 30
0.0
 70
    32
  0
VERTEX
  5
1273
330
11F4
100
AcDbEntity
  8
241
100
AcDbVertex
100
AcDb3dPolylineVertex
 10
101.246
 20
5.38333
 30
0.0
 70
    32
  0
VERTEX
  5
1274
330
11F4
100
AcDbEntity
  8
241
100
AcDbVertex
100
AcDb3dPolylineVertex
 10
101.252
 20
5.41023
 30
0.0
 70
    32
  0
VERTEX
  5
1275
330
11F4
100
AcDbEntity
  8
241
100
AcDbVertex
100
AcDb3dPolylineVertex
 10
101.257
 20
5.43728
 30
0.0
 70
    32
  0
SEQEND
  5
1276
330
11F4
100
AcDbEntity
  8
241
  0
LINE
  5
1277
330
CF5
100
AcDbEntity
  8
246
100
AcDbLine
 10
97.0
 20
-8.0
 30
0.0
 11
105.0
 21
-8.0
 31
0.0
  0
LINE
  5
1278
330
CF5
100
AcDbEntity
  8
246
100
AcDbLine
 10
97.0
 20
8.0
 30
0.0
 11
105.0
 21
8.0
 31
0.0
  0
POLYLINE
  5
1279
330
CF5
100
AcDbEntity
  8
241
100
AcDb3dPolyline
 66
     1
 10
0.0
 20
0.0
 30
0.0
 70
     8
  0
VERTEX
  5
127A
330
1279
100
AcDbEntity
  8
241
100
AcDbVertex
100
AcDb3dPolylineVertex
 10
101.257
 20
5.43728
 30
0.0
 70
    32
  0
VERTEX
  5
127B
330
1279
100
AcDbEntity
  8
241
100
AcDbVertex
100
AcDb3dPolylineVertex
 10
101.261
 20
5.45791
 30
0.0
 70
    32
  0
VERTEX
  5
127C
330
1279
100
AcDbEntity
  8
241
100
AcDbVertex
100
AcDb3dPolylineVertex
 10
101.263
 20
5.47866
 30
0.0
 70
    32
  0
VERTEX
  5
127D
330
1279
100
AcDbEntity
  8
241
100
AcDbVertex
100
AcDb3dPolylineVertex
 10
101.265
 20
5.49953
 30
0.0
 70
    32
  0
VERTEX
  5
127E
330
1279
100
AcDbEntity
  8
241
100
AcDbVertex
100
AcDb3dPolylineVertex
 10
101.265
 20
5.5205
 30
0.0
 70
    32
  0
VERTEX
  5
127F
330
1279
100
AcDbEntity
  8
241
100
AcDbVertex
100
AcDb3dPolylineVertex
 10
101.265
 20
5.54157
 30
0.0
 70
    32
  0
VERTEX
  5
1280
330
1279
100
AcDbEntity
  8
241
100
AcDbVertex
100
AcDb3dPolylineVertex
 10
101.265
 20
5.56271
 30
0.0
 70
    32
  0
VERTEX
  5
1281
330
1279
100
AcDbEntity
  8
241
100
AcDbVertex
100
AcDb3dPolylineVertex
 10
101.263
 20
5.58392
 30
0.0
 70
    32
  0
VERTEX
  5
1282
330
1279
100
AcDbEntity
  8
241
100
AcDbVertex
100
AcDb3dPolylineVertex
 10
101.261
 20
5.60519
 30
0.0
 70
    32
  0
VERTEX
  5
1283
330
1279
100
AcDbEntity
  8
241
100
AcDbVertex
100
AcDb3dPolylineVertex
 10
101.257
 20
5.62649
 30
0.0
 70
    32
  0
VERTEX
  5
1284
330
1279
100
AcDbEntity
  8
241
100
AcDbVertex
100
AcDb3dPolylineVertex
 10
101.253
 20
5.64782
 30
0.0
 70
    32
  0
VERTEX
  5
1285
330
1279
100
AcDbEntity
  8
241
100
AcDbVertex
100
AcDb3dPolylineVertex
 10
101.249
 20
5.66916
 30
0.0
 70
    32
  0
VERTEX
  5
1286
330
1279
100
AcDbEntity
  8
241
100
AcDbVertex
100
AcDb3dPolylineVertex
 10
101.243
 20
5.69051
 30
0.0
 70
    32
  0
VERTEX
  5
1287
330
1279
100
AcDbEntity
  8
241
100
AcDbVertex
100
AcDb3dPolylineVertex
 10
101.237
 20
5.71184
 30
0.0
 70
    32
  0
VERTEX
  5
1288
330
1279
100
AcDbEntity
  8
241
100
AcDbVertex
100
AcDb3dPolylineVertex
 10
101.229
 20
5.73315
 30
0.0
 70
    32
  0
VERTEX
  5
1289
330
1279
100
AcDbEntity
  8
241
100
AcDbVertex
100
AcDb3dPolylineVertex
 10
101.221
 20
5.75442
 30
0.0
 70
    32
  0
VERTEX
  5
128A
330
1279
100
AcDbEntity
  8
241
100
AcDbVertex
100
AcDb3dPolylineVertex
 10
101.213
 20
5.77565
 30
0.0
 70
    32
  0
VERTEX
  5
128B
330
1279
100
AcDbEntity
  8
241
100
AcDbVertex
100
AcDb3dPolylineVertex
 10
101.203
 20
5.79681
 30
0.0
 70
    32
  0
VERTEX
  5
128C
330
1279
100
AcDbEntity
  8
241
100
AcDbVertex
100
AcDb3dPolylineVertex
 10
101.193
 20
5.81789
 30
0.0
 70
    32
  0
VERTEX
  5
128D
330
1279
100
AcDbEntity
  8
241
100
AcDbVertex
100
AcDb3dPolylineVertex
 10
101.182
 20
5.83889
 30
0.0
 70
    32
  0
VERTEX
  5
128E
330
1279
100
AcDbEntity
  8
241
100
AcDbVertex
100
AcDb3dPolylineVertex
 10
101.17
 20
5.85979
 30
0.0
 70
    32
  0
VERTEX
  5
128F
330
1279
100
AcDbEntity
  8
241
100
AcDbVertex
100
AcDb3dPolylineVertex
 10
101.157
 20
5.88057
 30
0.0
 70
    32
  0
VERTEX
  5
1290
330
1279
100
AcDbEntity
  8
241
100
AcDbVertex
100
AcDb3dPolylineVertex
 10
101.144
 20
5.90123
 30
0.0
 70
    32
  0
VERTEX
  5
1291
330
1279
100
AcDbEntity
  8
241
100
AcDbVertex
100
AcDb3dPolylineVertex
 10
101.13
 20
5.92174
 30
0.0
 70
    32
  0
VERTEX
  5
1292
330
1279
100
AcDbEntity
  8
241
100
AcDbVertex
100
AcDb3dPolylineVertex
 10
101.115
 20
5.94211
 30
0.0
 70
    32
  0
VERTEX
  5
1293
330
1279
100
AcDbEntity
  8
241
100
AcDbVertex
100
AcDb3dPolylineVertex
 10
101.1
 20
5.96232
 30
0.0
 70
    32
  0
VERTEX
  5
1294
330
1279
100
AcDbEntity
  8
241
100
AcDbVertex
100
AcDb3dPolylineVertex
 10
101.084
 20
5.98235
 30
0.0
 70
    32
  0
VERTEX
  5
1295
330
1279
100
AcDbEntity
  8
241
100
AcDbVertex
100
AcDb3dPolylineVertex
 10
101.067
 20
6.00219
 30
0.0
 70
    32
  0
VERTEX
  5
1296
330
1279
100
AcDbEntity
  8
241
100
AcDbVertex
100
AcDb3dPolylineVertex
 10
101.049
 20
6.02184
 30
0.0
 70
    32
  0
VERTEX
  5
1297
330
1279
100
AcDbEntity
  8
241
100
AcDbVertex
100
AcDb3dPolylineVertex
 10
101.031
 20
6.04127
 30
0.0
 70
    32
  0
VERTEX
  5
1298
330
1279
100
AcDbEntity
  8
241
100
AcDbVertex
100
AcDb3dPolylineVertex
 10
101.012
 20
6.06048
 30
0.0
 70
    32
  0
VERTEX
  5
1299
330
1279
100
AcDbEntity
  8
241
100
AcDbVertex
100
AcDb3dPolylineVertex
 10
100.993
 20
6.07946
 30
0.0
 70
    32
  0
VERTEX
  5
129A
330
1279
100
AcDbEntity
  8
241
100
AcDbVertex
100
AcDb3dPolylineVertex
 10
100.972
 20
6.09819
 30
0.0
 70
    32
  0
VERTEX
  5
129B
330
1279
100
AcDbEntity
  8
241
100
AcDbVertex
100
AcDb3dPolylineVertex
 10
100.951
 20
6.11666
 30
0.0
 70
    32
  0
VERTEX
  5
129C
330
1279
100
AcDbEntity
  8
241
100
AcDbVertex
100
AcDb3dPolylineVertex
 10
100.93
 20
6.13487
 30
0.0
 70
    32
  0
VERTEX
  5
129D
330
1279
100
AcDbEntity
  8
241
100
AcDbVertex
100
AcDb3dPolylineVertex
 10
100.908
 20
6.1528
 30
0.0
 70
    32
  0
VERTEX
  5
129E
330
1279
100
AcDbEntity
  8
241
100
AcDbVertex
100
AcDb3dPolylineVertex
 10
100.885
 20
6.17043
 30
0.0
 70
    32
  0
VERTEX
  5
129F
330
1279
100
AcDbEntity
  8
241
100
AcDbVertex
100
AcDb3dPolylineVertex
 10
100.862
 20
6.18777
 30
0.0
 70
    32
  0
VERTEX
  5
12A0
330
1279
100
AcDbEntity
  8
241
100
AcDbVertex
100
AcDb3dPolylineVertex
 10
100.838
 20
6.2048
 30
0.0
 70
    32
  0
VERTEX
  5
12A1
330
1279
100
AcDbEntity
  8
241
100
AcDbVertex
100
AcDb3dPolylineVertex
 10
100.814
 20
6.2215
 30
0.0
 70
    32
  0
VERTEX
  5
12A2
330
1279
100
AcDbEntity
  8
241
100
AcDbVertex
100
AcDb3dPolylineVertex
 10
100.789
 20
6.23787
 30
0.0
 70
    32
  0
VERTEX
  5
12A3
330
1279
100
AcDbEntity
  8
241
100
AcDbVertex
100
AcDb3dPolylineVertex
 10
100.764
 20
6.25391
 30
0.0
 70
    32
  0
VERTEX
  5
12A4
330
1279
100
AcDbEntity
  8
241
100
AcDbVertex
100
AcDb3dPolylineVertex
 10
100.738
 20
6.26959
 30
0.0
 70
    32
  0
VERTEX
  5
12A5
330
1279
100
AcDbEntity
  8
241
100
AcDbVertex
100
AcDb3dPolylineVertex
 10
100.712
 20
6.28491
 30
0.0
 70
    32
  0
VERTEX
  5
12A6
330
1279
100
AcDbEntity
  8
241
100
AcDbVertex
100
AcDb3dPolylineVertex
 10
100.685
 20
6.29986
 30
0.0
 70
    32
  0
VERTEX
  5
12A7
330
1279
100
AcDbEntity
  8
241
100
AcDbVertex
100
AcDb3dPolylineVertex
 10
100.657
 20
6.31444
 30
0.0
 70
    32
  0
VERTEX
  5
12A8
330
1279
100
AcDbEntity
  8
241
100
AcDbVertex
100
AcDb3dPolylineVertex
 10
100.63
 20
6.32862
 30
0.0
 70
    32
  0
VERTEX
  5
12A9
330
1279
100
AcDbEntity
  8
241
100
AcDbVertex
100
AcDb3dPolylineVertex
 10
100.602
 20
6.34241
 30
0.0
 70
    32
  0
VERTEX
  5
12AA
330
1279
100
AcDbEntity
  8
241
100
AcDbVertex
100
AcDb3dPolylineVertex
 10
100.573
 20
6.3558
 30
0.0
 70
    32
  0
VERTEX
  5
12AB
330
1279
100
AcDbEntity
  8
241
100
AcDbVertex
100
AcDb3dPolylineVertex
 10
100.544
 20
6.36878
 30
0.0
 70
    32
  0
VERTEX
  5
12AC
330
1279
100
AcDbEntity
  8
241
100
AcDbVertex
100
AcDb3dPolylineVertex
 10
100.515
 20
6.38133
 30
0.0
 70
    32
  0
VERTEX
  5
12AD
330
1279
100
AcDbEntity
  8
241
100
AcDbVertex
100
AcDb3dPolylineVertex
 10
100.485
 20
6.39346
 30
0.0
 70
    32
  0
VERTEX
  5
12AE
330
1279
100
AcDbEntity
  8
241
100
AcDbVertex
100
AcDb3dPolylineVertex
 10
100.455
 20
6.40515
 30
0.0
 70
    32
  0
VERTEX
  5
12AF
330
1279
100
AcDbEntity
  8
241
100
AcDbVertex
100
AcDb3dPolylineVertex
 10
100.425
 20
6.4164
 30
0.0
 70
    32
  0
VERTEX
  5
12B0
330
1279
100
AcDbEntity
  8
241
100
AcDbVertex
100
AcDb3dPolylineVertex
 10
100.394
 20
6.42721
 30
0.0
 70
    32
  0
VERTEX
  5
12B1
330
1279
100
AcDbEntity
  8
241
100
AcDbVertex
100
AcDb3dPolylineVertex
 10
100.363
 20
6.43755
 30
0.0
 70
    32
  0
VERTEX
  5
12B2
330
1279
100
AcDbEntity
  8
241
100
AcDbVertex
100
AcDb3dPolylineVertex
 10
100.332
 20
6.44744
 30
0.0
 70
    32
  0
VERTEX
  5
12B3
330
1279
100
AcDbEntity
  8
241
100
AcDbVertex
100
AcDb3dPolylineVertex
 10
100.301
 20
6.45686
 30
0.0
 70
    32
  0
VERTEX
  5
12B4
330
1279
100
AcDbEntity
  8
241
100
AcDbVertex
100
AcDb3dPolylineVertex
 10
100.269
 20
6.46581
 30
0.0
 70
    32
  0
VERTEX
  5
12B5
330
1279
100
AcDbEntity
  8
241
100
AcDbVertex
100
AcDb3dPolylineVertex
 10
100.237
 20
6.47427
 30
0.0
 70
    32
  0
VERTEX
  5
12B6
330
1279
100
AcDbEntity
  8
241
100
AcDbVertex
100
AcDb3dPolylineVertex
 10
100.205
 20
6.48226
 30
0.0
 70
    32
  0
VERTEX
  5
12B7
330
1279
100
AcDbEntity
  8
241
100
AcDbVertex
100
AcDb3dPolylineVertex
 10
100.173
 20
6.48975
 30
0.0
 70
    32
  0
VERTEX
  5
12B8
330
1279
100
AcDbEntity
  8
241
100
AcDbVertex
100
AcDb3dPolylineVertex
 10
100.141
 20
6.49676
 30
0.0
 70
    32
  0
VERTEX
  5
12B9
330
1279
100
AcDbEntity
  8
241
100
AcDbVertex
100
AcDb3dPolylineVertex
 10
100.108
 20
6.50326
 30
0.0
 70
    32
  0
VERTEX
  5
12BA
330
1279
100
AcDbEntity
  8
241
100
AcDbVertex
100
AcDb3dPolylineVertex
 10
100.075
 20
6.50927
 30
0.0
 70
    32
  0
VERTEX
  5
12BB
330
1279
100
AcDbEntity
  8
241
100
AcDbVertex
100
AcDb3dPolylineVertex
 10
100.043
 20
6.51477
 30
0.0
 70
    32
  0
VERTEX
  5
12BC
330
1279
100
AcDbEntity
  8
241
100
AcDbVertex
100
AcDb3dPolylineVertex
 10
100.01
 20
6.51976
 30
0.0
 70
    32
  0
VERTEX
  5
12BD
330
1279
100
AcDbEntity
  8
241
100
AcDbVertex
100
AcDb3dPolylineVertex
 10
99.9773
 20
6.52424
 30
0.0
 70
    32
  0
VERTEX
  5
12BE
330
1279
100
AcDbEntity
  8
241
100
AcDbVertex
100
AcDb3dPolylineVertex
 10
99.9445
 20
6.52821
 30
0.0
 70
    32
  0
VERTEX
  5
12BF
330
1279
100
AcDbEntity
  8
241
100
AcDbVertex
100
AcDb3dPolylineVertex
 10
99.9116
 20
6.53167
 30
0.0
 70
    32
  0
VERTEX
  5
12C0
330
1279
100
AcDbEntity
  8
241
100
AcDbVertex
100
AcDb3dPolylineVertex
 10
99.8788
 20
6.5346
 30
0.0
 70
    32
  0
VERTEX
  5
12C1
330
1279
100
AcDbEntity
  8
241
100
AcDbVertex
100
AcDb3dPolylineVertex
 10
99.846
 20
6.53701
 30
0.0
 70
    32
  0
VERTEX
  5
12C2
330
1279
100
AcDbEntity
  8
241
100
AcDbVertex
100
AcDb3dPolylineVertex
 10
99.8133
 20
6.53891
 30
0.0
 70
    32
  0
VERTEX
  5
12C3
330
1279
100
AcDbEntity
  8
241
100
AcDbVertex
100
AcDb3dPolylineVertex
 10
99.7806
 20
6.54028
 30
0.0
 70
    32
  0
VERTEX
  5
12C4
330
1279
100
AcDbEntity
  8
241
100
AcDbVertex
100
AcDb3dPolylineVertex
 10
99.748
 20
6.54113
 30
0.0
 70
    32
  0
VERTEX
  5
12C5
330
1279
100
AcDbEntity
  8
241
100
AcDbVertex
100
AcDb3dPolylineVertex
 10
99.7155
 20
6.54145
 30
0.0
 70
    32
  0
VERTEX
  5
12C6
330
1279
100
AcDbEntity
  8
241
100
AcDbVertex
100
AcDb3dPolylineVertex
 10
99.6832
 20
6.54125
 30
0.0
 70
    32
  0
VERTEX
  5
12C7
330
1279
100
AcDbEntity
  8
241
100
AcDbVertex
100
AcDb3dPolylineVertex
 10
99.651
 20
6.54053
 30
0.0
 70
    32
  0
VERTEX
  5
12C8
330
1279
100
AcDbEntity
  8
241
100
AcDbVertex
100
AcDb3dPolylineVertex
 10
99.619
 20
6.53928
 30
0.0
 70
    32
  0
VERTEX
  5
12C9
330
1279
100
AcDbEntity
  8
241
100
AcDbVertex
100
AcDb3dPolylineVertex
 10
99.5871
 20
6.53751
 30
0.0
 70
    32
  0
VERTEX
  5
12CA
330
1279
100
AcDbEntity
  8
241
100
AcDbVertex
100
AcDb3dPolylineVertex
 10
99.5555
 20
6.53522
 30
0.0
 70
    32
  0
VERTEX
  5
12CB
330
1279
100
AcDbEntity
  8
241
100
AcDbVertex
100
AcDb3dPolylineVertex
 10
99.524
 20
6.53241
 30
0.0
 70
    32
  0
VERTEX
  5
12CC
330
1279
100
AcDbEntity
  8
241
100
AcDbVertex
100
AcDb3dPolylineVertex
 10
99.4929
 20
6.52908
 30
0.0
 70
    32
  0
VERTEX
  5
12CD
330
1279
100
AcDbEntity
  8
241
100
AcDbVertex
100
AcDb3dPolylineVertex
 10
99.462
 20
6.52524
 30
0.0
 70
    32
  0
VERTEX
  5
12CE
330
1279
100
AcDbEntity
  8
241
100
AcDbVertex
100
AcDb3dPolylineVertex
 10
99.4313
 20
6.52088
 30
0.0
 70
    32
  0
VERTEX
  5
12CF
330
1279
100
AcDbEntity
  8
241
100
AcDbVertex
100
AcDb3dPolylineVertex
 10
99.401
 20
6.51601
 30
0.0
 70
    32
  0
VERTEX
  5
12D0
330
1279
100
AcDbEntity
  8
241
100
AcDbVertex
100
AcDb3dPolylineVertex
 10
99.371
 20
6.51063
 30
0.0
 70
    32
  0
VERTEX
  5
12D1
330
1279
100
AcDbEntity
  8
241
100
AcDbVertex
100
AcDb3dPolylineVertex
 10
99.3413
 20
6.50474
 30
0.0
 70
    32
  0
VERTEX
  5
12D2
330
1279
100
AcDbEntity
  8
241
100
AcDbVertex
100
AcDb3dPolylineVertex
 10
99.312
 20
6.49835
 30
0.0
 70
    32
  0
VERTEX
  5
12D3
330
1279
100
AcDbEntity
  8
241
100
AcDbVertex
100
AcDb3dPolylineVertex
 10
99.283
 20
6.49147
 30
0.0
 70
    32
  0
VERTEX
  5
12D4
330
1279
100
AcDbEntity
  8
241
100
AcDbVertex
100
AcDb3dPolylineVertex
 10
99.2544
 20
6.48409
 30
0.0
 70
    32
  0
VERTEX
  5
12D5
330
1279
100
AcDbEntity
  8
241
100
AcDbVertex
100
AcDb3dPolylineVertex
 10
99.2263
 20
6.47622
 30
0.0
 70
    32
  0
VERTEX
  5
12D6
330
1279
100
AcDbEntity
  8
241
100
AcDbVertex
100
AcDb3dPolylineVertex
 10
99.1985
 20
6.46787
 30
0.0
 70
    32
  0
VERTEX
  5
12D7
330
1279
100
AcDbEntity
  8
241
100
AcDbVertex
100
AcDb3dPolylineVertex
 10
99.1712
 20
6.45904
 30
0.0
 70
    32
  0
VERTEX
  5
12D8
330
1279
100
AcDbEntity
  8
241
100
AcDbVertex
100
AcDb3dPolylineVertex
 10
99.1444
 20
6.44973
 30
0.0
 70
    32
  0
VERTEX
  5
12D9
330
1279
100
AcDbEntity
  8
241
100
AcDbVertex
100
AcDb3dPolylineVertex
 10
99.118
 20
6.43995
 30
0.0
 70
    32
  0
VERTEX
  5
12DA
330
1279
100
AcDbEntity
  8
241
100
AcDbVertex
100
AcDb3dPolylineVertex
 10
99.0921
 20
6.42972
 30
0.0
 70
    32
  0
VERTEX
  5
12DB
330
1279
100
AcDbEntity
  8
241
100
AcDbVertex
100
AcDb3dPolylineVertex
 10
99.0667
 20
6.41902
 30
0.0
 70
    32
  0
VERTEX
  5
12DC
330
1279
100
AcDbEntity
  8
241
100
AcDbVertex
100
AcDb3dPolylineVertex
 10
99.0419
 20
6.40788
 30
0.0
 70
    32
  0
VERTEX
  5
12DD
330
1279
100
AcDbEntity
  8
241
100
AcDbVertex
100
AcDb3dPolylineVertex
 10
99.0176
 20
6.39629
 30
0.0
 70
    32
  0
VERTEX
  5
12DE
330
1279
100
AcDbEntity
  8
241
100
AcDbVertex
100
AcDb3dPolylineVertex
 10
98.9938
 20
6.38426
 30
0.0
 70
    32
  0
VERTEX
  5
12DF
330
1279
100
AcDbEntity
  8
241
100
AcDbVertex
100
AcDb3dPolylineVertex
 10
98.9706
 20
6.37181
 30
0.0
 70
    32
  0
VERTEX
  5
12E0
330
1279
100
AcDbEntity
  8
241
100
AcDbVertex
100
AcDb3dPolylineVertex
 10
98.9479
 20
6.35893
 30
0.0
 70
    32
  0
VERTEX
  5
12E1
330
1279
100
AcDbEntity
  8
241
100
AcDbVertex
100
AcDb3dPolylineVertex
 10
98.9259
 20
6.34564
 30
0.0
 70
    32
  0
VERTEX
  5
12E2
330
1279
100
AcDbEntity
  8
241
100
AcDbVertex
100
AcDb3dPolylineVertex
 10
98.9044
 20
6.33195
 30
0.0
 70
    32
  0
VERTEX
  5
12E3
330
1279
100
AcDbEntity
  8
241
100
AcDbVertex
100
AcDb3dPolylineVertex
 10
98.8836
 20
6.31785
 30
0.0
 70
    32
  0
VERTEX
  5
12E4
330
1279
100
AcDbEntity
  8
241
100
AcDbVertex
100
AcDb3dPolylineVertex
 10
98.8634
 20
6.30337
 30
0.0
 70
    32
  0
VERTEX
  5
12E5
330
1279
100
AcDbEntity
  8
241
100
AcDbVertex
100
AcDb3dPolylineVertex
 10
98.8438
 20
6.28851
 30
0.0
 70
    32
  0
VERTEX
  5
12E6
330
1279
100
AcDbEntity
  8
241
100
AcDbVertex
100
AcDb3dPolylineVertex
 10
98.8249
 20
6.27327
 30
0.0
 70
    32
  0
VERTEX
  5
12E7
330
1279
100
AcDbEntity
  8
241
100
AcDbVertex
100
AcDb3dPolylineVertex
 10
98.8067
 20
6.25768
 30
0.0
 70
    32
  0
VERTEX
  5
12E8
330
1279
100
AcDbEntity
  8
241
100
AcDbVertex
100
AcDb3dPolylineVertex
 10
98.7891
 20
6.24173
 30
0.0
 70
    32
  0
VERTEX
  5
12E9
330
1279
100
AcDbEntity
  8
241
100
AcDbVertex
100
AcDb3dPolylineVertex
 10
98.7722
 20
6.22543
 30
0.0
 70
    32
  0
VERTEX
  5
12EA
330
1279
100
AcDbEntity
  8
241
100
AcDbVertex
100
AcDb3dPolylineVertex
 10
98.756
 20
6.20881
 30
0.0
 70
    32
  0
VERTEX
  5
12EB
330
1279
100
AcDbEntity
  8
241
100
AcDbVertex
100
AcDb3dPolylineVertex
 10
98.7405
 20
6.19186
 30
0.0
 70
    32
  0
VERTEX
  5
12EC
330
1279
100
AcDbEntity
  8
241
100
AcDbVertex
100
AcDb3dPolylineVertex
 10
98.7258
 20
6.17459
 30
0.0
 70
    32
  0
VERTEX
  5
12ED
330
1279
100
AcDbEntity
  8
241
100
AcDbVertex
100
AcDb3dPolylineVertex
 10
98.7117
 20
6.15703
 30
0.0
 70
    32
  0
VERTEX
  5
12EE
330
1279
100
AcDbEntity
  8
241
100
AcDbVertex
100
AcDb3dPolylineVertex
 10
98.6984
 20
6.13917
 30
0.0
 70
    32
  0
VERTEX
  5
12EF
330
1279
100
AcDbEntity
  8
241
100
AcDbVertex
100
AcDb3dPolylineVertex
 10
98.6859
 20
6.12103
 30
0.0
 70
    32
  0
VERTEX
  5
12F0
330
1279
100
AcDbEntity
  8
241
100
AcDbVertex
100
AcDb3dPolylineVertex
 10
98.674
 20
6.10262
 30
0.0
 70
    32
  0
VERTEX
  5
12F1
330
1279
100
AcDbEntity
  8
241
100
AcDbVertex
100
AcDb3dPolylineVertex
 10
98.663
 20
6.08395
 30
0.0
 70
    32
  0
VERTEX
  5
12F2
330
1279
100
AcDbEntity
  8
241
100
AcDbVertex
100
AcDb3dPolylineVertex
 10
98.6527
 20
6.06503
 30
0.0
 70
    32
  0
VERTEX
  5
12F3
330
1279
100
AcDbEntity
  8
241
100
AcDbVertex
100
AcDb3dPolylineVertex
 10
98.6431
 20
6.04587
 30
0.0
 70
    32
  0
VERTEX
  5
12F4
330
1279
100
AcDbEntity
  8
241
100
AcDbVertex
100
AcDb3dPolylineVertex
 10
98.6344
 20
6.02649
 30
0.0
 70
    32
  0
VERTEX
  5
12F5
330
1279
100
AcDbEntity
  8
241
100
AcDbVertex
100
AcDb3dPolylineVertex
 10
98.6264
 20
6.00689
 30
0.0
 70
    32
  0
VERTEX
  5
12F6
330
1279
100
AcDbEntity
  8
241
100
AcDbVertex
100
AcDb3dPolylineVertex
 10
98.6192
 20
5.9871
 30
0.0
 70
    32
  0
VERTEX
  5
12F7
330
1279
100
AcDbEntity
  8
241
100
AcDbVertex
100
AcDb3dPolylineVertex
 10
98.6128
 20
5.96711
 30
0.0
 70
    32
  0
VERTEX
  5
12F8
330
1279
100
AcDbEntity
  8
241
100
AcDbVertex
100
AcDb3dPolylineVertex
 10
98.6072
 20
5.94695
 30
0.0
 70
    32
  0
VERTEX
  5
12F9
330
1279
100
AcDbEntity
  8
241
100
AcDbVertex
100
AcDb3dPolylineVertex
 10
98.6023
 20
5.92661
 30
0.0
 70
    32
  0
VERTEX
  5
12FA
330
1279
100
AcDbEntity
  8
241
100
AcDbVertex
100
AcDb3dPolylineVertex
 10
98.5983
 20
5.90613
 30
0.0
 70
    32
  0
SEQEND
  5
12FB
330
1279
100
AcDbEntity
  8
241
  0
LINE
  5
12FC
330
CF5
100
AcDbEntity
  8
240
100
AcDbLine
 10
45.14501979
 20
-13.51651043
 30
0.0
 11
28.94167169
 21
-26.04441887
 31
0.0
  0
LINE
  5
12FD
330
CF5
100
AcDbEntity
  8
241
  6
CONTINUOUS
100
AcDbLine
 10
31.9853372
 20
-23.69115443
 30
0.0
 11
31.9853372
 21
0.0
 31
0.0
1001
GRPNAME
1000
PASTMD01
  0
LINE
  5
12FE
330
CF5
100
AcDbEntity
  8
241
  6
CONTINUOUS
100
AcDbLine
 10
31.03599762
 20
-24.42515331
 30
0.0
 11
31.03599762
 21
0.0
 31
0.0
1001
GRPNAME
1000
PASTMD01
  0
LINE
  5
12FF
330
CF5
100
AcDbEntity
  8
241
  6
CONTINUOUS
100
AcDbLine
 10
27.0
 20
0.0
 30
0.0
 11
27.0
 21
-30.0
 31
0.0
  0
ARC
  5
1300
330
CF5
100
AcDbEntity
  8
240
100
AcDbCircle
 10
32.0
 20
-30.0
 30
0.0
 40
5.0
100
AcDbArc
 50
127.71004406
 51
180.0000176
  0
LINE
  5
1301
330
CF5
100
AcDbEntity
  8
240
  6
CONTINUOUS
100
AcDbLine
 10
27.0
 20
-30.5
 30
0.0
 11
27.0
 21
-30.0
 31
0.0
  0
ARC
  5
1302
330
CF5
100
AcDbEntity
  8
240
  6
CONTINUOUS
100
AcDbCircle
 10
26.0
 20
-30.5
 30
0.0
 40
1.0
100
AcDbArc
 50
270.0
 51
0.0
  0
ARC
  5
1303
330
CF5
100
AcDbEntity
  8
240
100
AcDbCircle
 10
63.4949918
 20
37.25
 30
0.0
 40
30.0
100
AcDbArc
 50
232.28995593
 51
270.0
  0
ARC
  5
1304
330
CF5
100
AcDbEntity
  8
240
100
AcDbCircle
 10
63.49499181
 20
-37.25
 30
0.0
 40
30.0
100
AcDbArc
 50
90.0
 51
127.71004406
  0
LINE
  5
1305
330
CF5
100
AcDbEntity
  8
241
100
AcDbLine
 10
53.24999999
 20
7.25
 30
0.0
 11
53.24999999
 21
0.0
 31
0.0
  0
LINE
  5
1306
330
CF5
100
AcDbEntity
  8
241
  6
CONTINUOUS
100
AcDbLine
 10
35.03599762
 20
21.33248176
 30
0.0
 11
35.03599762
 21
0.0
 31
0.0
1001
GRPNAME
1000
PASTMD01
  0
LINE
  5
1307
330
CF5
100
AcDbEntity
  8
241
  6
CONTINUOUS
100
AcDbLine
 10
35.9853372
 20
20.59848288
 30
0.0
 11
35.9853372
 21
0.0
 31
0.0
1001
GRPNAME
1000
PASTMD01
  0
LINE
  5
1308
330
CF5
100
AcDbEntity
  8
241
  6
CONTINUOUS
100
AcDbLine
 10
31.03599762
 20
24.42515331
 30
0.0
 11
31.03599762
 21
0.0
 31
0.0
1001
GRPNAME
1000
PASTMD01
  0
LINE
  5
1309
330
CF5
100
AcDbEntity
  8
241
  6
CONTINUOUS
100
AcDbLine
 10
31.9853372
 20
23.69115443
 30
0.0
 11
31.9853372
 21
0.0
 31
0.0
1001
GRPNAME
1000
PASTMD01
  0
LINE
  5
130A
330
CF5
100
AcDbEntity
  8
241
  6
CONTINUOUS
100
AcDbLine
 10
35.9853372
 20
-20.59848288
 30
0.0
 11
35.9853372
 21
0.0
 31
0.0
1001
GRPNAME
1000
PASTMD01
  0
LINE
  5
130B
330
CF5
100
AcDbEntity
  8
241
  6
CONTINUOUS
100
AcDbLine
 10
35.03599762
 20
-21.33248176
 30
0.0
 11
35.03599762
 21
0.0
 31
0.0
1001
GRPNAME
1000
PASTMD01
  0
LINE
  5
130C
330
CF5
100
AcDbEntity
  8
241
100
AcDbLine
 10
53.24999999
 20
-7.25
 30
0.0
 11
53.24999999
 21
0.0
 31
0.0
  0
LINE
  5
130D
330
CF5
100
AcDbEntity
  8
240
100
AcDbLine
 10
45.14501978
 20
13.51651044
 30
0.0
 11
28.94167169
 21
26.04441887
 31
0.0
  0
LINE
  5
130E
330
CF5
100
AcDbEntity
  8
240
100
AcDbLine
 10
93.88708862
 20
-7.25
 30
0.0
 11
63.49499181
 21
-7.25
 31
0.0
  0
LINE
  5
130F
330
CF5
100
AcDbEntity
  8
241
100
AcDbLine
 10
93.77313855
 20
-0.03351248
 30
0.0
 11
89.27741009
 21
0.75920574
 31
0.0
  0
ARC
  5
1310
330
CF5
100
AcDbEntity
  8
241
100
AcDbCircle
 10
88.8294869
 20
-1.78109295
 30
0.0
 40
2.579486895640701
100
AcDbArc
 50
79.9999824
 51
260.0
  0
LINE
  5
1311
330
CF5
100
AcDbEntity
  8
240
100
AcDbLine
 10
93.88708862
 20
-7.25
 30
0.0
 11
95.19330643
 21
-7.6
 31
0.0
  0
LINE
  5
1312
330
CF5
100
AcDbEntity
  8
241
100
AcDbLine
 10
95.19330642
 20
2.42629043
 30
0.0
 11
93.77313855
 21
-0.03351248
 31
0.0
  0
LINE
  5
1313
330
CF5
100
AcDbEntity
  8
240
100
AcDbLine
 10
93.88708862
 20
7.25
 30
0.0
 11
63.4949918
 21
7.25
 31
0.0
  0
LINE
  5
1314
330
CF5
100
AcDbEntity
  8
240
100
AcDbLine
 10
93.88708862
 20
7.25
 30
0.0
 11
95.19330643
 21
7.6
 31
0.0
  0
LINE
  5
1315
330
CF5
100
AcDbEntity
  8
240
100
AcDbLine
 10
104.25
 20
7.39776704
 30
0.0
 11
104.25
 21
0.829351
 31
0.0
  0
LINE
  5
1316
330
CF5
100
AcDbEntity
  8
246
100
AcDbLine
 10
105.0
 20
-8.0
 30
0.0
 11
105.0
 21
8.0
 31
0.0
  0
LINE
  5
1317
330
CF5
100
AcDbEntity
  8
240
100
AcDbLine
 10
104.19615249
 20
0.83884577
 30
0.0
 11
105.0
 21
-3.72
 31
0.0
  0
LINE
  5
1318
330
CF5
100
AcDbEntity
  8
240
100
AcDbLine
 10
105.0
 20
-3.72
 30
0.0
 11
104.25
 21
-3.44702232
 31
0.0
  0
LINE
  5
1319
330
CF5
100
AcDbEntity
  8
240
100
AcDbLine
 10
104.25
 20
-7.39776704
 30
0.0
 11
104.25
 21
-3.44702232
 31
0.0
  0
LINE
  5
131A
330
CF5
100
AcDbEntity
  8
240
100
AcDbLine
 10
104.19615249
 20
0.83884577
 30
0.0
 11
104.25
 21
0.829351
 31
0.0
  0
LINE
  5
131B
330
CF5
100
AcDbEntity
  8
240
  6
CONTINUOUS
100
AcDbLine
 10
27.0
 20
30.5
 30
0.0
 11
27.0
 21
30.0
 31
0.0
  0
ARC
  5
131C
330
CF5
100
AcDbEntity
  8
240
  6
CONTINUOUS
100
AcDbCircle
 10
26.0
 20
30.5
 30
0.0
 40
1.0
100
AcDbArc
 50
0.0
 51
90.0
  0
ENDBLK
  5
CF7
330
CF5
100
AcDbEntity
  8
0
100
AcDbBlockEnd
  0
ENDSEC
  0
SECTION
  2
ENTITIES
  0
INSERT
  5
6E6
330
1A
100
AcDbEntity
  8
245
100
AcDbBlockReference
  2
矢印なし
 10
175.62382697
 20
90.55123572
 30
0.0
  0
TEXT
  5
A23
330
1A
100
AcDbEntity
  8
241
100
AcDbText
 10
-65.4
 20
56.0
 30
0.0
 40
5.0
  1
BBT40-FCR16082L-105
  7
YOKO
 11
-65.4
 21
56.0
 31
0.0
100
AcDbText
 73
     1
  0
DIMENSION
  5
C8D
330
1A
100
AcDbEntity
  8
250
  6
CONTINUOUS
100
AcDbDimension
  2
*D2
 10
119.0
 20
8.0
 30
0.0
 11
116.6
 21
0.0
 31
0.0
 70
    32
  1
{\H2.8;\U+2205}<>
  3
BIGT
100
AcDbAlignedDimension
 13
105.0
 23
-8.0
 33
0.0
 14
105.0
 24
8.0
 34
0.0
 50
90.0
100
AcDbRotatedDimension
  0
DIMENSION
  5
C9C
330
1A
100
AcDbEntity
  8
250
  6
CONTINUOUS
100
AcDbDimension
  2
*D3
 10
105.0
 20
28.0
 30
0.0
 11
101.0
 21
30.4
 31
0.0
 70
    32
  3
BIGT
100
AcDbAlignedDimension
 13
97.0
 23
8.0
 33
0.0
 14
105.0
 24
8.0
 34
0.0
100
AcDbRotatedDimension
  0
DIMENSION
  5
CAB
330
1A
100
AcDbEntity
  8
250
  6
CONTINUOUS
100
AcDbDimension
  2
*D4
 10
105.0
 20
35.0
 30
0.0
 11
82.5
 21
37.4
 31
0.0
 70
    32
  3
BIGT
100
AcDbAlignedDimension
 13
60.0
 23
7.45427829
 33
0.0
 14
105.0
 24
8.0
 34
0.0
100
AcDbRotatedDimension
  0
DIMENSION
  5
CBA
330
1A
100
AcDbEntity
  8
250
  6
CONTINUOUS
100
AcDbDimension
  2
*D5
 10
105.0
 20
42.0
 30
0.0
 11
52.5
 21
44.4
 31
0.0
 70
    32
  3
BIGT
100
AcDbAlignedDimension
 13
0.0
 23
22.225
 33
0.0
 14
105.0
 24
8.0
 34
0.0
100
AcDbRotatedDimension
  0
LEADER
  5
115B
330
1A
100
AcDbEntity
  8
250
  6
CONTINUOUS
100
AcDbLeader
  3
BIGT
 76
     2
 10
-26.64442081
 20
-18.3393553
 30
0.0
 10
-32.4583971
 20
-28.40945762
 30
0.0
1001
ACAD
1000
DSTYLE
1002
{
1070
     6
1000
OPEN
1070
   343
1005
594
1002
}
  0
MTEXT
  5
115C
330
1A
100
AcDbEntity
  8
250
  6
CONTINUOUS
 62
    40
100
AcDbMText
 10
-47.39173044
 20
-27.40945762
 30
0.0
 40
2.8
 41
0.0
 71
     7
 72
     1
  1
BBT40
  7
YOKO
1001
ITEMNAME
1000
LNSP3
1001
ACAD
1000
MTEXTBEGIN
1070
    73
1070
     1
1070
    44
1040
1.0
1070
    74
1070
     0
1000
MTEXTEND
1000
MTEXTBEGIN
1070
    73
1070
     1
1070
    44
1040
1.0
1070
    74
1070
     0
1000
MTEXTEND
  0
LINE
  5
115F
330
1A
100
AcDbEntity
  8
250
  6
CONTINUOUS
100
AcDbLine
 10
-32.4583971
 20
-28.40945762
 30
0.0
 11
-50.19173044
 21
-28.40945762
 31
0.0
1001
ITEMNAME
1000
LNSP2
  0
INSERT
  5
131D
330
1A
100
AcDbEntity
  8
245
100
AcDbBlockReference
  2
1
 10
0.0
 20
0.0
 30
0.0
  0
VIEWPORT
  5
22
330
17
100
AcDbEntity
 67
     1
  8
0
100
AcDbViewport
 10
261.51769912
 20
148.5
 30
0.0
 40
523.03539823
 41
297.0
 68
     1
 69
     1
1001
ACAD
1000
MVIEW
1002
{
1070
    16
1010
0.0
1020
0.0
1030
0.0
1010
0.0
1020
0.0
1030
1.0
1040
0.0
1040
297.0
1040
261.51769912
1040
148.5
1040
50.0
1040
0.0
1040
0.0
1070
     0
1070
   100
1070
     1
1070
     1
1070
     0
1070
     0
1070
     0
1070
     0
1040
0.0
1040
0.0
1040
0.0
1040
1.0
1040
1.0
1040
10.0
1040
10.0
1070
     0
1002
{
1002
}
1002
}
  0
ENDSEC
  0
SECTION
  2
OBJECTS
  0
DICTIONARY
  5
C
330
0
100
AcDbDictionary
  3
ACAD_GROUP
350
D
  3
ACAD_LAYOUT
350
565
  3
ACAD_MLINESTYLE
350
E
  3
ACAD_PLOTSETTINGS
350
566
  3
ACAD_PLOTSTYLENAME
350
563
  3
ACDBHEADERROUNDTRIPXREC
350
131F
  3
GRADE_DWG
350
540
  0
DICTIONARY
  5
F2A
330
1A
100
AcDbDictionary
280
     1
  3
ACAD_LAYOUTSELFREF
360
1341
  0
DICTIONARY
  5
F28
330
17
100
AcDbDictionary
280
     1
  3
ACAD_LAYOUTSELFREF
360
1340
  0
DICTIONARY
  5
D
102
{ACAD_REACTORS
330
C
102
}
330
C
100
AcDbDictionary
  3
*A1
350
6C7
  3
*A2
350
6C8
  3
*A3
350
6D4
  3
*A4
350
6D5
  3
DREC-1
350
5FC
  3
DREC-2
350
654
  3
DREC-3
350
673
  0
DICTIONARY
  5
565
102
{ACAD_REACTORS
330
C
102
}
330
C
100
AcDbDictionary
  0
DICTIONARY
  5
E
102
{ACAD_REACTORS
330
C
102
}
330
C
100
AcDbDictionary
  3
STANDARD
350
13
  0
DICTIONARY
  5
566
102
{ACAD_REACTORS
330
C
102
}
330
C
100
AcDbDictionary
  3
A3_0_5倍_
350
758
  3
A3_1倍_
350
757
  3
A3_1倍__2000_
350
707
  3
A3_2倍_
350
759
  3
A4_0_5倍_
350
755
  3
A4_1倍_
350
754
  3
A4_1倍__2000_
350
708
  3
A4_2倍_
350
756
  0
ACDBDICTIONARYWDFLT
  5
563
102
{ACAD_REACTORS
330
C
102
}
330
C
100
AcDbDictionary
281
     1
  3
Normal
350
564
100
AcDbDictionaryWithDefault
340
564
  0
DICTIONARY
  5
131F
102
{ACAD_REACTORS
330
C
102
}
330
C
100
AcDbDictionary
  3
CEPSNTYPE
350
1329
  3
DIMSTYLEDATA
350
132D
  3
FINGERPRINTGUID
350
132A
  3
HYPERLINKBASE
350
1322
  3
INSUNITS
350
1328
  3
LAYOUTDICT
350
1324
  3
LWETCUNION
350
1327
  3
PLOTSETDICT
350
1325
  3
PLOTSTYLNAMDICT
350
1326
  3
PSVPSCALE
350
132C
  3
PUCSBASE
350
1330
  3
PUCSORGBACK
350
1336
  3
PUCSORGBOTTOM
350
1332
  3
PUCSORGFRONT
350
1335
  3
PUCSORGLEFT
350
1333
  3
PUCSORGRIGHT
350
1334
  3
PUCSORGTOP
350
1331
  3
PUCSORTHOREF
350
132E
  3
PUCSORTHOVIEW
350
132F
  3
STYLESHEET
350
1323
  3
TSTACKALIGN
350
1320
  3
TSTACKSIZE
350
1321
  3
UCSBASE
350
1339
  3
UCSORGBACK
350
133F
  3
UCSORGBOTTOM
350
133B
  3
UCSORGFRONT
350
133E
  3
UCSORGLEFT
350
133C
  3
UCSORGRIGHT
350
133D
  3
UCSORGTOP
350
133A
  3
UCSORTHOREF
350
1337
  3
UCSORTHOVIEW
350
1338
  3
VERSIONGUID
350
132B
  0
DICTIONARY
  5
540
102
{ACAD_REACTORS
330
C
102
}
330
C
100
AcDbDictionary
  3
VERSION
350
560
  0
XRECORD
  5
1341
102
{ACAD_REACTORS
330
F2A
102
}
330
F2A
100
AcDbXrecord
340
1A
  0
XRECORD
  5
1340
102
{ACAD_REACTORS
330
F28
102
}
330
F28
100
AcDbXrecord
340
17
  0
GROUP
  5
6C7
102
{ACAD_REACTORS
330
D
102
}
330
D
100
AcDbGroup
300

 70
     0
 71
     1
1001
GRPNAME
1000
DMA00
  0
GROUP
  5
6C8
102
{ACAD_REACTORS
330
D
102
}
330
D
100
AcDbGroup
300

 70
     0
 71
     1
1001
GRPNAME
1000
DMA00
  0
GROUP
  5
6D4
102
{ACAD_REACTORS
330
D
102
}
330
D
100
AcDbGroup
300

 70
     0
 71
     1
1001
GRPNAME
1000
DMA00
  0
GROUP
  5
6D5
102
{ACAD_REACTORS
330
D
102
}
330
D
100
AcDbGroup
300

 70
     0
 71
     1
1001
GRPNAME
1000
DMA00
  0
GROUP
  5
5FC
102
{ACAD_REACTORS
330
D
102
}
330
D
100
AcDbGroup
300

 70
     0
 71
     1
1001
GRPNAME
1000
DREC-
1001
GPARA
1000
xsiz
1000
44.182
1000
ysiz
1000
40.677
1000
angl
1000
0
1000
ctyp
1000
0
1000
csiz
1000
5
1000
lfnt
1000
cont
1000
hcnt
1000
hoff
1000
vcnt
1000
voff
1000
opnt
1000
4
1000
dxpt
1000
0
1000
dypt
1000
0
  0
GROUP
  5
654
102
{ACAD_REACTORS
330
D
102
}
330
D
100
AcDbGroup
300

 70
     0
 71
     1
1001
GRPNAME
1000
DREC-
1001
GPARA
1000
xsiz
1000
54.592
1000
ysiz
1000
53.036
1000
angl
1000
0
1000
ctyp
1000
0
1000
csiz
1000
5
1000
lfnt
1000
cont
1000
hcnt
1000
hoff
1000
vcnt
1000
voff
1000
opnt
1000
4
1000
dxpt
1000
0
1000
dypt
1000
0
  0
GROUP
  5
673
102
{ACAD_REACTORS
330
D
102
}
330
D
100
AcDbGroup
300

 70
     0
 71
     1
1001
GRPNAME
1000
DREC-
1001
GPARA
1000
xsiz
1000
30.363
1000
ysiz
1000
36.175
1000
angl
1000
0
1000
ctyp
1000
0
1000
csiz
1000
5
1000
lfnt
1000
cont
1000
hcnt
1000
hoff
1000
vcnt
1000
voff
1000
opnt
1000
4
1000
dxpt
1000
0
1000
dypt
1000
0
  0
MLINESTYLE
  5
13
102
{ACAD_REACTORS
330
E
102
}
330
E
100
AcDbMlineStyle
  2
STANDARD
 70
     0
  3

 62
     0
 51
90.0
 52
90.0
 71
     2
 49
0.5
 62
   256
  6
BYLAYER
 49
-0.5
 62
   256
  6
BYLAYER
  0
PLOTSETTINGS
  5
758
102
{ACAD_REACTORS
330
566
102
}
330
566
100
AcDbPlotSettings
  1
A3(0.5倍)
  2
\\AWTECPC05\HP DeskJet 1120C
  4
A3
  6

 40
5.95841646
 41
13.49375153
 42
6.04309082
 43
3.67242432
 44
296.92599487
 45
419.94665527
 46
89.96
 47
127.14
 48
0.0
 49
0.0
140
0.0
141
0.0
142
1.0
143
2.0
 70
  1716
 72
     1
 73
     1
 74
     2
  7
big.ctb
 75
    17
147
0.5
148
0.0
149
0.0
  0
PLOTSETTINGS
  5
757
102
{ACAD_REACTORS
330
566
102
}
330
566
100
AcDbPlotSettings
  1
A3(1倍)
  2
\\AWTECPC05\HP DeskJet 1120C
  4
A3
  6

 40
5.95841646
 41
13.49375153
 42
6.04309082
 43
3.67242432
 44
296.92599487
 45
419.94665527
 46
37.46
 47
52.89
 48
0.0
 49
0.0
140
0.0
141
0.0
142
1.0
143
1.0
 70
  1716
 72
     1
 73
     1
 74
     2
  7
big.ctb
 75
    16
147
1.0
148
0.0
149
0.0
  0
PLOTSETTINGS
  5
707
102
{ACAD_REACTORS
330
566
102
}
330
566
100
AcDbPlotSettings
  1
A3(1倍)(2000)
  2
SII LS-1300 (D-SCAN)
  4
User258
  6

 40
3.17499995
 41
3.17499995
 42
3.17498779
 43
3.17498779
 44
419.98898315
 45
296.98950195
 46
58.32
 47
40.32
 48
0.0
 49
0.0
140
0.0
141
0.0
142
1.0
143
1.0
 70
  1716
 72
     1
 73
     0
 74
     2
  7
big.ctb
 75
    16
147
1.0
148
0.0
149
0.0
  0
PLOTSETTINGS
  5
759
102
{ACAD_REACTORS
330
566
102
}
330
566
100
AcDbPlotSettings
  1
A3(2倍)
  2
\\AWTECPC05\HP DeskJet 1120C
  4
A3
  6

 40
5.95841646
 41
13.49375153
 42
6.04309082
 43
3.67242432
 44
296.92599487
 45
419.94665527
 46
-67.54
 47
-95.61
 48
0.0
 49
0.0
140
0.0
141
0.0
142
1.0
143
0.5
 70
  1716
 72
     1
 73
     1
 74
     2
  7
big.ctb
 75
    27
147
2.0
148
0.0
149
0.0
  0
PLOTSETTINGS
  5
755
102
{ACAD_REACTORS
330
566
102
}
330
566
100
AcDbPlotSettings
  1
A4(0.5倍)
  2
\\AWTECPC05\HP DeskJet 1120C
  4
A4
  6

 40
4.18041658
 41
13.49374962
 42
4.18040466
 43
3.92642212
 44
209.97332764
 45
296.92599487
 46
48.31
 47
65.5
 48
0.0
 49
0.0
140
0.0
141
0.0
142
1.0
143
2.0
 70
  1716
 72
     1
 73
     1
 74
     2
  7
big.ctb
 75
    17
147
0.5
148
0.0
149
0.0
  0
PLOTSETTINGS
  5
754
102
{ACAD_REACTORS
330
566
102
}
330
566
100
AcDbPlotSettings
  1
A4(1倍)
  2
\\AWTECPC05\HP DeskJet 1120C
  4
A4
  6

 40
4.18041658
 41
13.49374962
 42
4.18040466
 43
3.92642212
 44
209.97332764
 45
296.92599487
 46
-4.19
 47
-8.75
 48
0.0
 49
0.0
140
0.0
141
0.0
142
1.0
143
1.0
 70
  1716
 72
     1
 73
     1
 74
     2
  7
big.ctb
 75
    16
147
1.0
148
0.0
149
0.0
  0
PLOTSETTINGS
  5
708
102
{ACAD_REACTORS
330
566
102
}
330
566
100
AcDbPlotSettings
  1
A4(1倍)(2000)
  2
SII LS-1300 (D-SCAN)
  4
User259
  6

 40
3.17499995
 41
3.17499995
 42
3.17498779
 43
3.17500305
 44
296.98950195
 45
209.99449158
 46
-3.18
 47
-3.18
 48
0.0
 49
0.0
140
0.0
141
0.0
142
1.0
143
1.0
 70
  1716
 72
     1
 73
     0
 74
     2
  7
big.ctb
 75
    16
147
1.0
148
0.0
149
0.0
  0
PLOTSETTINGS
  5
756
102
{ACAD_REACTORS
330
566
102
}
330
566
100
AcDbPlotSettings
  1
A4(2倍)
  2
\\AWTECPC05\HP DeskJet 1120C
  4
A4
  6

 40
4.18041658
 41
13.49374962
 42
4.18040466
 43
3.92642212
 44
209.97332764
 45
296.92599487
 46
-109.19
 47
-157.25
 48
0.0
 49
0.0
140
0.0
141
0.0
142
1.0
143
0.5
 70
  1716
 72
     1
 73
     1
 74
     2
  7
big.ctb
 75
    27
147
2.0
148
0.0
149
0.0
  0
ACDBPLACEHOLDER
  5
564
102
{ACAD_REACTORS
330
563
102
}
330
563
100
AcDbPlaceHolder
280
     0
  0
XRECORD
  5
1329
102
{ACAD_REACTORS
330
131F
102
}
330
131F
100
AcDbXrecord
 90
        0
  0
XRECORD
  5
132D
102
{ACAD_REACTORS
330
131F
102
}
330
131F
100
AcDbXrecord
1000
DSTYLE
1002
{
1070
    79
 70
     2
1070
   179
 70
     3
1070
   341
340
594
1070
   343
340
594
1070
   344
340
594
1070
   371
 70
    -1
1070
   372
 70
    -1
1002
}
  0
XRECORD
  5
132A
102
{ACAD_REACTORS
330
131F
102
}
330
131F
100
AcDbXrecord
  1
{51294030-9CB4-11D3-8E18-00A0C925D94D}
  0
XRECORD
  5
1322
102
{ACAD_REACTORS
330
131F
102
}
330
131F
100
AcDbXrecord
  1

  0
XRECORD
  5
1328
102
{ACAD_REACTORS
330
131F
102
}
330
131F
100
AcDbXrecord
 90
        0
  0
XRECORD
  5
1324
102
{ACAD_REACTORS
330
131F
102
}
330
131F
100
AcDbXrecord
340
565
  0
XRECORD
  5
1327
102
{ACAD_REACTORS
330
131F
102
}
330
131F
100
AcDbXrecord
 90
    10781
  0
XRECORD
  5
1325
102
{ACAD_REACTORS
330
131F
102
}
330
131F
100
AcDbXrecord
340
566
  0
XRECORD
  5
1326
102
{ACAD_REACTORS
330
131F
102
}
330
131F
100
AcDbXrecord
340
563
  0
XRECORD
  5
132C
102
{ACAD_REACTORS
330
131F
102
}
330
131F
100
AcDbXrecord
 40
0.0
  0
XRECORD
  5
1330
102
{ACAD_REACTORS
330
131F
102
}
330
131F
100
AcDbXrecord
340
0
  0
XRECORD
  5
1336
102
{ACAD_REACTORS
330
131F
102
}
330
131F
100
AcDbXrecord
 10
0.0
 20
0.0
 30
0.0
  0
XRECORD
  5
1332
102
{ACAD_REACTORS
330
131F
102
}
330
131F
100
AcDbXrecord
 10
0.0
 20
0.0
 30
0.0
  0
XRECORD
  5
1335
102
{ACAD_REACTORS
330
131F
102
}
330
131F
100
AcDbXrecord
 10
0.0
 20
0.0
 30
0.0
  0
XRECORD
  5
1333
102
{ACAD_REACTORS
330
131F
102
}
330
131F
100
AcDbXrecord
 10
0.0
 20
0.0
 30
0.0
  0
XRECORD
  5
1334
102
{ACAD_REACTORS
330
131F
102
}
330
131F
100
AcDbXrecord
 10
0.0
 20
0.0
 30
0.0
  0
XRECORD
  5
1331
102
{ACAD_REACTORS
330
131F
102
}
330
131F
100
AcDbXrecord
 10
0.0
 20
0.0
 30
0.0
  0
XRECORD
  5
132E
102
{ACAD_REACTORS
330
131F
102
}
330
131F
100
AcDbXrecord
340
0
  0
XRECORD
  5
132F
102
{ACAD_REACTORS
330
131F
102
}
330
131F
100
AcDbXrecord
 70
     0
  0
XRECORD
  5
1323
102
{ACAD_REACTORS
330
131F
102
}
330
131F
100
AcDbXrecord
  1
big.ctb
  0
XRECORD
  5
1320
102
{ACAD_REACTORS
330
131F
102
}
330
131F
100
AcDbXrecord
 90
        1
  0
XRECORD
  5
1321
102
{ACAD_REACTORS
330
131F
102
}
330
131F
100
AcDbXrecord
 90
       70
  0
XRECORD
  5
1339
102
{ACAD_REACTORS
330
131F
102
}
330
131F
100
AcDbXrecord
340
0
  0
XRECORD
  5
133F
102
{ACAD_REACTORS
330
131F
102
}
330
131F
100
AcDbXrecord
 10
0.0
 20
0.0
 30
0.0
  0
XRECORD
  5
133B
102
{ACAD_REACTORS
330
131F
102
}
330
131F
100
AcDbXrecord
 10
0.0
 20
0.0
 30
0.0
  0
XRECORD
  5
133E
102
{ACAD_REACTORS
330
131F
102
}
330
131F
100
AcDbXrecord
 10
0.0
 20
0.0
 30
0.0
  0
XRECORD
  5
133C
102
{ACAD_REACTORS
330
131F
102
}
330
131F
100
AcDbXrecord
 10
0.0
 20
0.0
 30
0.0
  0
XRECORD
  5
133D
102
{ACAD_REACTORS
330
131F
102
}
330
131F
100
AcDbXrecord
 10
0.0
 20
0.0
 30
0.0
  0
XRECORD
  5
133A
102
{ACAD_REACTORS
330
131F
102
}
330
131F
100
AcDbXrecord
 10
0.0
 20
0.0
 30
0.0
  0
XRECORD
  5
1337
102
{ACAD_REACTORS
330
131F
102
}
330
131F
100
AcDbXrecord
340
0
  0
XRECORD
  5
1338
102
{ACAD_REACTORS
330
131F
102
}
330
131F
100
AcDbXrecord
 70
     0
  0
XRECORD
  5
132B
102
{ACAD_REACTORS
330
131F
102
}
330
131F
100
AcDbXrecord
  1
{8BA6BE1D-C7B9-46DD-A5F6-9B74C061728E}
  0
XRECORD
  5
560
102
{ACAD_REACTORS
330
540
102
}
330
540
100
AcDbXrecord
  1
2.0.0
  0
ENDSEC
  0
EOF
