  0
SECTION
  2
HEADER
  9
$ACADVER
  1
AC1014
  9
$ACADMAINTVER
 70
     9
  9
$DWGCODEPAGE
  3
ANSI_932
  9
$INSBASE
 10
0.0
 20
0.0
 30
0.0
  9
$EXTMIN
 10
-66.41484262
 20
-31.71713736
 30
-0.00152582
  9
$EXTMAX
 10
134.01289142
 20
61.02264515
 30
0.00000003
  9
$LIMMIN
 10
0.0
 20
0.0
  9
$LIMMAX
 10
420.0
 20
297.0
  9
$ORTHOMODE
 70
     1
  9
$REGENMODE
 70
     1
  9
$FILLMODE
 70
     1
  9
$QTEXTMODE
 70
     0
  9
$MIRRTEXT
 70
     1
  9
$DRAGMODE
 70
     2
  9
$LTSCALE
 40
10.0
  9
$OSMODE
 70
   549
  9
$ATTMODE
 70
     1
  9
$TEXTSIZE
 40
3.0
  9
$TRACEWID
 40
1.0
  9
$TEXTSTYLE
  7
YOKO
  9
$CLAYER
  8
245
  9
$CELTYPE
  6
BYLAYER
  9
$CECOLOR
 62
   256
  9
$CELTSCALE
 40
1.0
  9
$DELOBJ
 70
     1
  9
$DISPSILH
 70
     0
  9
$DIMSCALE
 40
1.0
  9
$DIMASZ
 40
2.23
  9
$DIMEXO
 40
0.5
  9
$DIMDLI
 40
2.5
  9
$DIMRND
 40
0.0
  9
$DIMDLE
 40
0.0
  9
$DIMEXE
 40
1.0
  9
$DIMTP
 40
0.0
  9
$DIMTM
 40
0.0
  9
$DIMTXT
 40
2.8
  9
$DIMCEN
 40
0.0
  9
$DIMTSZ
 40
0.0
  9
$DIMTOL
 70
     0
  9
$DIMLIM
 70
     0
  9
$DIMTIH
 70
     0
  9
$DIMTOH
 70
     0
  9
$DIMSE1
 70
     0
  9
$DIMSE2
 70
     0
  9
$DIMTAD
 70
     3
  9
$DIMZIN
 70
     8
  9
$DIMBLK
  1

  9
$DIMASO
 70
     1
  9
$DIMSHO
 70
     1
  9
$DIMPOST
  1

  9
$DIMAPOST
  1

  9
$DIMALT
 70
     0
  9
$DIMALTD
 70
     2
  9
$DIMALTF
 40
25.4
  9
$DIMLFAC
 40
1.0
  9
$DIMTOFL
 70
     1
  9
$DIMTVP
 40
0.0
  9
$DIMTIX
 70
     1
  9
$DIMSOXD
 70
     0
  9
$DIMSAH
 70
     1
  9
$DIMBLK1
  1
OPEN
  9
$DIMBLK2
  1
OPEN
  9
$DIMSTYLE
  2
BIGT
  9
$DIMCLRD
 70
   256
  9
$DIMCLRE
 70
   256
  9
$DIMCLRT
 70
    40
  9
$DIMTFAC
 40
1.0
  9
$DIMGAP
 40
1.0
  9
$DIMJUST
 70
     0
  9
$DIMSD1
 70
     0
  9
$DIMSD2
 70
     0
  9
$DIMTOLJ
 70
     1
  9
$DIMTZIN
 70
     8
  9
$DIMALTZ
 70
     0
  9
$DIMALTTZ
 70
     0
  9
$DIMFIT
 70
     3
  9
$DIMUPT
 70
     0
  9
$DIMUNIT
 70
     2
  9
$DIMDEC
 70
     3
  9
$DIMTDEC
 70
     3
  9
$DIMALTU
 70
     2
  9
$DIMALTTD
 70
     2
  9
$DIMTXSTY
  7
STANDARD
  9
$DIMAUNIT
 70
     0
  9
$LUNITS
 70
     2
  9
$LUPREC
 70
     3
  9
$SKETCHINC
 40
1.0
  9
$FILLETRAD
 40
5.0
  9
$AUNITS
 70
     0
  9
$AUPREC
 70
     3
  9
$MENU
  1
.
  9
$ELEVATION
 40
0.0
  9
$PELEVATION
 40
0.0
  9
$THICKNESS
 40
0.0
  9
$LIMCHECK
 70
     0
  9
$BLIPMODE
 70
     0
  9
$CHAMFERA
 40
10.0
  9
$CHAMFERB
 40
10.0
  9
$CHAMFERC
 40
0.0
  9
$CHAMFERD
 40
0.0
  9
$SKPOLY
 70
     0
  9
$TDCREATE
 40
2455141.413978403
  9
$TDUPDATE
 40
2455383.414724745
  9
$TDINDWG
 40
0.0104871991
  9
$TDUSRTIMER
 40
0.0104871991
  9
$USRTIMER
 70
     1
  9
$ANGBASE
 50
0.0
  9
$ANGDIR
 70
     0
  9
$PDMODE
 70
     1
  9
$PDSIZE
 40
-5.0
  9
$PLINEWID
 40
0.0
  9
$COORDS
 70
     0
  9
$SPLFRAME
 70
     0
  9
$SPLINETYPE
 70
     6
  9
$SPLINESEGS
 70
     8
  9
$ATTDIA
 70
     0
  9
$ATTREQ
 70
     1
  9
$HANDLING
 70
-16383
  9
$HANDSEED
  5
137F
  9
$SURFTAB1
 70
     6
  9
$SURFTAB2
 70
     6
  9
$SURFTYPE
 70
     6
  9
$SURFU
 70
     6
  9
$SURFV
 70
     6
  9
$UCSNAME
  2

  9
$UCSORG
 10
0.0
 20
0.0
 30
0.0
  9
$UCSXDIR
 10
1.0
 20
0.0
 30
0.0
  9
$UCSYDIR
 10
0.0
 20
1.0
 30
0.0
  9
$PUCSNAME
  2

  9
$PUCSORG
 10
0.0
 20
0.0
 30
0.0
  9
$PUCSXDIR
 10
1.0
 20
0.0
 30
0.0
  9
$PUCSYDIR
 10
0.0
 20
1.0
 30
0.0
  9
$USERI1
 70
     1
  9
$USERI2
 70
     0
  9
$USERI3
 70
     0
  9
$USERI4
 70
     0
  9
$USERI5
 70
     0
  9
$USERR1
 40
0.0
  9
$USERR2
 40
0.0
  9
$USERR3
 40
0.0
  9
$USERR4
 40
0.0
  9
$USERR5
 40
0.0
  9
$WORLDVIEW
 70
     1
  9
$SHADEDGE
 70
     3
  9
$SHADEDIF
 70
    70
  9
$TILEMODE
 70
     1
  9
$MAXACTVP
 70
    16
  9
$PINSBASE
 10
0.0
 20
0.0
 30
0.0
  9
$PLIMCHECK
 70
     0
  9
$PEXTMIN
 10
1.00000000E+20
 20
1.00000000E+20
 30
1.00000000E+20
  9
$PEXTMAX
 10
-1.00000000E+20
 20
-1.00000000E+20
 30
-1.00000000E+20
  9
$PLIMMIN
 10
0.0
 20
0.0
  9
$PLIMMAX
 10
420.0
 20
297.0
  9
$UNITMODE
 70
     0
  9
$VISRETAIN
 70
     0
  9
$PLINEGEN
 70
     0
  9
$PSLTSCALE
 70
     1
  9
$TREEDEPTH
 70
  3020
  9
$PICKSTYLE
 70
     0
  9
$CMLSTYLE
  2
STANDARD
  9
$CMLJUST
 70
     0
  9
$CMLSCALE
 40
1.0
  9
$PROXYGRAPHICS
 70
     1
  9
$MEASUREMENT
 70
     1
  0
ENDSEC
  0
SECTION
  2
CLASSES
  0
CLASS
  1
XRECORD
  2
AcDbXrecord
  3
AutoCAD 2000
 90
        0
280
     0
281
     0
  0
CLASS
  1
ACDBDICTIONARYWDFLT
  2
AcDbDictionaryWithDefault
  3
AutoCAD 2000
 90
        0
280
     0
281
     0
  0
CLASS
  1
ACDBPLACEHOLDER
  2
AcDbPlaceHolder
  3
AutoCAD 2000
 90
        0
280
     0
281
     0
  0
CLASS
  1
LAYOUT
  2
AcDbLayout
  3
AutoCAD 2000
 90
        0
280
     0
281
     0
  0
CLASS
  1
PLOTSETTINGS
  2
AcDbPlotSettings
  3
AutoCAD 2000
 90
        0
280
     0
281
     0
  0
CLASS
  1
LONG_TRANSACTION
  2
AcDbLongTransaction
  3
AutoCAD 2000
 90
        0
280
     0
281
     0
  0
CLASS
  1
LWPOLYLINE
  2
AcDbPolyline
  3
AutoCAD 2000
 90
        0
280
     0
281
     1
  0
CLASS
  1
HATCH
  2
AcDbHatch
  3
AutoCAD 2000
 90
        0
280
     0
281
     1
  0
CLASS
  1
XRECORD
  2
AcDbXrecord
  3
AutoCAD 2000
 90
        0
280
     0
281
     0
  0
CLASS
  1
LONG_TRANSACTION
  2
AcDbLongTransaction
  3
AutoCAD 2000
 90
        0
280
     0
281
     0
  0
CLASS
  1
LWPOLYLINE
  2
AcDbPolyline
  3
AutoCAD 2000
 90
        0
280
     0
281
     1
  0
CLASS
  1
HATCH
  2
AcDbHatch
  3
AutoCAD 2000
 90
        0
280
     0
281
     1
  0
CLASS
  1
XRECORD
  2
AcDbXrecord
  3
AutoCAD 2000
 90
        0
280
     0
281
     0
  0
ENDSEC
  0
SECTION
  2
TABLES
  0
TABLE
  2
VPORT
  5
8
330
0
100
AcDbSymbolTable
 70
     2
  0
VPORT
  5
135A
330
8
100
AcDbSymbolTableRecord
100
AcDbViewportTableRecord
  2
*ACTIVE
 70
     0
 10
0.0
 20
0.0
 11
1.0
 21
1.0
 12
33.7990244
 22
14.65275389
 13
0.0
 23
0.0
 14
7.0
 24
7.0
 15
7.0
 25
7.0
 16
0.0
 26
0.0
 36
1.0
 17
0.0
 27
0.0
 37
0.0
 40
138.39422077
 41
1.45595855
 42
50.0
 43
0.0
 44
0.0
 50
0.0
 51
0.0
 71
     0
 72
  2000
 73
     1
 74
     0
 75
     0
 76
     0
 77
     0
 78
     0
  0
ENDTAB
  0
TABLE
  2
LTYPE
  5
5
330
0
100
AcDbSymbolTable
 70
     4
  0
LTYPE
  5
14
330
5
100
AcDbSymbolTableRecord
100
AcDbLinetypeTableRecord
  2
BYBLOCK
 70
     0
  3

 72
    65
 73
     0
 40
0.0
  0
LTYPE
  5
15
330
5
100
AcDbSymbolTableRecord
100
AcDbLinetypeTableRecord
  2
BYLAYER
 70
     0
  3

 72
    65
 73
     0
 40
0.0
  0
LTYPE
  5
16
330
5
100
AcDbSymbolTableRecord
100
AcDbLinetypeTableRecord
  2
CONTINUOUS
 70
     0
  3
Solid line
 72
    65
 73
     0
 40
0.0
  0
LTYPE
  5
258
330
5
100
AcDbSymbolTableRecord
100
AcDbLinetypeTableRecord
  2
CENTER2
 70
     0
  3
___ _ ___ _ ___ _ ___ _ ___ _ ___ _ ___ _ ___ _
 72
    65
 73
     4
 40
1.125
 49
0.75
 74
     0
 49
-0.125
 74
     0
 49
0.125
 74
     0
 49
-0.125
 74
     0
  0
LTYPE
  5
25C
330
5
100
AcDbSymbolTableRecord
100
AcDbLinetypeTableRecord
  2
HIDDEN2
 70
     0
  3
_ _ _ _ _ _ _ _ _ _ _ _ _ _ _ _ _ _ _ _ _ _ _ _
 72
    65
 73
     2
 40
0.1875
 49
0.125
 74
     0
 49
-0.0625
 74
     0
  0
LTYPE
  5
25D
330
5
100
AcDbSymbolTableRecord
100
AcDbLinetypeTableRecord
  2
PHANTOM2
 70
     0
  3
___ _ _ ___ _ _ ___ _ _ ___ _ _ ___ _ _ ___ _ _
 72
    65
 73
     6
 40
1.25
 49
0.625
 74
     0
 49
-0.125
 74
     0
 49
0.125
 74
     0
 49
-0.125
 74
     0
 49
0.125
 74
     0
 49
-0.125
 74
     0
  0
ENDTAB
  0
TABLE
  2
LAYER
  5
2
330
0
100
AcDbSymbolTable
 70
    11
  0
LAYER
  5
F
330
2
100
AcDbSymbolTableRecord
100
AcDbLayerTableRecord
  2
0
 70
     0
 62
     7
  6
CONTINUOUS
  0
LAYER
  5
1AA
330
2
100
AcDbSymbolTableRecord
100
AcDbLayerTableRecord
  2
240
 70
     0
 62
     4
  6
CONTINUOUS
  0
LAYER
  5
1AB
330
2
100
AcDbSymbolTableRecord
100
AcDbLayerTableRecord
  2
241
 70
     0
 62
   211
  6
CONTINUOUS
  0
LAYER
  5
1AF
330
2
100
AcDbSymbolTableRecord
100
AcDbLayerTableRecord
  2
245
 70
     0
 62
     2
  6
CENTER2
  0
LAYER
  5
21A
330
2
100
AcDbSymbolTableRecord
100
AcDbLayerTableRecord
  2
246
 70
     0
 62
     3
  6
PHANTOM2
  0
LAYER
  5
21E
330
2
100
AcDbSymbolTableRecord
100
AcDbLayerTableRecord
  2
250
 70
     0
 62
     3
  6
CONTINUOUS
  0
LAYER
  5
5C4
330
2
100
AcDbSymbolTableRecord
100
AcDbLayerTableRecord
  2
DEFPOINTS
 70
     0
 62
     7
  6
CONTINUOUS
  0
ENDTAB
  0
TABLE
  2
STYLE
  5
3
330
0
100
AcDbSymbolTable
 70
     2
  0
STYLE
  5
10
330
3
100
AcDbSymbolTableRecord
100
AcDbTextStyleTableRecord
  2
STANDARD
 70
     0
 40
0.0
 41
1.0
 50
0.0
 71
     0
 42
3.0
  3
romans.shx
  4
BIGFONT.SHX
  0
STYLE
  5
339
330
3
100
AcDbSymbolTableRecord
100
AcDbTextStyleTableRecord
  2
YOKO
 70
     0
 40
0.0
 41
1.0
 50
0.0
 71
     0
 42
3.0
  3
romans.shx
  4
extfont.shx
  0
ENDTAB
  0
TABLE
  2
VIEW
  5
6
330
0
100
AcDbSymbolTable
 70
     0
  0
ENDTAB
  0
TABLE
  2
UCS
  5
7
330
0
100
AcDbSymbolTable
 70
     0
  0
ENDTAB
  0
TABLE
  2
APPID
  5
9
330
0
100
AcDbSymbolTable
 70
    12
  0
APPID
  5
11
330
9
100
AcDbSymbolTableRecord
100
AcDbRegAppTableRecord
  2
ACAD
 70
     0
  0
APPID
  5
1B1
330
9
100
AcDbSymbolTableRecord
100
AcDbRegAppTableRecord
  2
GLOBAL
 70
     0
  0
APPID
  5
2A4
330
9
100
AcDbSymbolTableRecord
100
AcDbRegAppTableRecord
  2
DETAIL
 70
     0
  0
APPID
  5
5FD
330
9
100
AcDbSymbolTableRecord
100
AcDbRegAppTableRecord
  2
GRPNAME
 70
     0
  0
APPID
  5
5FE
330
9
100
AcDbSymbolTableRecord
100
AcDbRegAppTableRecord
  2
GPARA
 70
     0
  0
APPID
  5
6C4
330
9
100
AcDbSymbolTableRecord
100
AcDbRegAppTableRecord
  2
DCO15
 70
     0
  0
APPID
  5
6C5
330
9
100
AcDbSymbolTableRecord
100
AcDbRegAppTableRecord
  2
ITEMNAME
 70
     0
  0
APPID
  5
6C6
330
9
100
AcDbSymbolTableRecord
100
AcDbRegAppTableRecord
  2
GRADE_0
 70
     0
  0
APPID
  5
9E5
330
9
100
AcDbSymbolTableRecord
100
AcDbRegAppTableRecord
  2
HATCH_TYPE
 70
     0
  0
APPID
  5
9E6
330
9
100
AcDbSymbolTableRecord
100
AcDbRegAppTableRecord
  2
HATCH_DISPLAY
 70
     0
  0
APPID
  5
9E7
330
9
100
AcDbSymbolTableRecord
100
AcDbRegAppTableRecord
  2
HATCH_DISTANCE
 70
     0
  0
APPID
  5
F6E
330
9
100
AcDbSymbolTableRecord
100
AcDbRegAppTableRecord
  2
CONTENTBLOCKICON
 70
     0
  0
ENDTAB
  0
TABLE
  2
DIMSTYLE
  5
A
330
0
100
AcDbSymbolTable
 70
     4
  0
DIMSTYLE
105
725
102
{ACAD_REACTORS
330
C89
330
C98
330
CA7
330
CB6
102
}
330
A
100
AcDbSymbolTableRecord
100
AcDbDimStyleTableRecord
  2
BIGT
 70
     0
  3

  4

  5

  6
OPEN
  7
OPEN
 40
1.0
 41
2.23
 42
0.5
 43
2.5
 44
1.0
 45
0.0
 46
0.0
 47
0.0
 48
0.0
140
2.8
141
0.0
142
0.0
143
25.4
144
1.0
145
0.0
146
1.0
147
1.0
 71
     0
 72
     0
 73
     0
 74
     0
 75
     0
 76
     0
 77
     3
 78
     8
170
     0
171
     2
172
     1
173
     1
174
     1
175
     0
176
   256
177
   256
178
    40
270
     2
271
     3
272
     3
273
     2
274
     2
340
10
275
     0
280
     0
281
     0
282
     0
283
     1
284
     8
285
     0
286
     0
287
     3
288
     0
  0
ENDTAB
  0
TABLE
  2
BLOCK_RECORD
  5
1
330
0
100
AcDbSymbolTable
 70
     8
  0
BLOCK_RECORD
  5
1A
102
{ACAD_XDICTIONARY
360
F6C
102
}
330
1
100
AcDbSymbolTableRecord
100
AcDbBlockTableRecord
  2
*MODEL_SPACE
  0
BLOCK_RECORD
  5
17
102
{ACAD_XDICTIONARY
360
F6A
102
}
330
1
100
AcDbSymbolTableRecord
100
AcDbBlockTableRecord
  2
*PAPER_SPACE
  0
BLOCK_RECORD
  5
594
330
1
100
AcDbSymbolTableRecord
100
AcDbBlockTableRecord
  2
_OPEN
  0
BLOCK_RECORD
  5
6E3
330
1
100
AcDbSymbolTableRecord
100
AcDbBlockTableRecord
  2
矢印なし
  0
BLOCK_RECORD
  5
C8A
330
1
100
AcDbSymbolTableRecord
100
AcDbBlockTableRecord
  2
*D2
  0
BLOCK_RECORD
  5
C99
330
1
100
AcDbSymbolTableRecord
100
AcDbBlockTableRecord
  2
*D3
  0
BLOCK_RECORD
  5
CA8
330
1
100
AcDbSymbolTableRecord
100
AcDbBlockTableRecord
  2
*D4
  0
BLOCK_RECORD
  5
CB7
330
1
100
AcDbSymbolTableRecord
100
AcDbBlockTableRecord
  2
*D5
  0
BLOCK_RECORD
  5
D31
330
1
100
AcDbSymbolTableRecord
100
AcDbBlockTableRecord
  2
1
1001
CONTENTBLOCKICON
1071
        0
1004
2800000020000000200000000100080000000000000400000000000000000000000000000000000000000000000080000080000000808000800000008000800080800000C0C0C000C0DCC000F0CAA6000020400000206000002080000020A0000020C0000020E00000400000004020000040400000406000004080000040A0
1004
000040C0000040E00000600000006020000060400000606000006080000060A0000060C0000060E00000800000008020000080400000806000008080000080A0000080C0000080E00000A0000000A0200000A0400000A0600000A0800000A0A00000A0C00000A0E00000C0000000C0200000C0400000C0600000C0800000C0
1004
A00000C0C00000C0E00000E0000000E0200000E0400000E0600000E0800000E0A00000E0C00000E0E00040000000400020004000400040006000400080004000A0004000C0004000E00040200000402020004020400040206000402080004020A0004020C0004020E000404000004040200040404000404060004040800040
1004
40A0004040C0004040E00040600000406020004060400040606000406080004060A0004060C0004060E00040800000408020004080400040806000408080004080A0004080C0004080E00040A0000040A0200040A0400040A0600040A0800040A0A00040A0C00040A0E00040C0000040C0200040C0400040C0600040C08000
1004
40C0A00040C0C00040C0E00040E0000040E0200040E0400040E0600040E0800040E0A00040E0C00040E0E00080000000800020008000400080006000800080008000A0008000C0008000E00080200000802020008020400080206000802080008020A0008020C0008020E00080400000804020008040400080406000804080
1004
008040A0008040C0008040E00080600000806020008060400080606000806080008060A0008060C0008060E00080800000808020008080400080806000808080008080A0008080C0008080E00080A0000080A0200080A0400080A0600080A0800080A0A00080A0C00080A0E00080C0000080C0200080C0400080C0600080C0
1004
800080C0A00080C0C00080C0E00080E0000080E0200080E0400080E0600080E0800080E0A00080E0C00080E0E000C0000000C0002000C0004000C0006000C0008000C000A000C000C000C000E000C0200000C0202000C0204000C0206000C0208000C020A000C020C000C020E000C0400000C0402000C0404000C0406000C0
1004
408000C040A000C040C000C040E000C0600000C0602000C0604000C0606000C0608000C060A000C060C000C060E000C0800000C0802000C0804000C0806000C0808000C080A000C080C000C080E000C0A00000C0A02000C0A04000C0A06000C0A08000C0A0A000C0A0C000C0A0E000C0C00000C0C02000C0C04000C0C06000
1004
C0C08000C0C0A000F0FBFF00A4A0A000808080000000FF0000FF000000FFFF00FF000000FF00FF00FFFF0000FFFFFF0000000000000000000000000000000000000000000000000000000000000000000000000000000000000000000000000000000000000000000000000000000000000000000000000000000000000000
1004
00000000000000000000000000000000000000000000000000000000000000000000000000000000000000000000000000000000000000000000000000000000000000000000000000000000000000000000000000000000000000000000000000000000000000000000000000000000000000000000000000000000000000
1004
00000000000000000000000000000000000000000000000000000000000000000000000000000000000000000000000000000000000000000000000000000000000000000000000000000000000000000000000000000000000000000000000000000000000000000000000000000000000000000000000000000000000000
1004
00000000000000000000000000000000000000000000000000000000000000FEFEFBFEFE000000000000000000000000000000000000000000000000FEFEFEFEE7FEE7FEE700000000000000000000000000000000000000FEFEFEFE0000E7E7E7E7E7E7E7FEFEFEFE000000000000000000000000FEFEFE000000000000E7
1004
E7E7E7E7E7E700000000FEFEFEE7FEFEFEFE00000000FE0000000000000000E7E7E7E7E7E7E700000000000000E700E7E7FE000000FBFEFBFBFBFBFBFBFBFBE7E7E7E7E7E7E7FBFBFBFBFBFBFBE7FBE7E7E7FB000000FEFEFE000000000000E7E7E7E7E7E7E70000000000FEFEFEFEFEFEFE00000000000000FEFEFEFE0000
1004
E7E7E7E7E7E7E700FEFEFEFE000000000000000000000000000000000000FEFEFEFEE7FEE7E7E7FE00000000000000000000000000000000000000000000000000FEFEFBFEFE000000000000000000000000000000000000000000000000000000000000000000000000000000000000000000000000000000000000000000
1004
00000000000000000000000000000000000000000000000000000000000000000000000000000000000000000000000000000000000000000000000000000000000000000000000000000000000000000000000000000000000000000000000000000000000000000000000000000000000000000000000000000000000000
1004
00000000000000000000000000000000000000000000000000000000000000000000000000000000000000000000000000000000000000000000000000000000000000000000000000000000000000000000000000000000000000000000000000000000000000000000000000000000000000000000000000000000000000
1004
0000000000000000000000000000000000000000000000000000000000000000000000000000000000000000000000000000000000000000
  0
ENDTAB
  0
ENDSEC
  0
SECTION
  2
BLOCKS
  0
BLOCK
  5
1B
330
1A
100
AcDbEntity
  8
0
100
AcDbBlockBegin
  2
*MODEL_SPACE
 70
     0
 10
0.0
 20
0.0
 30
0.0
  3
*MODEL_SPACE
  1

  0
ENDBLK
  5
1C
330
1A
100
AcDbEntity
  8
0
100
AcDbBlockEnd
  0
BLOCK
  5
18
330
17
100
AcDbEntity
 67
     1
  8
0
100
AcDbBlockBegin
  2
*PAPER_SPACE
 70
     0
 10
0.0
 20
0.0
 30
0.0
  3
*PAPER_SPACE
  1

  0
ENDBLK
  5
19
330
17
100
AcDbEntity
 67
     1
  8
0
100
AcDbBlockEnd
  0
BLOCK
  5
598
330
594
100
AcDbEntity
  8
0
100
AcDbBlockBegin
  2
_OPEN
 70
     0
 10
0.0
 20
0.0
 30
0.0
  3
_OPEN
  1

  0
LINE
  5
595
330
594
100
AcDbEntity
  8
0
  6
BYBLOCK
 62
     0
100
AcDbLine
 10
-1.0
 20
0.16666667
 30
0.0
 11
0.0
 21
0.0
 31
0.0
  0
LINE
  5
596
330
594
100
AcDbEntity
  8
0
  6
BYBLOCK
 62
     0
100
AcDbLine
 10
-1.0
 20
-0.16666667
 30
0.0
 11
0.0
 21
0.0
 31
0.0
  0
LINE
  5
597
330
594
100
AcDbEntity
  8
0
  6
BYBLOCK
 62
     0
100
AcDbLine
 10
0.0
 20
0.0
 30
0.0
 11
-1.0
 21
0.0
 31
0.0
  0
ENDBLK
  5
599
330
594
100
AcDbEntity
  8
0
100
AcDbBlockEnd
  0
BLOCK
  5
6E4
330
6E3
100
AcDbEntity
  8
0
100
AcDbBlockBegin
  2
矢印なし
 70
     0
 10
0.0
 20
0.0
 30
0.0
  3
矢印なし
  1

  0
ENDBLK
  5
6E5
330
6E3
100
AcDbEntity
  8
0
100
AcDbBlockEnd
  0
BLOCK
  5
C94
330
C8A
100
AcDbEntity
  8
0
100
AcDbBlockBegin
  2
*D2
 70
     1
 10
0.0
 20
0.0
 30
0.0
  3
*D2
  1

  0
LINE
  5
D1F
330
C8A
100
AcDbEntity
  8
250
  6
CONTINUOUS
100
AcDbLine
 10
120.5
 20
-8.0
 30
0.0
 11
134.0
 21
-8.0
 31
0.0
  0
LINE
  5
D20
330
C8A
100
AcDbEntity
  8
250
  6
CONTINUOUS
100
AcDbLine
 10
120.5
 20
8.0
 30
0.0
 11
134.0
 21
8.0
 31
0.0
  0
LINE
  5
D21
330
C8A
100
AcDbEntity
  8
250
  6
CONTINUOUS
100
AcDbLine
 10
133.0
 20
-5.77
 30
0.0
 11
133.0
 21
5.77
 31
0.0
  0
INSERT
  5
D22
330
C8A
100
AcDbEntity
  8
250
  6
CONTINUOUS
100
AcDbBlockReference
  2
_OPEN
 10
133.0
 20
-8.0
 30
0.0
 41
2.23
 42
2.23
 43
2.23
 50
270.0
  0
INSERT
  5
D23
330
C8A
100
AcDbEntity
  8
250
  6
CONTINUOUS
100
AcDbBlockReference
  2
_OPEN
 10
133.0
 20
8.0
 30
0.0
 41
2.23
 42
2.23
 43
2.23
 50
90.0
  0
MTEXT
  5
D24
330
C8A
100
AcDbEntity
  8
250
  6
CONTINUOUS
 62
    40
100
AcDbMText
 10
130.6
 20
0.0
 30
0.0
 40
2.8
 41
0.0
 71
     5
 72
     1
  1
\A1;{\H2.8;\U+2205}16
 11
0.0
 21
1.0
 31
0.0
1001
ACAD
1000
MTEXTBEGIN
1070
    73
1070
     1
1070
    44
1040
1.0
1070
    74
1070
     0
1000
MTEXTEND
1000
MTEXTBEGIN
1070
    73
1070
     1
1070
    44
1040
1.0
1070
    74
1070
     0
1000
MTEXTEND
  0
POINT
  5
D25
330
C8A
100
AcDbEntity
  8
DEFPOINTS
  6
CONTINUOUS
 62
     0
100
AcDbPoint
 10
120.0
 20
-8.0
 30
0.0
  0
POINT
  5
D26
330
C8A
100
AcDbEntity
  8
DEFPOINTS
  6
CONTINUOUS
 62
     0
100
AcDbPoint
 10
120.0
 20
8.0
 30
0.0
  0
POINT
  5
D27
330
C8A
100
AcDbEntity
  8
DEFPOINTS
  6
CONTINUOUS
 62
     0
100
AcDbPoint
 10
133.0
 20
8.0
 30
0.0
  0
ENDBLK
  5
C95
330
C8A
100
AcDbEntity
  8
0
100
AcDbBlockEnd
  0
BLOCK
  5
CA3
330
C99
100
AcDbEntity
  8
0
100
AcDbBlockBegin
  2
*D3
 70
     1
 10
0.0
 20
0.0
 30
0.0
  3
*D3
  1

  0
LINE
  5
D28
330
C99
100
AcDbEntity
  8
250
  6
CONTINUOUS
100
AcDbLine
 10
112.0
 20
8.5
 30
0.0
 11
112.0
 21
29.0
 31
0.0
  0
LINE
  5
D29
330
C99
100
AcDbEntity
  8
250
  6
CONTINUOUS
100
AcDbLine
 10
120.0
 20
8.50003788
 30
0.0
 11
120.0
 21
29.0
 31
0.0
  0
LINE
  5
D2A
330
C99
100
AcDbEntity
  8
250
  6
CONTINUOUS
100
AcDbLine
 10
114.23
 20
28.0
 30
0.0
 11
117.77
 21
28.0
 31
0.0
  0
INSERT
  5
D2B
330
C99
100
AcDbEntity
  8
250
  6
CONTINUOUS
100
AcDbBlockReference
  2
_OPEN
 10
112.0
 20
28.0
 30
0.0
 41
2.23
 42
2.23
 43
2.23
 50
180.0
  0
INSERT
  5
D2C
330
C99
100
AcDbEntity
  8
250
  6
CONTINUOUS
100
AcDbBlockReference
  2
_OPEN
 10
120.0
 20
28.0
 30
0.0
 41
2.23
 42
2.23
 43
2.23
  0
MTEXT
  5
D2D
330
C99
100
AcDbEntity
  8
250
  6
CONTINUOUS
 62
    40
100
AcDbMText
 10
116.0
 20
30.4
 30
0.0
 40
2.8
 41
0.0
 71
     5
 72
     1
  1
\A1;8
1001
ACAD
1000
MTEXTBEGIN
1070
    73
1070
     1
1070
    44
1040
1.0
1070
    74
1070
     0
1000
MTEXTEND
1000
MTEXTBEGIN
1070
    73
1070
     1
1070
    44
1040
1.0
1070
    74
1070
     0
1000
MTEXTEND
  0
POINT
  5
D2E
330
C99
100
AcDbEntity
  8
DEFPOINTS
  6
CONTINUOUS
 62
     0
100
AcDbPoint
 10
112.0
 20
8.0
 30
0.0
  0
POINT
  5
D2F
330
C99
100
AcDbEntity
  8
DEFPOINTS
  6
CONTINUOUS
 62
     0
100
AcDbPoint
 10
120.0
 20
8.00003788
 30
0.0
  0
POINT
  5
D30
330
C99
100
AcDbEntity
  8
DEFPOINTS
  6
CONTINUOUS
 62
     0
100
AcDbPoint
 10
120.0
 20
28.0
 30
0.0
  0
ENDBLK
  5
CA4
330
C99
100
AcDbEntity
  8
0
100
AcDbBlockEnd
  0
BLOCK
  5
CB2
330
CA8
100
AcDbEntity
  8
0
100
AcDbBlockBegin
  2
*D4
 70
     1
 10
0.0
 20
0.0
 30
0.0
  3
*D4
  1

  0
LINE
  5
D16
330
CA8
100
AcDbEntity
  8
250
  6
CONTINUOUS
100
AcDbLine
 10
90.0
 20
8.07948389
 30
0.0
 11
90.0
 21
36.0
 31
0.0
  0
LINE
  5
D17
330
CA8
100
AcDbEntity
  8
250
  6
CONTINUOUS
100
AcDbLine
 10
120.0
 20
8.5
 30
0.0
 11
120.0
 21
36.0
 31
0.0
  0
LINE
  5
D18
330
CA8
100
AcDbEntity
  8
250
  6
CONTINUOUS
100
AcDbLine
 10
92.23
 20
35.0
 30
0.0
 11
117.77
 21
35.0
 31
0.0
  0
INSERT
  5
D19
330
CA8
100
AcDbEntity
  8
250
  6
CONTINUOUS
100
AcDbBlockReference
  2
_OPEN
 10
90.0
 20
35.0
 30
0.0
 41
2.23
 42
2.23
 43
2.23
 50
180.0
  0
INSERT
  5
D1A
330
CA8
100
AcDbEntity
  8
250
  6
CONTINUOUS
100
AcDbBlockReference
  2
_OPEN
 10
120.0
 20
35.0
 30
0.0
 41
2.23
 42
2.23
 43
2.23
  0
MTEXT
  5
D1B
330
CA8
100
AcDbEntity
  8
250
  6
CONTINUOUS
 62
    40
100
AcDbMText
 10
105.0
 20
37.4
 30
0.0
 40
2.8
 41
0.0
 71
     5
 72
     1
  1
\A1;30
1001
ACAD
1000
MTEXTBEGIN
1070
    73
1070
     1
1070
    44
1040
1.0
1070
    74
1070
     0
1000
MTEXTEND
1000
MTEXTBEGIN
1070
    73
1070
     1
1070
    44
1040
1.0
1070
    74
1070
     0
1000
MTEXTEND
  0
POINT
  5
D1C
330
CA8
100
AcDbEntity
  8
DEFPOINTS
  6
CONTINUOUS
 62
     0
100
AcDbPoint
 10
90.0
 20
7.57948389
 30
0.0
  0
POINT
  5
D1D
330
CA8
100
AcDbEntity
  8
DEFPOINTS
  6
CONTINUOUS
 62
     0
100
AcDbPoint
 10
120.0
 20
8.0
 30
0.0
  0
POINT
  5
D1E
330
CA8
100
AcDbEntity
  8
DEFPOINTS
  6
CONTINUOUS
 62
     0
100
AcDbPoint
 10
120.0
 20
35.0
 30
0.0
  0
ENDBLK
  5
CB3
330
CA8
100
AcDbEntity
  8
0
100
AcDbBlockEnd
  0
BLOCK
  5
CC1
330
CB7
100
AcDbEntity
  8
0
100
AcDbBlockBegin
  2
*D5
 70
     1
 10
0.0
 20
0.0
 30
0.0
  3
*D5
  1

  0
LINE
  5
D0D
330
CB7
100
AcDbEntity
  8
250
  6
CONTINUOUS
100
AcDbLine
 10
0.0
 20
22.725
 30
0.0
 11
0.0
 21
43.0
 31
0.0
  0
LINE
  5
D0E
330
CB7
100
AcDbEntity
  8
250
  6
CONTINUOUS
100
AcDbLine
 10
120.0
 20
8.5
 30
0.0
 11
120.0
 21
43.0
 31
0.0
  0
LINE
  5
D0F
330
CB7
100
AcDbEntity
  8
250
  6
CONTINUOUS
100
AcDbLine
 10
2.23
 20
42.0
 30
0.0
 11
117.77
 21
42.0
 31
0.0
  0
INSERT
  5
D10
330
CB7
100
AcDbEntity
  8
250
  6
CONTINUOUS
100
AcDbBlockReference
  2
_OPEN
 10
0.0
 20
42.0
 30
0.0
 41
2.23
 42
2.23
 43
2.23
 50
180.0
  0
INSERT
  5
D11
330
CB7
100
AcDbEntity
  8
250
  6
CONTINUOUS
100
AcDbBlockReference
  2
_OPEN
 10
120.0
 20
42.0
 30
0.0
 41
2.23
 42
2.23
 43
2.23
  0
MTEXT
  5
D12
330
CB7
100
AcDbEntity
  8
250
  6
CONTINUOUS
 62
    40
100
AcDbMText
 10
60.0
 20
44.4
 30
0.0
 40
2.8
 41
0.0
 71
     5
 72
     1
  1
\A1;120
1001
ACAD
1000
MTEXTBEGIN
1070
    73
1070
     1
1070
    44
1040
1.0
1070
    74
1070
     0
1000
MTEXTEND
1000
MTEXTBEGIN
1070
    73
1070
     1
1070
    44
1040
1.0
1070
    74
1070
     0
1000
MTEXTEND
  0
POINT
  5
D13
330
CB7
100
AcDbEntity
  8
DEFPOINTS
  6
CONTINUOUS
 62
     0
100
AcDbPoint
 10
0.0
 20
22.225
 30
0.0
  0
POINT
  5
D14
330
CB7
100
AcDbEntity
  8
DEFPOINTS
  6
CONTINUOUS
 62
     0
100
AcDbPoint
 10
120.0
 20
8.0
 30
0.0
  0
POINT
  5
D15
330
CB7
100
AcDbEntity
  8
DEFPOINTS
  6
CONTINUOUS
 62
     0
100
AcDbPoint
 10
120.0
 20
42.0
 30
0.0
  0
ENDBLK
  5
CC2
330
CB7
100
AcDbEntity
  8
0
100
AcDbBlockEnd
  0
BLOCK
  5
D32
330
D31
100
AcDbEntity
  8
0
100
AcDbBlockBegin
  2
1
 70
     0
 10
0.0
 20
0.0
 30
0.0
  3
1
  1

  0
LINE
  5
1201
330
D31
100
AcDbEntity
  8
240
  6
CONTINUOUS
100
AcDbLine
 10
21.6
 20
31.5
 30
0.0
 11
26.0
 21
31.5
 31
0.0
  0
LINE
  5
1202
330
D31
100
AcDbEntity
  8
240
  6
CONTINUOUS
100
AcDbLine
 10
21.6
 20
-31.5
 30
0.0
 11
26.0
 21
-31.5
 31
0.0
  0
LINE
  5
1203
330
D31
100
AcDbEntity
  8
245
100
AcDbLine
 10
-66.4
 20
0.0
 30
0.0
 11
121.0
 21
0.0
 31
0.0
  0
LINE
  5
1204
330
D31
100
AcDbEntity
  8
241
  6
HIDDEN2
100
AcDbLine
 10
23.0
 20
22.5
 30
0.0
 11
23.0
 21
31.5
 31
0.0
  0
LINE
  5
1205
330
D31
100
AcDbEntity
  8
240
  6
CONTINUOUS
100
AcDbLine
 10
21.6
 20
31.5
 30
0.0
 11
18.71324865
 21
26.5
 31
0.0
  0
LINE
  5
1206
330
D31
100
AcDbEntity
  8
240
  6
CONTINUOUS
100
AcDbLine
 10
1.0
 20
22.225
 30
0.0
 11
1.0
 21
30.5
 31
0.0
  0
LINE
  5
1207
330
D31
100
AcDbEntity
  8
240
  6
CONTINUOUS
100
AcDbLine
 10
11.6
 20
31.5
 30
0.0
 11
14.48675135
 21
26.5
 31
0.0
  0
LINE
  5
1208
330
D31
100
AcDbEntity
  8
241
  6
CONTINUOUS
100
AcDbLine
 10
11.6
 20
31.5
 30
0.0
 11
11.6
 21
0.0
 31
0.0
  0
LINE
  5
1209
330
D31
100
AcDbEntity
  8
241
  6
CONTINUOUS
100
AcDbLine
 10
21.6
 20
0.0
 30
0.0
 11
21.6
 21
31.5
 31
0.0
  0
LINE
  5
120A
330
D31
100
AcDbEntity
  8
245
  6
CENTER2
100
AcDbLine
 10
16.6
 20
-31.5
 30
0.0
 11
16.6
 21
31.5
 31
0.0
  0
LINE
  5
120B
330
D31
100
AcDbEntity
  8
240
  6
CONTINUOUS
100
AcDbLine
 10
0.0
 20
-22.225
 30
0.0
 11
-64.03089103
 21
-12.88716173
 31
0.0
  0
LINE
  5
120C
330
D31
100
AcDbEntity
  8
240
  6
CONTINUOUS
100
AcDbLine
 10
0.0
 20
22.225
 30
0.0
 11
-64.03089103
 21
12.88716173
 31
0.0
  0
LINE
  5
120D
330
D31
100
AcDbEntity
  8
240
  6
CONTINUOUS
100
AcDbLine
 10
-65.4
 20
11.30390896
 30
0.0
 11
-65.4
 21
0.0
 31
0.0
  0
LINE
  5
120E
330
D31
100
AcDbEntity
  8
240
  6
CONTINUOUS
100
AcDbLine
 10
-65.4
 20
-11.30390896
 30
0.0
 11
-65.4
 21
0.0
 31
0.0
  0
ARC
  5
120F
330
D31
100
AcDbEntity
  8
240
  6
CONTINUOUS
100
AcDbCircle
 10
-63.8
 20
-11.30390896
 30
0.0
 40
1.6
100
AcDbArc
 50
180.0
 51
261.70285503
  0
ARC
  5
1210
330
D31
100
AcDbEntity
  8
240
  6
CONTINUOUS
100
AcDbCircle
 10
-63.8
 20
11.30390896
 30
0.0
 40
1.6
100
AcDbArc
 50
98.29714497
 51
180.0
  0
LINE
  5
1211
330
D31
100
AcDbEntity
  8
241
  6
CONTINUOUS
100
AcDbLine
 10
0.0
 20
-22.225
 30
0.0
 11
0.0
 21
0.0
 31
0.0
  0
LINE
  5
1212
330
D31
100
AcDbEntity
  8
241
100
AcDbLine
 10
1.0
 20
0.0
 30
0.0
 11
1.0
 21
-22.225
 31
0.0
  0
LINE
  5
1213
330
D31
100
AcDbEntity
  8
241
  6
CONTINUOUS
100
AcDbLine
 10
11.6
 20
-31.5
 30
0.0
 11
11.6
 21
0.0
 31
0.0
  0
LINE
  5
1214
330
D31
100
AcDbEntity
  8
241
  6
CONTINUOUS
100
AcDbLine
 10
21.6
 20
0.0
 30
0.0
 11
21.6
 21
-31.5
 31
0.0
  0
LINE
  5
1215
330
D31
100
AcDbEntity
  8
241
  6
CONTINUOUS
100
AcDbLine
 10
18.71324865
 20
-26.5
 30
0.0
 11
18.71324865
 21
0.0
 31
0.0
  0
LINE
  5
1216
330
D31
100
AcDbEntity
  8
241
  6
CONTINUOUS
100
AcDbLine
 10
14.48675135
 20
-26.5
 30
0.0
 11
14.48675135
 21
0.0
 31
0.0
  0
LINE
  5
1217
330
D31
100
AcDbEntity
  8
241
  6
HIDDEN2
100
AcDbLine
 10
23.0
 20
-22.5
 30
0.0
 11
1.0
 21
-22.5
 31
0.0
  0
LINE
  5
1218
330
D31
100
AcDbEntity
  8
240
  6
CONTINUOUS
100
AcDbLine
 10
2.0
 20
-31.5
 30
0.0
 11
11.6
 21
-31.5
 31
0.0
  0
LINE
  5
1219
330
D31
100
AcDbEntity
  8
240
  6
CONTINUOUS
100
AcDbLine
 10
1.0
 20
-22.225
 30
0.0
 11
1.0
 21
-30.5
 31
0.0
  0
ARC
  5
121A
330
D31
100
AcDbEntity
  8
240
  6
CONTINUOUS
100
AcDbCircle
 10
2.0
 20
-30.5
 30
0.0
 40
1.0
100
AcDbArc
 50
180.0
 51
270.0
  0
LINE
  5
121B
330
D31
100
AcDbEntity
  8
240
100
AcDbLine
 10
0.0
 20
-22.225
 30
0.0
 11
1.0
 21
-22.225
 31
0.0
  0
LINE
  5
121C
330
D31
100
AcDbEntity
  8
240
  6
CONTINUOUS
100
AcDbLine
 10
18.71324865
 20
-26.5
 30
0.0
 11
14.48675135
 21
-26.5
 31
0.0
  0
LINE
  5
121D
330
D31
100
AcDbEntity
  8
240
  6
CONTINUOUS
100
AcDbLine
 10
14.48675135
 20
-26.5
 30
0.0
 11
11.6
 21
-31.5
 31
0.0
  0
LINE
  5
121E
330
D31
100
AcDbEntity
  8
240
  6
CONTINUOUS
100
AcDbLine
 10
18.71324865
 20
-26.5
 30
0.0
 11
21.6
 21
-31.5
 31
0.0
  0
LINE
  5
121F
330
D31
100
AcDbEntity
  8
241
  6
HIDDEN2
100
AcDbLine
 10
23.0
 20
-22.5
 30
0.0
 11
23.0
 21
-31.5
 31
0.0
  0
LINE
  5
1220
330
D31
100
AcDbEntity
  8
241
  6
CONTINUOUS
100
AcDbLine
 10
14.48675135
 20
26.5
 30
0.0
 11
14.48675135
 21
0.0
 31
0.0
  0
LINE
  5
1221
330
D31
100
AcDbEntity
  8
241
  6
CONTINUOUS
100
AcDbLine
 10
18.71324865
 20
26.5
 30
0.0
 11
18.71324865
 21
0.0
 31
0.0
  0
LINE
  5
1222
330
D31
100
AcDbEntity
  8
241
  6
CONTINUOUS
100
AcDbLine
 10
0.0
 20
22.225
 30
0.0
 11
0.0
 21
0.0
 31
0.0
  0
LINE
  5
1223
330
D31
100
AcDbEntity
  8
241
100
AcDbLine
 10
1.0
 20
0.0
 30
0.0
 11
1.0
 21
22.225
 31
0.0
  0
LINE
  5
1224
330
D31
100
AcDbEntity
  8
241
  6
HIDDEN2
100
AcDbLine
 10
23.0
 20
22.5
 30
0.0
 11
1.0
 21
22.5
 31
0.0
  0
LINE
  5
1225
330
D31
100
AcDbEntity
  8
240
100
AcDbLine
 10
0.0
 20
22.225
 30
0.0
 11
1.0
 21
22.225
 31
0.0
  0
LINE
  5
1226
330
D31
100
AcDbEntity
  8
240
  6
CONTINUOUS
100
AcDbLine
 10
18.71324865
 20
26.5
 30
0.0
 11
14.48675135
 21
26.5
 31
0.0
  0
LINE
  5
1227
330
D31
100
AcDbEntity
  8
240
  6
CONTINUOUS
100
AcDbLine
 10
2.0
 20
31.5
 30
0.0
 11
11.6
 21
31.5
 31
0.0
  0
ARC
  5
1228
330
D31
100
AcDbEntity
  8
240
  6
CONTINUOUS
100
AcDbCircle
 10
2.0
 20
30.5
 30
0.0
 40
1.0
100
AcDbArc
 50
90.0
 51
180.0
  0
LINE
  5
1229
330
D31
100
AcDbEntity
  8
241
  6
CONTINUOUS
100
AcDbLine
 10
27.0
 20
0.0
 30
0.0
 11
27.0
 21
29.99986151
 31
0.0
  0
ARC
  5
122A
330
D31
100
AcDbEntity
  8
240
100
AcDbCircle
 10
32.0
 20
29.99986151
 30
0.0
 40
5.0
100
AcDbArc
 50
180.0
 51
253.18616745
  0
LINE
  5
122B
330
D31
100
AcDbEntity
  8
240
100
AcDbLine
 10
108.88708866
 20
7.25003788
 30
0.0
 11
94.43375983
 21
7.25003788
 31
0.0
  0
LINE
  5
122C
330
D31
100
AcDbEntity
  8
240
100
AcDbLine
 10
108.88708862
 20
-7.24996212
 30
0.0
 11
94.43375983
 21
-7.24996212
 31
0.0
  0
LINE
  5
122D
330
D31
100
AcDbEntity
  8
241
  6
CONTINUOUS
100
AcDbLine
 10
27.0
 20
0.0
 30
0.0
 11
27.0
 21
-29.99996212
 31
0.0
  0
LINE
  5
122E
330
D31
100
AcDbEntity
  8
240
100
AcDbLine
 10
85.75578853
 20
-8.53249681
 30
0.0
 11
30.55367145
 21
-25.21371791
 31
0.0
  0
LINE
  5
122F
330
D31
100
AcDbEntity
  8
241
  6
CONTINUOUS
100
AcDbLine
 10
35.19423813
 20
-23.81141084
 30
0.0
 11
35.19423813
 21
0.00003788
 31
0.0
1001
GRPNAME
1000
PASTMD01
  0
LINE
  5
1230
330
D31
100
AcDbEntity
  8
241
  6
CONTINUOUS
100
AcDbLine
 10
36.34293674
 20
-23.46429199
 30
0.0
 11
36.34293674
 21
0.00005313
 31
0.0
1001
GRPNAME
1000
PASTMD01
  0
LINE
  5
1231
330
D31
100
AcDbEntity
  8
241
  6
CONTINUOUS
100
AcDbLine
 10
31.19423813
 20
-25.02014862
 30
0.0
 11
31.19423813
 21
-0.00001526
 31
0.0
1001
GRPNAME
1000
PASTMD01
  0
LINE
  5
1232
330
D31
100
AcDbEntity
  8
241
  6
CONTINUOUS
100
AcDbLine
 10
32.34293674
 20
-24.67302977
 30
0.0
 11
32.34293674
 21
0.0
 31
0.0
1001
GRPNAME
1000
PASTMD01
  0
ARC
  5
1233
330
D31
100
AcDbEntity
  8
240
100
AcDbCircle
 10
32.0
 20
-29.99996212
 30
0.0
 40
5.0
100
AcDbArc
 50
106.81401788
 51
180.0000176
  0
LINE
  5
1234
330
D31
100
AcDbEntity
  8
240
  6
CONTINUOUS
100
AcDbLine
 10
27.0
 20
-30.5
 30
0.0
 11
27.0
 21
-29.99996212
 31
0.0
  0
ARC
  5
1235
330
D31
100
AcDbEntity
  8
240
  6
CONTINUOUS
100
AcDbCircle
 10
26.0
 20
-30.5
 30
0.0
 40
1.0
100
AcDbArc
 50
270.0
 51
0.0
  0
LINE
  5
1236
330
D31
100
AcDbEntity
  8
240
100
AcDbLine
 10
85.75578853
 20
8.53257256
 30
0.0
 11
30.55368546
 21
25.21361306
 31
0.0
  0
LINE
  5
1237
330
D31
100
AcDbEntity
  8
241
  6
CONTINUOUS
100
AcDbLine
 10
36.34231335
 20
23.46439825
 30
0.0
 11
36.34293674
 21
0.00005313
 31
0.0
1001
GRPNAME
1000
PASTMD01
  0
LINE
  5
1238
330
D31
100
AcDbEntity
  8
241
  6
CONTINUOUS
100
AcDbLine
 10
35.19360552
 20
23.81148658
 30
0.0
 11
35.19423813
 21
0.00003788
 31
0.0
1001
GRPNAME
1000
PASTMD01
  0
LINE
  5
1239
330
D31
100
AcDbEntity
  8
241
  6
CONTINUOUS
100
AcDbLine
 10
32.34228124
 20
24.67302976
 30
0.0
 11
32.34293674
 21
0.0
 31
0.0
1001
GRPNAME
1000
PASTMD01
  0
LINE
  5
123A
330
D31
100
AcDbEntity
  8
241
  6
CONTINUOUS
100
AcDbLine
 10
31.19357341
 20
25.02011809
 30
0.0
 11
31.19423813
 21
-0.00001526
 31
0.0
1001
GRPNAME
1000
PASTMD01
  0
LINE
  5
123B
330
D31
100
AcDbEntity
  8
241
100
AcDbLine
 10
90.0
 20
7.24996212
 30
0.0
 11
90.0
 21
0.0
 31
0.0
  0
ARC
  5
123C
330
D31
100
AcDbEntity
  8
240
100
AcDbCircle
 10
94.43375983
 20
-37.24996212
 30
0.0
 40
30.0
100
AcDbArc
 50
90.0
 51
106.81400028
  0
LINE
  5
123D
330
D31
100
AcDbEntity
  8
241
100
AcDbLine
 10
90.0
 20
-7.24996212
 30
0.0
 11
90.0
 21
0.0
 31
0.0
  0
ARC
  5
123E
330
D31
100
AcDbEntity
  8
240
100
AcDbCircle
 10
94.43375983
 20
37.25003788
 30
0.0
 40
30.0
100
AcDbArc
 50
253.18599972
 51
270.0
  0
LINE
  5
123F
330
D31
100
AcDbEntity
  8
240
100
AcDbLine
 10
119.25
 20
7.39780491
 30
0.0
 11
119.25
 21
0.82938887
 31
0.0
  0
LINE
  5
1240
330
D31
100
AcDbEntity
  8
246
100
AcDbLine
 10
120.0
 20
-7.99996212
 30
0.0
 11
120.0
 21
8.00003788
 31
0.0
  0
LINE
  5
1241
330
D31
100
AcDbEntity
  8
240
100
AcDbLine
 10
120.0
 20
-3.71996212
 30
0.0
 11
119.25
 21
-3.44698444
 31
0.0
  0
LINE
  5
1242
330
D31
100
AcDbEntity
  8
240
100
AcDbLine
 10
119.19615249
 20
0.83888364
 30
0.0
 11
120.0
 21
-3.71996212
 31
0.0
  0
LINE
  5
1243
330
D31
100
AcDbEntity
  8
246
100
AcDbLine
 10
112.0
 20
-8.0
 30
0.0
 11
120.0
 21
-8.0
 31
0.0
  0
LINE
  5
1244
330
D31
100
AcDbEntity
  8
241
100
AcDbLine
 10
108.96385986
 20
0.29686439
 30
0.0
 11
119.25
 21
-3.44698444
 31
0.0
  0
LINE
  5
1245
330
D31
100
AcDbEntity
  8
241
100
AcDbLine
 10
110.19330642
 20
2.42632831
 30
0.0
 11
119.19615249
 21
0.83888364
 31
0.0
  0
LINE
  5
1246
330
D31
100
AcDbEntity
  8
241
100
AcDbLine
 10
103.36390401
 20
-4.31817652
 30
0.0
 11
119.25
 21
-7.23340731
 31
0.0
  0
LINE
  5
1247
330
D31
100
AcDbEntity
  8
240
100
AcDbLine
 10
119.25
 20
-7.39772916
 30
0.0
 11
110.19330642
 21
-7.59996213
 31
0.0
  0
ARC
  5
1248
330
D31
100
AcDbEntity
  8
241
100
AcDbCircle
 10
103.8294869
 20
-1.78105508
 30
0.0
 40
2.579486895640701
100
AcDbArc
 50
79.9999824
 51
259.60142492
  0
LINE
  5
1249
330
D31
100
AcDbEntity
  8
240
100
AcDbLine
 10
108.88708862
 20
-7.24996212
 30
0.0
 11
110.19330642
 21
-7.59996213
 31
0.0
  0
LINE
  5
124A
330
D31
100
AcDbEntity
  8
241
100
AcDbLine
 10
108.77313855
 20
-0.03347461
 30
0.0
 11
104.27741009
 21
0.75924362
 31
0.0
  0
LINE
  5
124B
330
D31
100
AcDbEntity
  8
241
100
AcDbLine
 10
110.19330642
 20
2.42632831
 30
0.0
 11
108.77313855
 21
-0.03347461
 31
0.0
  0
LINE
  5
124C
330
D31
100
AcDbEntity
  8
240
100
AcDbLine
 10
119.25
 20
-7.39772916
 30
0.0
 11
119.25
 21
-3.44698445
 31
0.0
  0
LINE
  5
124D
330
D31
100
AcDbEntity
  8
240
100
AcDbLine
 10
119.25
 20
0.82938887
 30
0.0
 11
119.19615249
 21
0.83888364
 31
0.0
  0
LINE
  5
124E
330
D31
100
AcDbEntity
  8
246
100
AcDbLine
 10
112.0
 20
8.0
 30
0.0
 11
120.0
 21
8.0
 31
0.0
  0
LINE
  5
124F
330
D31
100
AcDbEntity
  8
240
100
AcDbLine
 10
119.25
 20
7.39780491
 30
0.0
 11
110.19330642
 21
7.60003788
 31
0.0
  0
LINE
  5
1250
330
D31
100
AcDbEntity
  8
240
100
AcDbLine
 10
108.88708866
 20
7.25003788
 30
0.0
 11
110.19330642
 21
7.60003788
 31
0.0
  0
POLYLINE
  5
1251
330
D31
100
AcDbEntity
  8
241
100
AcDb3dPolyline
 66
     1
 10
0.0
 20
0.0
 30
0.0
 70
     8
  0
VERTEX
  5
1252
330
1251
100
AcDbEntity
  8
241
100
AcDbVertex
100
AcDb3dPolylineVertex
 10
116.257
 20
5.43732
 30
0.0
 70
    32
  0
VERTEX
  5
1253
330
1251
100
AcDbEntity
  8
241
100
AcDbVertex
100
AcDb3dPolylineVertex
 10
116.261
 20
5.45794
 30
0.0
 70
    32
  0
VERTEX
  5
1254
330
1251
100
AcDbEntity
  8
241
100
AcDbVertex
100
AcDb3dPolylineVertex
 10
116.263
 20
5.4787
 30
0.0
 70
    32
  0
VERTEX
  5
1255
330
1251
100
AcDbEntity
  8
241
100
AcDbVertex
100
AcDb3dPolylineVertex
 10
116.265
 20
5.49957
 30
0.0
 70
    32
  0
VERTEX
  5
1256
330
1251
100
AcDbEntity
  8
241
100
AcDbVertex
100
AcDb3dPolylineVertex
 10
116.265
 20
5.52054
 30
0.0
 70
    32
  0
VERTEX
  5
1257
330
1251
100
AcDbEntity
  8
241
100
AcDbVertex
100
AcDb3dPolylineVertex
 10
116.265
 20
5.54161
 30
0.0
 70
    32
  0
VERTEX
  5
1258
330
1251
100
AcDbEntity
  8
241
100
AcDbVertex
100
AcDb3dPolylineVertex
 10
116.265
 20
5.56275
 30
0.0
 70
    32
  0
VERTEX
  5
1259
330
1251
100
AcDbEntity
  8
241
100
AcDbVertex
100
AcDb3dPolylineVertex
 10
116.263
 20
5.58396
 30
0.0
 70
    32
  0
VERTEX
  5
125A
330
1251
100
AcDbEntity
  8
241
100
AcDbVertex
100
AcDb3dPolylineVertex
 10
116.261
 20
5.60522
 30
0.0
 70
    32
  0
VERTEX
  5
125B
330
1251
100
AcDbEntity
  8
241
100
AcDbVertex
100
AcDb3dPolylineVertex
 10
116.257
 20
5.62653
 30
0.0
 70
    32
  0
VERTEX
  5
125C
330
1251
100
AcDbEntity
  8
241
100
AcDbVertex
100
AcDb3dPolylineVertex
 10
116.253
 20
5.64785
 30
0.0
 70
    32
  0
VERTEX
  5
125D
330
1251
100
AcDbEntity
  8
241
100
AcDbVertex
100
AcDb3dPolylineVertex
 10
116.249
 20
5.6692
 30
0.0
 70
    32
  0
VERTEX
  5
125E
330
1251
100
AcDbEntity
  8
241
100
AcDbVertex
100
AcDb3dPolylineVertex
 10
116.243
 20
5.69054
 30
0.0
 70
    32
  0
VERTEX
  5
125F
330
1251
100
AcDbEntity
  8
241
100
AcDbVertex
100
AcDb3dPolylineVertex
 10
116.237
 20
5.71188
 30
0.0
 70
    32
  0
VERTEX
  5
1260
330
1251
100
AcDbEntity
  8
241
100
AcDbVertex
100
AcDb3dPolylineVertex
 10
116.229
 20
5.73319
 30
0.0
 70
    32
  0
VERTEX
  5
1261
330
1251
100
AcDbEntity
  8
241
100
AcDbVertex
100
AcDb3dPolylineVertex
 10
116.221
 20
5.75446
 30
0.0
 70
    32
  0
VERTEX
  5
1262
330
1251
100
AcDbEntity
  8
241
100
AcDbVertex
100
AcDb3dPolylineVertex
 10
116.213
 20
5.77568
 30
0.0
 70
    32
  0
VERTEX
  5
1263
330
1251
100
AcDbEntity
  8
241
100
AcDbVertex
100
AcDb3dPolylineVertex
 10
116.203
 20
5.79684
 30
0.0
 70
    32
  0
VERTEX
  5
1264
330
1251
100
AcDbEntity
  8
241
100
AcDbVertex
100
AcDb3dPolylineVertex
 10
116.193
 20
5.81793
 30
0.0
 70
    32
  0
VERTEX
  5
1265
330
1251
100
AcDbEntity
  8
241
100
AcDbVertex
100
AcDb3dPolylineVertex
 10
116.182
 20
5.83893
 30
0.0
 70
    32
  0
VERTEX
  5
1266
330
1251
100
AcDbEntity
  8
241
100
AcDbVertex
100
AcDb3dPolylineVertex
 10
116.17
 20
5.85982
 30
0.0
 70
    32
  0
VERTEX
  5
1267
330
1251
100
AcDbEntity
  8
241
100
AcDbVertex
100
AcDb3dPolylineVertex
 10
116.157
 20
5.88061
 30
0.0
 70
    32
  0
VERTEX
  5
1268
330
1251
100
AcDbEntity
  8
241
100
AcDbVertex
100
AcDb3dPolylineVertex
 10
116.144
 20
5.90126
 30
0.0
 70
    32
  0
VERTEX
  5
1269
330
1251
100
AcDbEntity
  8
241
100
AcDbVertex
100
AcDb3dPolylineVertex
 10
116.13
 20
5.92178
 30
0.0
 70
    32
  0
VERTEX
  5
126A
330
1251
100
AcDbEntity
  8
241
100
AcDbVertex
100
AcDb3dPolylineVertex
 10
116.115
 20
5.94215
 30
0.0
 70
    32
  0
VERTEX
  5
126B
330
1251
100
AcDbEntity
  8
241
100
AcDbVertex
100
AcDb3dPolylineVertex
 10
116.1
 20
5.96236
 30
0.0
 70
    32
  0
VERTEX
  5
126C
330
1251
100
AcDbEntity
  8
241
100
AcDbVertex
100
AcDb3dPolylineVertex
 10
116.084
 20
5.98239
 30
0.0
 70
    32
  0
VERTEX
  5
126D
330
1251
100
AcDbEntity
  8
241
100
AcDbVertex
100
AcDb3dPolylineVertex
 10
116.067
 20
6.00223
 30
0.0
 70
    32
  0
VERTEX
  5
126E
330
1251
100
AcDbEntity
  8
241
100
AcDbVertex
100
AcDb3dPolylineVertex
 10
116.049
 20
6.02187
 30
0.0
 70
    32
  0
VERTEX
  5
126F
330
1251
100
AcDbEntity
  8
241
100
AcDbVertex
100
AcDb3dPolylineVertex
 10
116.031
 20
6.04131
 30
0.0
 70
    32
  0
VERTEX
  5
1270
330
1251
100
AcDbEntity
  8
241
100
AcDbVertex
100
AcDb3dPolylineVertex
 10
116.012
 20
6.06052
 30
0.0
 70
    32
  0
VERTEX
  5
1271
330
1251
100
AcDbEntity
  8
241
100
AcDbVertex
100
AcDb3dPolylineVertex
 10
115.993
 20
6.07949
 30
0.0
 70
    32
  0
VERTEX
  5
1272
330
1251
100
AcDbEntity
  8
241
100
AcDbVertex
100
AcDb3dPolylineVertex
 10
115.972
 20
6.09823
 30
0.0
 70
    32
  0
VERTEX
  5
1273
330
1251
100
AcDbEntity
  8
241
100
AcDbVertex
100
AcDb3dPolylineVertex
 10
115.951
 20
6.1167
 30
0.0
 70
    32
  0
VERTEX
  5
1274
330
1251
100
AcDbEntity
  8
241
100
AcDbVertex
100
AcDb3dPolylineVertex
 10
115.93
 20
6.13491
 30
0.0
 70
    32
  0
VERTEX
  5
1275
330
1251
100
AcDbEntity
  8
241
100
AcDbVertex
100
AcDb3dPolylineVertex
 10
115.908
 20
6.15283
 30
0.0
 70
    32
  0
VERTEX
  5
1276
330
1251
100
AcDbEntity
  8
241
100
AcDbVertex
100
AcDb3dPolylineVertex
 10
115.885
 20
6.17047
 30
0.0
 70
    32
  0
VERTEX
  5
1277
330
1251
100
AcDbEntity
  8
241
100
AcDbVertex
100
AcDb3dPolylineVertex
 10
115.862
 20
6.18781
 30
0.0
 70
    32
  0
VERTEX
  5
1278
330
1251
100
AcDbEntity
  8
241
100
AcDbVertex
100
AcDb3dPolylineVertex
 10
115.838
 20
6.20483
 30
0.0
 70
    32
  0
VERTEX
  5
1279
330
1251
100
AcDbEntity
  8
241
100
AcDbVertex
100
AcDb3dPolylineVertex
 10
115.814
 20
6.22154
 30
0.0
 70
    32
  0
VERTEX
  5
127A
330
1251
100
AcDbEntity
  8
241
100
AcDbVertex
100
AcDb3dPolylineVertex
 10
115.789
 20
6.23791
 30
0.0
 70
    32
  0
VERTEX
  5
127B
330
1251
100
AcDbEntity
  8
241
100
AcDbVertex
100
AcDb3dPolylineVertex
 10
115.764
 20
6.25394
 30
0.0
 70
    32
  0
VERTEX
  5
127C
330
1251
100
AcDbEntity
  8
241
100
AcDbVertex
100
AcDb3dPolylineVertex
 10
115.738
 20
6.26963
 30
0.0
 70
    32
  0
VERTEX
  5
127D
330
1251
100
AcDbEntity
  8
241
100
AcDbVertex
100
AcDb3dPolylineVertex
 10
115.712
 20
6.28495
 30
0.0
 70
    32
  0
VERTEX
  5
127E
330
1251
100
AcDbEntity
  8
241
100
AcDbVertex
100
AcDb3dPolylineVertex
 10
115.685
 20
6.2999
 30
0.0
 70
    32
  0
VERTEX
  5
127F
330
1251
100
AcDbEntity
  8
241
100
AcDbVertex
100
AcDb3dPolylineVertex
 10
115.657
 20
6.31447
 30
0.0
 70
    32
  0
VERTEX
  5
1280
330
1251
100
AcDbEntity
  8
241
100
AcDbVertex
100
AcDb3dPolylineVertex
 10
115.63
 20
6.32866
 30
0.0
 70
    32
  0
VERTEX
  5
1281
330
1251
100
AcDbEntity
  8
241
100
AcDbVertex
100
AcDb3dPolylineVertex
 10
115.602
 20
6.34245
 30
0.0
 70
    32
  0
VERTEX
  5
1282
330
1251
100
AcDbEntity
  8
241
100
AcDbVertex
100
AcDb3dPolylineVertex
 10
115.573
 20
6.35584
 30
0.0
 70
    32
  0
VERTEX
  5
1283
330
1251
100
AcDbEntity
  8
241
100
AcDbVertex
100
AcDb3dPolylineVertex
 10
115.544
 20
6.36881
 30
0.0
 70
    32
  0
VERTEX
  5
1284
330
1251
100
AcDbEntity
  8
241
100
AcDbVertex
100
AcDb3dPolylineVertex
 10
115.515
 20
6.38137
 30
0.0
 70
    32
  0
VERTEX
  5
1285
330
1251
100
AcDbEntity
  8
241
100
AcDbVertex
100
AcDb3dPolylineVertex
 10
115.485
 20
6.3935
 30
0.0
 70
    32
  0
VERTEX
  5
1286
330
1251
100
AcDbEntity
  8
241
100
AcDbVertex
100
AcDb3dPolylineVertex
 10
115.455
 20
6.40519
 30
0.0
 70
    32
  0
VERTEX
  5
1287
330
1251
100
AcDbEntity
  8
241
100
AcDbVertex
100
AcDb3dPolylineVertex
 10
115.425
 20
6.41644
 30
0.0
 70
    32
  0
VERTEX
  5
1288
330
1251
100
AcDbEntity
  8
241
100
AcDbVertex
100
AcDb3dPolylineVertex
 10
115.394
 20
6.42724
 30
0.0
 70
    32
  0
VERTEX
  5
1289
330
1251
100
AcDbEntity
  8
241
100
AcDbVertex
100
AcDb3dPolylineVertex
 10
115.363
 20
6.43759
 30
0.0
 70
    32
  0
VERTEX
  5
128A
330
1251
100
AcDbEntity
  8
241
100
AcDbVertex
100
AcDb3dPolylineVertex
 10
115.332
 20
6.44748
 30
0.0
 70
    32
  0
VERTEX
  5
128B
330
1251
100
AcDbEntity
  8
241
100
AcDbVertex
100
AcDb3dPolylineVertex
 10
115.301
 20
6.4569
 30
0.0
 70
    32
  0
VERTEX
  5
128C
330
1251
100
AcDbEntity
  8
241
100
AcDbVertex
100
AcDb3dPolylineVertex
 10
115.269
 20
6.46584
 30
0.0
 70
    32
  0
VERTEX
  5
128D
330
1251
100
AcDbEntity
  8
241
100
AcDbVertex
100
AcDb3dPolylineVertex
 10
115.237
 20
6.47431
 30
0.0
 70
    32
  0
VERTEX
  5
128E
330
1251
100
AcDbEntity
  8
241
100
AcDbVertex
100
AcDb3dPolylineVertex
 10
115.205
 20
6.48229
 30
0.0
 70
    32
  0
VERTEX
  5
128F
330
1251
100
AcDbEntity
  8
241
100
AcDbVertex
100
AcDb3dPolylineVertex
 10
115.173
 20
6.48979
 30
0.0
 70
    32
  0
VERTEX
  5
1290
330
1251
100
AcDbEntity
  8
241
100
AcDbVertex
100
AcDb3dPolylineVertex
 10
115.141
 20
6.49679
 30
0.0
 70
    32
  0
VERTEX
  5
1291
330
1251
100
AcDbEntity
  8
241
100
AcDbVertex
100
AcDb3dPolylineVertex
 10
115.108
 20
6.5033
 30
0.0
 70
    32
  0
VERTEX
  5
1292
330
1251
100
AcDbEntity
  8
241
100
AcDbVertex
100
AcDb3dPolylineVertex
 10
115.075
 20
6.50931
 30
0.0
 70
    32
  0
VERTEX
  5
1293
330
1251
100
AcDbEntity
  8
241
100
AcDbVertex
100
AcDb3dPolylineVertex
 10
115.043
 20
6.51481
 30
0.0
 70
    32
  0
VERTEX
  5
1294
330
1251
100
AcDbEntity
  8
241
100
AcDbVertex
100
AcDb3dPolylineVertex
 10
115.01
 20
6.5198
 30
0.0
 70
    32
  0
VERTEX
  5
1295
330
1251
100
AcDbEntity
  8
241
100
AcDbVertex
100
AcDb3dPolylineVertex
 10
114.977
 20
6.52428
 30
0.0
 70
    32
  0
VERTEX
  5
1296
330
1251
100
AcDbEntity
  8
241
100
AcDbVertex
100
AcDb3dPolylineVertex
 10
114.944
 20
6.52825
 30
0.0
 70
    32
  0
VERTEX
  5
1297
330
1251
100
AcDbEntity
  8
241
100
AcDbVertex
100
AcDb3dPolylineVertex
 10
114.912
 20
6.5317
 30
0.0
 70
    32
  0
VERTEX
  5
1298
330
1251
100
AcDbEntity
  8
241
100
AcDbVertex
100
AcDb3dPolylineVertex
 10
114.879
 20
6.53464
 30
0.0
 70
    32
  0
VERTEX
  5
1299
330
1251
100
AcDbEntity
  8
241
100
AcDbVertex
100
AcDb3dPolylineVertex
 10
114.846
 20
6.53705
 30
0.0
 70
    32
  0
VERTEX
  5
129A
330
1251
100
AcDbEntity
  8
241
100
AcDbVertex
100
AcDb3dPolylineVertex
 10
114.813
 20
6.53895
 30
0.0
 70
    32
  0
VERTEX
  5
129B
330
1251
100
AcDbEntity
  8
241
100
AcDbVertex
100
AcDb3dPolylineVertex
 10
114.781
 20
6.54032
 30
0.0
 70
    32
  0
VERTEX
  5
129C
330
1251
100
AcDbEntity
  8
241
100
AcDbVertex
100
AcDb3dPolylineVertex
 10
114.748
 20
6.54117
 30
0.0
 70
    32
  0
VERTEX
  5
129D
330
1251
100
AcDbEntity
  8
241
100
AcDbVertex
100
AcDb3dPolylineVertex
 10
114.716
 20
6.54149
 30
0.0
 70
    32
  0
VERTEX
  5
129E
330
1251
100
AcDbEntity
  8
241
100
AcDbVertex
100
AcDb3dPolylineVertex
 10
114.683
 20
6.54129
 30
0.0
 70
    32
  0
VERTEX
  5
129F
330
1251
100
AcDbEntity
  8
241
100
AcDbVertex
100
AcDb3dPolylineVertex
 10
114.651
 20
6.54057
 30
0.0
 70
    32
  0
VERTEX
  5
12A0
330
1251
100
AcDbEntity
  8
241
100
AcDbVertex
100
AcDb3dPolylineVertex
 10
114.619
 20
6.53932
 30
0.0
 70
    32
  0
VERTEX
  5
12A1
330
1251
100
AcDbEntity
  8
241
100
AcDbVertex
100
AcDb3dPolylineVertex
 10
114.587
 20
6.53755
 30
0.0
 70
    32
  0
VERTEX
  5
12A2
330
1251
100
AcDbEntity
  8
241
100
AcDbVertex
100
AcDb3dPolylineVertex
 10
114.555
 20
6.53526
 30
0.0
 70
    32
  0
VERTEX
  5
12A3
330
1251
100
AcDbEntity
  8
241
100
AcDbVertex
100
AcDb3dPolylineVertex
 10
114.524
 20
6.53245
 30
0.0
 70
    32
  0
VERTEX
  5
12A4
330
1251
100
AcDbEntity
  8
241
100
AcDbVertex
100
AcDb3dPolylineVertex
 10
114.493
 20
6.52912
 30
0.0
 70
    32
  0
VERTEX
  5
12A5
330
1251
100
AcDbEntity
  8
241
100
AcDbVertex
100
AcDb3dPolylineVertex
 10
114.462
 20
6.52527
 30
0.0
 70
    32
  0
VERTEX
  5
12A6
330
1251
100
AcDbEntity
  8
241
100
AcDbVertex
100
AcDb3dPolylineVertex
 10
114.431
 20
6.52091
 30
0.0
 70
    32
  0
VERTEX
  5
12A7
330
1251
100
AcDbEntity
  8
241
100
AcDbVertex
100
AcDb3dPolylineVertex
 10
114.401
 20
6.51604
 30
0.0
 70
    32
  0
VERTEX
  5
12A8
330
1251
100
AcDbEntity
  8
241
100
AcDbVertex
100
AcDb3dPolylineVertex
 10
114.371
 20
6.51066
 30
0.0
 70
    32
  0
VERTEX
  5
12A9
330
1251
100
AcDbEntity
  8
241
100
AcDbVertex
100
AcDb3dPolylineVertex
 10
114.341
 20
6.50478
 30
0.0
 70
    32
  0
VERTEX
  5
12AA
330
1251
100
AcDbEntity
  8
241
100
AcDbVertex
100
AcDb3dPolylineVertex
 10
114.312
 20
6.49839
 30
0.0
 70
    32
  0
VERTEX
  5
12AB
330
1251
100
AcDbEntity
  8
241
100
AcDbVertex
100
AcDb3dPolylineVertex
 10
114.283
 20
6.49151
 30
0.0
 70
    32
  0
VERTEX
  5
12AC
330
1251
100
AcDbEntity
  8
241
100
AcDbVertex
100
AcDb3dPolylineVertex
 10
114.254
 20
6.48413
 30
0.0
 70
    32
  0
VERTEX
  5
12AD
330
1251
100
AcDbEntity
  8
241
100
AcDbVertex
100
AcDb3dPolylineVertex
 10
114.226
 20
6.47626
 30
0.0
 70
    32
  0
VERTEX
  5
12AE
330
1251
100
AcDbEntity
  8
241
100
AcDbVertex
100
AcDb3dPolylineVertex
 10
114.199
 20
6.46791
 30
0.0
 70
    32
  0
VERTEX
  5
12AF
330
1251
100
AcDbEntity
  8
241
100
AcDbVertex
100
AcDb3dPolylineVertex
 10
114.171
 20
6.45907
 30
0.0
 70
    32
  0
VERTEX
  5
12B0
330
1251
100
AcDbEntity
  8
241
100
AcDbVertex
100
AcDb3dPolylineVertex
 10
114.144
 20
6.44977
 30
0.0
 70
    32
  0
VERTEX
  5
12B1
330
1251
100
AcDbEntity
  8
241
100
AcDbVertex
100
AcDb3dPolylineVertex
 10
114.118
 20
6.43999
 30
0.0
 70
    32
  0
VERTEX
  5
12B2
330
1251
100
AcDbEntity
  8
241
100
AcDbVertex
100
AcDb3dPolylineVertex
 10
114.092
 20
6.42975
 30
0.0
 70
    32
  0
VERTEX
  5
12B3
330
1251
100
AcDbEntity
  8
241
100
AcDbVertex
100
AcDb3dPolylineVertex
 10
114.067
 20
6.41906
 30
0.0
 70
    32
  0
VERTEX
  5
12B4
330
1251
100
AcDbEntity
  8
241
100
AcDbVertex
100
AcDb3dPolylineVertex
 10
114.042
 20
6.40791
 30
0.0
 70
    32
  0
VERTEX
  5
12B5
330
1251
100
AcDbEntity
  8
241
100
AcDbVertex
100
AcDb3dPolylineVertex
 10
114.018
 20
6.39633
 30
0.0
 70
    32
  0
VERTEX
  5
12B6
330
1251
100
AcDbEntity
  8
241
100
AcDbVertex
100
AcDb3dPolylineVertex
 10
113.994
 20
6.3843
 30
0.0
 70
    32
  0
VERTEX
  5
12B7
330
1251
100
AcDbEntity
  8
241
100
AcDbVertex
100
AcDb3dPolylineVertex
 10
113.971
 20
6.37185
 30
0.0
 70
    32
  0
VERTEX
  5
12B8
330
1251
100
AcDbEntity
  8
241
100
AcDbVertex
100
AcDb3dPolylineVertex
 10
113.948
 20
6.35897
 30
0.0
 70
    32
  0
VERTEX
  5
12B9
330
1251
100
AcDbEntity
  8
241
100
AcDbVertex
100
AcDb3dPolylineVertex
 10
113.926
 20
6.34568
 30
0.0
 70
    32
  0
VERTEX
  5
12BA
330
1251
100
AcDbEntity
  8
241
100
AcDbVertex
100
AcDb3dPolylineVertex
 10
113.904
 20
6.33199
 30
0.0
 70
    32
  0
VERTEX
  5
12BB
330
1251
100
AcDbEntity
  8
241
100
AcDbVertex
100
AcDb3dPolylineVertex
 10
113.884
 20
6.31789
 30
0.0
 70
    32
  0
VERTEX
  5
12BC
330
1251
100
AcDbEntity
  8
241
100
AcDbVertex
100
AcDb3dPolylineVertex
 10
113.863
 20
6.30341
 30
0.0
 70
    32
  0
VERTEX
  5
12BD
330
1251
100
AcDbEntity
  8
241
100
AcDbVertex
100
AcDb3dPolylineVertex
 10
113.844
 20
6.28855
 30
0.0
 70
    32
  0
VERTEX
  5
12BE
330
1251
100
AcDbEntity
  8
241
100
AcDbVertex
100
AcDb3dPolylineVertex
 10
113.825
 20
6.27331
 30
0.0
 70
    32
  0
VERTEX
  5
12BF
330
1251
100
AcDbEntity
  8
241
100
AcDbVertex
100
AcDb3dPolylineVertex
 10
113.807
 20
6.25772
 30
0.0
 70
    32
  0
VERTEX
  5
12C0
330
1251
100
AcDbEntity
  8
241
100
AcDbVertex
100
AcDb3dPolylineVertex
 10
113.789
 20
6.24177
 30
0.0
 70
    32
  0
VERTEX
  5
12C1
330
1251
100
AcDbEntity
  8
241
100
AcDbVertex
100
AcDb3dPolylineVertex
 10
113.772
 20
6.22547
 30
0.0
 70
    32
  0
VERTEX
  5
12C2
330
1251
100
AcDbEntity
  8
241
100
AcDbVertex
100
AcDb3dPolylineVertex
 10
113.756
 20
6.20885
 30
0.0
 70
    32
  0
VERTEX
  5
12C3
330
1251
100
AcDbEntity
  8
241
100
AcDbVertex
100
AcDb3dPolylineVertex
 10
113.741
 20
6.19189
 30
0.0
 70
    32
  0
VERTEX
  5
12C4
330
1251
100
AcDbEntity
  8
241
100
AcDbVertex
100
AcDb3dPolylineVertex
 10
113.726
 20
6.17463
 30
0.0
 70
    32
  0
VERTEX
  5
12C5
330
1251
100
AcDbEntity
  8
241
100
AcDbVertex
100
AcDb3dPolylineVertex
 10
113.712
 20
6.15706
 30
0.0
 70
    32
  0
VERTEX
  5
12C6
330
1251
100
AcDbEntity
  8
241
100
AcDbVertex
100
AcDb3dPolylineVertex
 10
113.698
 20
6.13921
 30
0.0
 70
    32
  0
VERTEX
  5
12C7
330
1251
100
AcDbEntity
  8
241
100
AcDbVertex
100
AcDb3dPolylineVertex
 10
113.686
 20
6.12107
 30
0.0
 70
    32
  0
VERTEX
  5
12C8
330
1251
100
AcDbEntity
  8
241
100
AcDbVertex
100
AcDb3dPolylineVertex
 10
113.674
 20
6.10265
 30
0.0
 70
    32
  0
VERTEX
  5
12C9
330
1251
100
AcDbEntity
  8
241
100
AcDbVertex
100
AcDb3dPolylineVertex
 10
113.663
 20
6.08398
 30
0.0
 70
    32
  0
VERTEX
  5
12CA
330
1251
100
AcDbEntity
  8
241
100
AcDbVertex
100
AcDb3dPolylineVertex
 10
113.653
 20
6.06506
 30
0.0
 70
    32
  0
VERTEX
  5
12CB
330
1251
100
AcDbEntity
  8
241
100
AcDbVertex
100
AcDb3dPolylineVertex
 10
113.643
 20
6.04591
 30
0.0
 70
    32
  0
VERTEX
  5
12CC
330
1251
100
AcDbEntity
  8
241
100
AcDbVertex
100
AcDb3dPolylineVertex
 10
113.634
 20
6.02653
 30
0.0
 70
    32
  0
VERTEX
  5
12CD
330
1251
100
AcDbEntity
  8
241
100
AcDbVertex
100
AcDb3dPolylineVertex
 10
113.626
 20
6.00693
 30
0.0
 70
    32
  0
VERTEX
  5
12CE
330
1251
100
AcDbEntity
  8
241
100
AcDbVertex
100
AcDb3dPolylineVertex
 10
113.619
 20
5.98714
 30
0.0
 70
    32
  0
VERTEX
  5
12CF
330
1251
100
AcDbEntity
  8
241
100
AcDbVertex
100
AcDb3dPolylineVertex
 10
113.613
 20
5.96715
 30
0.0
 70
    32
  0
VERTEX
  5
12D0
330
1251
100
AcDbEntity
  8
241
100
AcDbVertex
100
AcDb3dPolylineVertex
 10
113.607
 20
5.94698
 30
0.0
 70
    32
  0
VERTEX
  5
12D1
330
1251
100
AcDbEntity
  8
241
100
AcDbVertex
100
AcDb3dPolylineVertex
 10
113.602
 20
5.92665
 30
0.0
 70
    32
  0
VERTEX
  5
12D2
330
1251
100
AcDbEntity
  8
241
100
AcDbVertex
100
AcDb3dPolylineVertex
 10
113.598
 20
5.90617
 30
0.0
 70
    32
  0
SEQEND
  5
12D3
330
1251
100
AcDbEntity
  8
241
  0
POLYLINE
  5
12D4
330
D31
100
AcDbEntity
  8
241
100
AcDb3dPolyline
 66
     1
 10
0.0
 20
0.0
 30
0.0
 70
     8
  0
VERTEX
  5
12D5
330
12D4
100
AcDbEntity
  8
241
100
AcDbVertex
100
AcDb3dPolylineVertex
 10
113.598
 20
5.90617
 30
0.0
 70
    32
  0
VERTEX
  5
12D6
330
12D4
100
AcDbEntity
  8
241
100
AcDbVertex
100
AcDb3dPolylineVertex
 10
113.594
 20
5.87897
 30
0.0
 70
    32
  0
VERTEX
  5
12D7
330
12D4
100
AcDbEntity
  8
241
100
AcDbVertex
100
AcDb3dPolylineVertex
 10
113.59
 20
5.85165
 30
0.0
 70
    32
  0
VERTEX
  5
12D8
330
12D4
100
AcDbEntity
  8
241
100
AcDbVertex
100
AcDb3dPolylineVertex
 10
113.588
 20
5.82422
 30
0.0
 70
    32
  0
VERTEX
  5
12D9
330
12D4
100
AcDbEntity
  8
241
100
AcDbVertex
100
AcDb3dPolylineVertex
 10
113.586
 20
5.7967
 30
0.0
 70
    32
  0
VERTEX
  5
12DA
330
12D4
100
AcDbEntity
  8
241
100
AcDbVertex
100
AcDb3dPolylineVertex
 10
113.584
 20
5.76911
 30
0.0
 70
    32
  0
VERTEX
  5
12DB
330
12D4
100
AcDbEntity
  8
241
100
AcDbVertex
100
AcDb3dPolylineVertex
 10
113.584
 20
5.74145
 30
0.0
 70
    32
  0
VERTEX
  5
12DC
330
12D4
100
AcDbEntity
  8
241
100
AcDbVertex
100
AcDb3dPolylineVertex
 10
113.585
 20
5.71375
 30
0.0
 70
    32
  0
VERTEX
  5
12DD
330
12D4
100
AcDbEntity
  8
241
100
AcDbVertex
100
AcDb3dPolylineVertex
 10
113.586
 20
5.68603
 30
0.0
 70
    32
  0
VERTEX
  5
12DE
330
12D4
100
AcDbEntity
  8
241
100
AcDbVertex
100
AcDb3dPolylineVertex
 10
113.588
 20
5.6583
 30
0.0
 70
    32
  0
VERTEX
  5
12DF
330
12D4
100
AcDbEntity
  8
241
100
AcDbVertex
100
AcDb3dPolylineVertex
 10
113.591
 20
5.63058
 30
0.0
 70
    32
  0
VERTEX
  5
12E0
330
12D4
100
AcDbEntity
  8
241
100
AcDbVertex
100
AcDb3dPolylineVertex
 10
113.594
 20
5.60288
 30
0.0
 70
    32
  0
VERTEX
  5
12E1
330
12D4
100
AcDbEntity
  8
241
100
AcDbVertex
100
AcDb3dPolylineVertex
 10
113.599
 20
5.57523
 30
0.0
 70
    32
  0
VERTEX
  5
12E2
330
12D4
100
AcDbEntity
  8
241
100
AcDbVertex
100
AcDb3dPolylineVertex
 10
113.604
 20
5.54763
 30
0.0
 70
    32
  0
VERTEX
  5
12E3
330
12D4
100
AcDbEntity
  8
241
100
AcDbVertex
100
AcDb3dPolylineVertex
 10
113.61
 20
5.5201
 30
0.0
 70
    32
  0
VERTEX
  5
12E4
330
12D4
100
AcDbEntity
  8
241
100
AcDbVertex
100
AcDb3dPolylineVertex
 10
113.617
 20
5.49267
 30
0.0
 70
    32
  0
VERTEX
  5
12E5
330
12D4
100
AcDbEntity
  8
241
100
AcDbVertex
100
AcDb3dPolylineVertex
 10
113.625
 20
5.46535
 30
0.0
 70
    32
  0
VERTEX
  5
12E6
330
12D4
100
AcDbEntity
  8
241
100
AcDbVertex
100
AcDb3dPolylineVertex
 10
113.633
 20
5.43815
 30
0.0
 70
    32
  0
VERTEX
  5
12E7
330
12D4
100
AcDbEntity
  8
241
100
AcDbVertex
100
AcDb3dPolylineVertex
 10
113.643
 20
5.41109
 30
0.0
 70
    32
  0
VERTEX
  5
12E8
330
12D4
100
AcDbEntity
  8
241
100
AcDbVertex
100
AcDb3dPolylineVertex
 10
113.653
 20
5.38419
 30
0.0
 70
    32
  0
VERTEX
  5
12E9
330
12D4
100
AcDbEntity
  8
241
100
AcDbVertex
100
AcDb3dPolylineVertex
 10
113.663
 20
5.35746
 30
0.0
 70
    32
  0
VERTEX
  5
12EA
330
12D4
100
AcDbEntity
  8
241
100
AcDbVertex
100
AcDb3dPolylineVertex
 10
113.675
 20
5.33092
 30
0.0
 70
    32
  0
VERTEX
  5
12EB
330
12D4
100
AcDbEntity
  8
241
100
AcDbVertex
100
AcDb3dPolylineVertex
 10
113.687
 20
5.30458
 30
0.0
 70
    32
  0
VERTEX
  5
12EC
330
12D4
100
AcDbEntity
  8
241
100
AcDbVertex
100
AcDb3dPolylineVertex
 10
113.7
 20
5.27847
 30
0.0
 70
    32
  0
VERTEX
  5
12ED
330
12D4
100
AcDbEntity
  8
241
100
AcDbVertex
100
AcDb3dPolylineVertex
 10
113.714
 20
5.25259
 30
0.0
 70
    32
  0
VERTEX
  5
12EE
330
12D4
100
AcDbEntity
  8
241
100
AcDbVertex
100
AcDb3dPolylineVertex
 10
113.729
 20
5.22697
 30
0.0
 70
    32
  0
VERTEX
  5
12EF
330
12D4
100
AcDbEntity
  8
241
100
AcDbVertex
100
AcDb3dPolylineVertex
 10
113.744
 20
5.20161
 30
0.0
 70
    32
  0
VERTEX
  5
12F0
330
12D4
100
AcDbEntity
  8
241
100
AcDbVertex
100
AcDb3dPolylineVertex
 10
113.76
 20
5.17654
 30
0.0
 70
    32
  0
VERTEX
  5
12F1
330
12D4
100
AcDbEntity
  8
241
100
AcDbVertex
100
AcDb3dPolylineVertex
 10
113.776
 20
5.15177
 30
0.0
 70
    32
  0
VERTEX
  5
12F2
330
12D4
100
AcDbEntity
  8
241
100
AcDbVertex
100
AcDb3dPolylineVertex
 10
113.794
 20
5.12731
 30
0.0
 70
    32
  0
VERTEX
  5
12F3
330
12D4
100
AcDbEntity
  8
241
100
AcDbVertex
100
AcDb3dPolylineVertex
 10
113.812
 20
5.10317
 30
0.0
 70
    32
  0
VERTEX
  5
12F4
330
12D4
100
AcDbEntity
  8
241
100
AcDbVertex
100
AcDb3dPolylineVertex
 10
113.831
 20
5.07938
 30
0.0
 70
    32
  0
VERTEX
  5
12F5
330
12D4
100
AcDbEntity
  8
241
100
AcDbVertex
100
AcDb3dPolylineVertex
 10
113.85
 20
5.05595
 30
0.0
 70
    32
  0
VERTEX
  5
12F6
330
12D4
100
AcDbEntity
  8
241
100
AcDbVertex
100
AcDb3dPolylineVertex
 10
113.87
 20
5.03289
 30
0.0
 70
    32
  0
VERTEX
  5
12F7
330
12D4
100
AcDbEntity
  8
241
100
AcDbVertex
100
AcDb3dPolylineVertex
 10
113.891
 20
5.01021
 30
0.0
 70
    32
  0
VERTEX
  5
12F8
330
12D4
100
AcDbEntity
  8
241
100
AcDbVertex
100
AcDb3dPolylineVertex
 10
113.912
 20
4.98793
 30
0.0
 70
    32
  0
VERTEX
  5
12F9
330
12D4
100
AcDbEntity
  8
241
100
AcDbVertex
100
AcDb3dPolylineVertex
 10
113.934
 20
4.96606
 30
0.0
 70
    32
  0
VERTEX
  5
12FA
330
12D4
100
AcDbEntity
  8
241
100
AcDbVertex
100
AcDb3dPolylineVertex
 10
113.956
 20
4.94462
 30
0.0
 70
    32
  0
VERTEX
  5
12FB
330
12D4
100
AcDbEntity
  8
241
100
AcDbVertex
100
AcDb3dPolylineVertex
 10
113.979
 20
4.92361
 30
0.0
 70
    32
  0
VERTEX
  5
12FC
330
12D4
100
AcDbEntity
  8
241
100
AcDbVertex
100
AcDb3dPolylineVertex
 10
114.003
 20
4.90306
 30
0.0
 70
    32
  0
VERTEX
  5
12FD
330
12D4
100
AcDbEntity
  8
241
100
AcDbVertex
100
AcDb3dPolylineVertex
 10
114.027
 20
4.88297
 30
0.0
 70
    32
  0
VERTEX
  5
12FE
330
12D4
100
AcDbEntity
  8
241
100
AcDbVertex
100
AcDb3dPolylineVertex
 10
114.052
 20
4.86335
 30
0.0
 70
    32
  0
VERTEX
  5
12FF
330
12D4
100
AcDbEntity
  8
241
100
AcDbVertex
100
AcDb3dPolylineVertex
 10
114.077
 20
4.84422
 30
0.0
 70
    32
  0
VERTEX
  5
1300
330
12D4
100
AcDbEntity
  8
241
100
AcDbVertex
100
AcDb3dPolylineVertex
 10
114.103
 20
4.82559
 30
0.0
 70
    32
  0
VERTEX
  5
1301
330
12D4
100
AcDbEntity
  8
241
100
AcDbVertex
100
AcDb3dPolylineVertex
 10
114.129
 20
4.80747
 30
0.0
 70
    32
  0
VERTEX
  5
1302
330
12D4
100
AcDbEntity
  8
241
100
AcDbVertex
100
AcDb3dPolylineVertex
 10
114.156
 20
4.78987
 30
0.0
 70
    32
  0
VERTEX
  5
1303
330
12D4
100
AcDbEntity
  8
241
100
AcDbVertex
100
AcDb3dPolylineVertex
 10
114.183
 20
4.7728
 30
0.0
 70
    32
  0
VERTEX
  5
1304
330
12D4
100
AcDbEntity
  8
241
100
AcDbVertex
100
AcDb3dPolylineVertex
 10
114.211
 20
4.75627
 30
0.0
 70
    32
  0
VERTEX
  5
1305
330
12D4
100
AcDbEntity
  8
241
100
AcDbVertex
100
AcDb3dPolylineVertex
 10
114.239
 20
4.7403
 30
0.0
 70
    32
  0
VERTEX
  5
1306
330
12D4
100
AcDbEntity
  8
241
100
AcDbVertex
100
AcDb3dPolylineVertex
 10
114.267
 20
4.72488
 30
0.0
 70
    32
  0
VERTEX
  5
1307
330
12D4
100
AcDbEntity
  8
241
100
AcDbVertex
100
AcDb3dPolylineVertex
 10
114.296
 20
4.71004
 30
0.0
 70
    32
  0
VERTEX
  5
1308
330
12D4
100
AcDbEntity
  8
241
100
AcDbVertex
100
AcDb3dPolylineVertex
 10
114.326
 20
4.69577
 30
0.0
 70
    32
  0
VERTEX
  5
1309
330
12D4
100
AcDbEntity
  8
241
100
AcDbVertex
100
AcDb3dPolylineVertex
 10
114.355
 20
4.6821
 30
0.0
 70
    32
  0
VERTEX
  5
130A
330
12D4
100
AcDbEntity
  8
241
100
AcDbVertex
100
AcDb3dPolylineVertex
 10
114.385
 20
4.66902
 30
0.0
 70
    32
  0
VERTEX
  5
130B
330
12D4
100
AcDbEntity
  8
241
100
AcDbVertex
100
AcDb3dPolylineVertex
 10
114.416
 20
4.65654
 30
0.0
 70
    32
  0
VERTEX
  5
130C
330
12D4
100
AcDbEntity
  8
241
100
AcDbVertex
100
AcDb3dPolylineVertex
 10
114.446
 20
4.64467
 30
0.0
 70
    32
  0
VERTEX
  5
130D
330
12D4
100
AcDbEntity
  8
241
100
AcDbVertex
100
AcDb3dPolylineVertex
 10
114.477
 20
4.63343
 30
0.0
 70
    32
  0
VERTEX
  5
130E
330
12D4
100
AcDbEntity
  8
241
100
AcDbVertex
100
AcDb3dPolylineVertex
 10
114.508
 20
4.6228
 30
0.0
 70
    32
  0
VERTEX
  5
130F
330
12D4
100
AcDbEntity
  8
241
100
AcDbVertex
100
AcDb3dPolylineVertex
 10
114.54
 20
4.61281
 30
0.0
 70
    32
  0
VERTEX
  5
1310
330
12D4
100
AcDbEntity
  8
241
100
AcDbVertex
100
AcDb3dPolylineVertex
 10
114.572
 20
4.60346
 30
0.0
 70
    32
  0
VERTEX
  5
1311
330
12D4
100
AcDbEntity
  8
241
100
AcDbVertex
100
AcDb3dPolylineVertex
 10
114.604
 20
4.59475
 30
0.0
 70
    32
  0
VERTEX
  5
1312
330
12D4
100
AcDbEntity
  8
241
100
AcDbVertex
100
AcDb3dPolylineVertex
 10
114.636
 20
4.58669
 30
0.0
 70
    32
  0
VERTEX
  5
1313
330
12D4
100
AcDbEntity
  8
241
100
AcDbVertex
100
AcDb3dPolylineVertex
 10
114.668
 20
4.57929
 30
0.0
 70
    32
  0
VERTEX
  5
1314
330
12D4
100
AcDbEntity
  8
241
100
AcDbVertex
100
AcDb3dPolylineVertex
 10
114.7
 20
4.57254
 30
0.0
 70
    32
  0
VERTEX
  5
1315
330
12D4
100
AcDbEntity
  8
241
100
AcDbVertex
100
AcDb3dPolylineVertex
 10
114.733
 20
4.56645
 30
0.0
 70
    32
  0
VERTEX
  5
1316
330
12D4
100
AcDbEntity
  8
241
100
AcDbVertex
100
AcDb3dPolylineVertex
 10
114.766
 20
4.56103
 30
0.0
 70
    32
  0
VERTEX
  5
1317
330
12D4
100
AcDbEntity
  8
241
100
AcDbVertex
100
AcDb3dPolylineVertex
 10
114.798
 20
4.55628
 30
0.0
 70
    32
  0
VERTEX
  5
1318
330
12D4
100
AcDbEntity
  8
241
100
AcDbVertex
100
AcDb3dPolylineVertex
 10
114.831
 20
4.5522
 30
0.0
 70
    32
  0
VERTEX
  5
1319
330
12D4
100
AcDbEntity
  8
241
100
AcDbVertex
100
AcDb3dPolylineVertex
 10
114.864
 20
4.5488
 30
0.0
 70
    32
  0
VERTEX
  5
131A
330
12D4
100
AcDbEntity
  8
241
100
AcDbVertex
100
AcDb3dPolylineVertex
 10
114.897
 20
4.54607
 30
0.0
 70
    32
  0
VERTEX
  5
131B
330
12D4
100
AcDbEntity
  8
241
100
AcDbVertex
100
AcDb3dPolylineVertex
 10
114.93
 20
4.54402
 30
0.0
 70
    32
  0
VERTEX
  5
131C
330
12D4
100
AcDbEntity
  8
241
100
AcDbVertex
100
AcDb3dPolylineVertex
 10
114.963
 20
4.54265
 30
0.0
 70
    32
  0
VERTEX
  5
131D
330
12D4
100
AcDbEntity
  8
241
100
AcDbVertex
100
AcDb3dPolylineVertex
 10
114.996
 20
4.54196
 30
0.0
 70
    32
  0
VERTEX
  5
131E
330
12D4
100
AcDbEntity
  8
241
100
AcDbVertex
100
AcDb3dPolylineVertex
 10
115.029
 20
4.54195
 30
0.0
 70
    32
  0
VERTEX
  5
131F
330
12D4
100
AcDbEntity
  8
241
100
AcDbVertex
100
AcDb3dPolylineVertex
 10
115.062
 20
4.54262
 30
0.0
 70
    32
  0
VERTEX
  5
1320
330
12D4
100
AcDbEntity
  8
241
100
AcDbVertex
100
AcDb3dPolylineVertex
 10
115.095
 20
4.54397
 30
0.0
 70
    32
  0
VERTEX
  5
1321
330
12D4
100
AcDbEntity
  8
241
100
AcDbVertex
100
AcDb3dPolylineVertex
 10
115.127
 20
4.546
 30
0.0
 70
    32
  0
VERTEX
  5
1322
330
12D4
100
AcDbEntity
  8
241
100
AcDbVertex
100
AcDb3dPolylineVertex
 10
115.16
 20
4.5487
 30
0.0
 70
    32
  0
VERTEX
  5
1323
330
12D4
100
AcDbEntity
  8
241
100
AcDbVertex
100
AcDb3dPolylineVertex
 10
115.192
 20
4.55209
 30
0.0
 70
    32
  0
VERTEX
  5
1324
330
12D4
100
AcDbEntity
  8
241
100
AcDbVertex
100
AcDb3dPolylineVertex
 10
115.224
 20
4.55615
 30
0.0
 70
    32
  0
VERTEX
  5
1325
330
12D4
100
AcDbEntity
  8
241
100
AcDbVertex
100
AcDb3dPolylineVertex
 10
115.257
 20
4.56088
 30
0.0
 70
    32
  0
VERTEX
  5
1326
330
12D4
100
AcDbEntity
  8
241
100
AcDbVertex
100
AcDb3dPolylineVertex
 10
115.288
 20
4.56628
 30
0.0
 70
    32
  0
VERTEX
  5
1327
330
12D4
100
AcDbEntity
  8
241
100
AcDbVertex
100
AcDb3dPolylineVertex
 10
115.32
 20
4.57234
 30
0.0
 70
    32
  0
VERTEX
  5
1328
330
12D4
100
AcDbEntity
  8
241
100
AcDbVertex
100
AcDb3dPolylineVertex
 10
115.351
 20
4.57907
 30
0.0
 70
    32
  0
VERTEX
  5
1329
330
12D4
100
AcDbEntity
  8
241
100
AcDbVertex
100
AcDb3dPolylineVertex
 10
115.383
 20
4.58646
 30
0.0
 70
    32
  0
VERTEX
  5
132A
330
12D4
100
AcDbEntity
  8
241
100
AcDbVertex
100
AcDb3dPolylineVertex
 10
115.414
 20
4.5945
 30
0.0
 70
    32
  0
VERTEX
  5
132B
330
12D4
100
AcDbEntity
  8
241
100
AcDbVertex
100
AcDb3dPolylineVertex
 10
115.444
 20
4.60319
 30
0.0
 70
    32
  0
VERTEX
  5
132C
330
12D4
100
AcDbEntity
  8
241
100
AcDbVertex
100
AcDb3dPolylineVertex
 10
115.474
 20
4.61252
 30
0.0
 70
    32
  0
VERTEX
  5
132D
330
12D4
100
AcDbEntity
  8
241
100
AcDbVertex
100
AcDb3dPolylineVertex
 10
115.504
 20
4.62249
 30
0.0
 70
    32
  0
VERTEX
  5
132E
330
12D4
100
AcDbEntity
  8
241
100
AcDbVertex
100
AcDb3dPolylineVertex
 10
115.534
 20
4.63309
 30
0.0
 70
    32
  0
VERTEX
  5
132F
330
12D4
100
AcDbEntity
  8
241
100
AcDbVertex
100
AcDb3dPolylineVertex
 10
115.563
 20
4.64432
 30
0.0
 70
    32
  0
VERTEX
  5
1330
330
12D4
100
AcDbEntity
  8
241
100
AcDbVertex
100
AcDb3dPolylineVertex
 10
115.592
 20
4.65617
 30
0.0
 70
    32
  0
VERTEX
  5
1331
330
12D4
100
AcDbEntity
  8
241
100
AcDbVertex
100
AcDb3dPolylineVertex
 10
115.621
 20
4.66862
 30
0.0
 70
    32
  0
VERTEX
  5
1332
330
12D4
100
AcDbEntity
  8
241
100
AcDbVertex
100
AcDb3dPolylineVertex
 10
115.649
 20
4.68169
 30
0.0
 70
    32
  0
VERTEX
  5
1333
330
12D4
100
AcDbEntity
  8
241
100
AcDbVertex
100
AcDb3dPolylineVertex
 10
115.676
 20
4.69535
 30
0.0
 70
    32
  0
VERTEX
  5
1334
330
12D4
100
AcDbEntity
  8
241
100
AcDbVertex
100
AcDb3dPolylineVertex
 10
115.703
 20
4.70959
 30
0.0
 70
    32
  0
VERTEX
  5
1335
330
12D4
100
AcDbEntity
  8
241
100
AcDbVertex
100
AcDb3dPolylineVertex
 10
115.73
 20
4.72442
 30
0.0
 70
    32
  0
VERTEX
  5
1336
330
12D4
100
AcDbEntity
  8
241
100
AcDbVertex
100
AcDb3dPolylineVertex
 10
115.756
 20
4.73982
 30
0.0
 70
    32
  0
VERTEX
  5
1337
330
12D4
100
AcDbEntity
  8
241
100
AcDbVertex
100
AcDb3dPolylineVertex
 10
115.782
 20
4.75578
 30
0.0
 70
    32
  0
VERTEX
  5
1338
330
12D4
100
AcDbEntity
  8
241
100
AcDbVertex
100
AcDb3dPolylineVertex
 10
115.807
 20
4.77229
 30
0.0
 70
    32
  0
VERTEX
  5
1339
330
12D4
100
AcDbEntity
  8
241
100
AcDbVertex
100
AcDb3dPolylineVertex
 10
115.832
 20
4.78934
 30
0.0
 70
    32
  0
VERTEX
  5
133A
330
12D4
100
AcDbEntity
  8
241
100
AcDbVertex
100
AcDb3dPolylineVertex
 10
115.856
 20
4.80693
 30
0.0
 70
    32
  0
VERTEX
  5
133B
330
12D4
100
AcDbEntity
  8
241
100
AcDbVertex
100
AcDb3dPolylineVertex
 10
115.88
 20
4.82503
 30
0.0
 70
    32
  0
VERTEX
  5
133C
330
12D4
100
AcDbEntity
  8
241
100
AcDbVertex
100
AcDb3dPolylineVertex
 10
115.903
 20
4.84365
 30
0.0
 70
    32
  0
VERTEX
  5
133D
330
12D4
100
AcDbEntity
  8
241
100
AcDbVertex
100
AcDb3dPolylineVertex
 10
115.925
 20
4.86276
 30
0.0
 70
    32
  0
VERTEX
  5
133E
330
12D4
100
AcDbEntity
  8
241
100
AcDbVertex
100
AcDb3dPolylineVertex
 10
115.947
 20
4.88236
 30
0.0
 70
    32
  0
VERTEX
  5
133F
330
12D4
100
AcDbEntity
  8
241
100
AcDbVertex
100
AcDb3dPolylineVertex
 10
115.968
 20
4.90244
 30
0.0
 70
    32
  0
VERTEX
  5
1340
330
12D4
100
AcDbEntity
  8
241
100
AcDbVertex
100
AcDb3dPolylineVertex
 10
115.989
 20
4.92298
 30
0.0
 70
    32
  0
VERTEX
  5
1341
330
12D4
100
AcDbEntity
  8
241
100
AcDbVertex
100
AcDb3dPolylineVertex
 10
116.008
 20
4.94397
 30
0.0
 70
    32
  0
VERTEX
  5
1342
330
12D4
100
AcDbEntity
  8
241
100
AcDbVertex
100
AcDb3dPolylineVertex
 10
116.028
 20
4.9654
 30
0.0
 70
    32
  0
VERTEX
  5
1343
330
12D4
100
AcDbEntity
  8
241
100
AcDbVertex
100
AcDb3dPolylineVertex
 10
116.046
 20
4.98725
 30
0.0
 70
    32
  0
VERTEX
  5
1344
330
12D4
100
AcDbEntity
  8
241
100
AcDbVertex
100
AcDb3dPolylineVertex
 10
116.064
 20
5.00952
 30
0.0
 70
    32
  0
VERTEX
  5
1345
330
12D4
100
AcDbEntity
  8
241
100
AcDbVertex
100
AcDb3dPolylineVertex
 10
116.082
 20
5.03219
 30
0.0
 70
    32
  0
VERTEX
  5
1346
330
12D4
100
AcDbEntity
  8
241
100
AcDbVertex
100
AcDb3dPolylineVertex
 10
116.098
 20
5.05524
 30
0.0
 70
    32
  0
VERTEX
  5
1347
330
12D4
100
AcDbEntity
  8
241
100
AcDbVertex
100
AcDb3dPolylineVertex
 10
116.114
 20
5.07866
 30
0.0
 70
    32
  0
VERTEX
  5
1348
330
12D4
100
AcDbEntity
  8
241
100
AcDbVertex
100
AcDb3dPolylineVertex
 10
116.129
 20
5.10244
 30
0.0
 70
    32
  0
VERTEX
  5
1349
330
12D4
100
AcDbEntity
  8
241
100
AcDbVertex
100
AcDb3dPolylineVertex
 10
116.143
 20
5.12656
 30
0.0
 70
    32
  0
VERTEX
  5
134A
330
12D4
100
AcDbEntity
  8
241
100
AcDbVertex
100
AcDb3dPolylineVertex
 10
116.157
 20
5.15102
 30
0.0
 70
    32
  0
VERTEX
  5
134B
330
12D4
100
AcDbEntity
  8
241
100
AcDbVertex
100
AcDb3dPolylineVertex
 10
116.17
 20
5.17578
 30
0.0
 70
    32
  0
VERTEX
  5
134C
330
12D4
100
AcDbEntity
  8
241
100
AcDbVertex
100
AcDb3dPolylineVertex
 10
116.182
 20
5.20084
 30
0.0
 70
    32
  0
VERTEX
  5
134D
330
12D4
100
AcDbEntity
  8
241
100
AcDbVertex
100
AcDb3dPolylineVertex
 10
116.194
 20
5.22619
 30
0.0
 70
    32
  0
VERTEX
  5
134E
330
12D4
100
AcDbEntity
  8
241
100
AcDbVertex
100
AcDb3dPolylineVertex
 10
116.204
 20
5.25181
 30
0.0
 70
    32
  0
VERTEX
  5
134F
330
12D4
100
AcDbEntity
  8
241
100
AcDbVertex
100
AcDb3dPolylineVertex
 10
116.214
 20
5.27768
 30
0.0
 70
    32
  0
VERTEX
  5
1350
330
12D4
100
AcDbEntity
  8
241
100
AcDbVertex
100
AcDb3dPolylineVertex
 10
116.223
 20
5.30378
 30
0.0
 70
    32
  0
VERTEX
  5
1351
330
12D4
100
AcDbEntity
  8
241
100
AcDbVertex
100
AcDb3dPolylineVertex
 10
116.232
 20
5.33011
 30
0.0
 70
    32
  0
VERTEX
  5
1352
330
12D4
100
AcDbEntity
  8
241
100
AcDbVertex
100
AcDb3dPolylineVertex
 10
116.239
 20
5.35664
 30
0.0
 70
    32
  0
VERTEX
  5
1353
330
12D4
100
AcDbEntity
  8
241
100
AcDbVertex
100
AcDb3dPolylineVertex
 10
116.246
 20
5.38337
 30
0.0
 70
    32
  0
VERTEX
  5
1354
330
12D4
100
AcDbEntity
  8
241
100
AcDbVertex
100
AcDb3dPolylineVertex
 10
116.252
 20
5.41026
 30
0.0
 70
    32
  0
VERTEX
  5
1355
330
12D4
100
AcDbEntity
  8
241
100
AcDbVertex
100
AcDb3dPolylineVertex
 10
116.257
 20
5.43732
 30
0.0
 70
    32
  0
SEQEND
  5
1356
330
12D4
100
AcDbEntity
  8
241
  0
LINE
  5
1357
330
D31
100
AcDbEntity
  8
240
  6
CONTINUOUS
100
AcDbLine
 10
27.0
 20
30.5
 30
0.0
 11
27.0
 21
29.99986151
 31
0.0
  0
ARC
  5
1358
330
D31
100
AcDbEntity
  8
240
  6
CONTINUOUS
100
AcDbCircle
 10
26.0
 20
30.5
 30
0.0
 40
1.0
100
AcDbArc
 50
0.0
 51
90.0
  0
ENDBLK
  5
D33
330
D31
100
AcDbEntity
  8
0
100
AcDbBlockEnd
  0
ENDSEC
  0
SECTION
  2
ENTITIES
  0
INSERT
  5
6E6
330
1A
100
AcDbEntity
  8
245
100
AcDbBlockReference
  2
矢印なし
 10
175.62382697
 20
90.55123572
 30
0.0
  0
TEXT
  5
A26
330
1A
100
AcDbEntity
  8
241
100
AcDbText
 10
-65.4
 20
56.0
 30
0.0
 40
5.0
  1
BBT40-FCR16082-120
  7
YOKO
 11
-65.4
 21
56.0
 31
0.0
100
AcDbText
 73
     1
  0
DIMENSION
  5
C89
330
1A
100
AcDbEntity
  8
250
  6
CONTINUOUS
100
AcDbDimension
  2
*D2
 10
133.0
 20
8.0
 30
0.0
 11
130.6
 21
0.0
 31
0.0
 70
    32
  1
{\H2.8;\U+2205}<>
  3
BIGT
100
AcDbAlignedDimension
 13
120.0
 23
-8.0
 33
0.0
 14
120.0
 24
8.0
 34
0.0
 50
90.0
100
AcDbRotatedDimension
  0
DIMENSION
  5
C98
330
1A
100
AcDbEntity
  8
250
  6
CONTINUOUS
100
AcDbDimension
  2
*D3
 10
120.0
 20
28.0
 30
0.0
 11
116.0
 21
28.0
 31
0.0
 70
   160
  3
BIGT
100
AcDbAlignedDimension
 13
112.0
 23
8.0
 33
0.0
 14
120.0
 24
8.00003788
 34
0.0
100
AcDbRotatedDimension
  0
DIMENSION
  5
CA7
330
1A
100
AcDbEntity
  8
250
  6
CONTINUOUS
100
AcDbDimension
  2
*D4
 10
120.0
 20
35.0
 30
0.0
 11
105.0
 21
35.0
 31
0.0
 70
   160
  3
BIGT
100
AcDbAlignedDimension
 13
90.0
 23
7.57948389
 33
0.0
 14
120.0
 24
8.0
 34
0.0
100
AcDbRotatedDimension
  0
DIMENSION
  5
CB6
330
1A
100
AcDbEntity
  8
250
  6
CONTINUOUS
100
AcDbDimension
  2
*D5
 10
120.0
 20
42.0
 30
0.0
 11
60.0
 21
44.4
 31
0.0
 70
    32
  3
BIGT
100
AcDbAlignedDimension
 13
0.0
 23
22.225
 33
0.0
 14
120.0
 24
8.0
 34
0.0
100
AcDbRotatedDimension
  0
LEADER
  5
11A3
330
1A
100
AcDbEntity
  8
250
  6
CONTINUOUS
100
AcDbLeader
  3
BIGT
 76
     2
 10
-26.64442081
 20
-18.3393553
 30
0.0
 10
-32.4583971
 20
-28.40945762
 30
0.0
1001
ACAD
1000
DSTYLE
1002
{
1070
     6
1000
OPEN
1070
   343
1005
594
1002
}
  0
MTEXT
  5
11A4
330
1A
100
AcDbEntity
  8
250
  6
CONTINUOUS
 62
    40
100
AcDbMText
 10
-47.39173044
 20
-27.40945762
 30
0.0
 40
2.8
 41
0.0
 71
     7
 72
     1
  1
BBT40
  7
YOKO
1001
ITEMNAME
1000
LNSP3
1001
ACAD
1000
MTEXTBEGIN
1070
    73
1070
     1
1070
    44
1040
1.0
1070
    74
1070
     0
1000
MTEXTEND
1000
MTEXTBEGIN
1070
    73
1070
     1
1070
    44
1040
1.0
1070
    74
1070
     0
1000
MTEXTEND
  0
LINE
  5
11A7
330
1A
100
AcDbEntity
  8
250
  6
CONTINUOUS
100
AcDbLine
 10
-32.4583971
 20
-28.40945762
 30
0.0
 11
-50.19173044
 21
-28.40945762
 31
0.0
1001
ITEMNAME
1000
LNSP2
  0
INSERT
  5
1359
330
1A
100
AcDbEntity
  8
245
100
AcDbBlockReference
  2
1
 10
0.0
 20
0.0
 30
0.0
  0
VIEWPORT
  5
22
330
17
100
AcDbEntity
 67
     1
  8
0
100
AcDbViewport
 10
261.51769912
 20
148.5
 30
0.0
 40
523.03539823
 41
297.0
 68
     1
 69
     1
1001
ACAD
1000
MVIEW
1002
{
1070
    16
1010
0.0
1020
0.0
1030
0.0
1010
0.0
1020
0.0
1030
1.0
1040
0.0
1040
297.0
1040
261.51769912
1040
148.5
1040
50.0
1040
0.0
1040
0.0
1070
     0
1070
   100
1070
     1
1070
     1
1070
     0
1070
     0
1070
     0
1070
     0
1040
0.0
1040
0.0
1040
0.0
1040
1.0
1040
1.0
1040
10.0
1040
10.0
1070
     0
1002
{
1002
}
1002
}
  0
ENDSEC
  0
SECTION
  2
OBJECTS
  0
DICTIONARY
  5
C
330
0
100
AcDbDictionary
  3
ACAD_GROUP
350
D
  3
ACAD_LAYOUT
350
565
  3
ACAD_MLINESTYLE
350
E
  3
ACAD_PLOTSETTINGS
350
566
  3
ACAD_PLOTSTYLENAME
350
563
  3
ACDBHEADERROUNDTRIPXREC
350
135B
  3
GRADE_DWG
350
540
  0
DICTIONARY
  5
F6C
330
1A
100
AcDbDictionary
280
     1
  3
ACAD_LAYOUTSELFREF
360
137D
  0
DICTIONARY
  5
F6A
330
17
100
AcDbDictionary
280
     1
  3
ACAD_LAYOUTSELFREF
360
137C
  0
DICTIONARY
  5
D
102
{ACAD_REACTORS
330
C
102
}
330
C
100
AcDbDictionary
  3
*A1
350
6C7
  3
*A2
350
6C8
  3
*A3
350
6D4
  3
*A4
350
6D5
  3
DREC-1
350
5FC
  3
DREC-2
350
654
  3
DREC-3
350
673
  0
DICTIONARY
  5
565
102
{ACAD_REACTORS
330
C
102
}
330
C
100
AcDbDictionary
  0
DICTIONARY
  5
E
102
{ACAD_REACTORS
330
C
102
}
330
C
100
AcDbDictionary
  3
STANDARD
350
13
  0
DICTIONARY
  5
566
102
{ACAD_REACTORS
330
C
102
}
330
C
100
AcDbDictionary
  3
A3_0_5倍_
350
758
  3
A3_1倍_
350
757
  3
A3_1倍__2000_
350
707
  3
A3_2倍_
350
759
  3
A4_0_5倍_
350
755
  3
A4_1倍_
350
754
  3
A4_1倍__2000_
350
708
  3
A4_2倍_
350
756
  0
ACDBDICTIONARYWDFLT
  5
563
102
{ACAD_REACTORS
330
C
102
}
330
C
100
AcDbDictionary
281
     1
  3
Normal
350
564
100
AcDbDictionaryWithDefault
340
564
  0
DICTIONARY
  5
135B
102
{ACAD_REACTORS
330
C
102
}
330
C
100
AcDbDictionary
  3
CEPSNTYPE
350
1365
  3
DIMSTYLEDATA
350
1369
  3
FINGERPRINTGUID
350
1366
  3
HYPERLINKBASE
350
135E
  3
INSUNITS
350
1364
  3
LAYOUTDICT
350
1360
  3
LWETCUNION
350
1363
  3
PLOTSETDICT
350
1361
  3
PLOTSTYLNAMDICT
350
1362
  3
PSVPSCALE
350
1368
  3
PUCSBASE
350
136C
  3
PUCSORGBACK
350
1372
  3
PUCSORGBOTTOM
350
136E
  3
PUCSORGFRONT
350
1371
  3
PUCSORGLEFT
350
136F
  3
PUCSORGRIGHT
350
1370
  3
PUCSORGTOP
350
136D
  3
PUCSORTHOREF
350
136A
  3
PUCSORTHOVIEW
350
136B
  3
STYLESHEET
350
135F
  3
TSTACKALIGN
350
135C
  3
TSTACKSIZE
350
135D
  3
UCSBASE
350
1375
  3
UCSORGBACK
350
137B
  3
UCSORGBOTTOM
350
1377
  3
UCSORGFRONT
350
137A
  3
UCSORGLEFT
350
1378
  3
UCSORGRIGHT
350
1379
  3
UCSORGTOP
350
1376
  3
UCSORTHOREF
350
1373
  3
UCSORTHOVIEW
350
1374
  3
VERSIONGUID
350
1367
  0
DICTIONARY
  5
540
102
{ACAD_REACTORS
330
C
102
}
330
C
100
AcDbDictionary
  3
VERSION
350
560
  0
XRECORD
  5
137D
102
{ACAD_REACTORS
330
F6C
102
}
330
F6C
100
AcDbXrecord
340
1A
  0
XRECORD
  5
137C
102
{ACAD_REACTORS
330
F6A
102
}
330
F6A
100
AcDbXrecord
340
17
  0
GROUP
  5
6C7
102
{ACAD_REACTORS
330
D
102
}
330
D
100
AcDbGroup
300

 70
     0
 71
     1
1001
GRPNAME
1000
DMA00
  0
GROUP
  5
6C8
102
{ACAD_REACTORS
330
D
102
}
330
D
100
AcDbGroup
300

 70
     0
 71
     1
1001
GRPNAME
1000
DMA00
  0
GROUP
  5
6D4
102
{ACAD_REACTORS
330
D
102
}
330
D
100
AcDbGroup
300

 70
     0
 71
     1
1001
GRPNAME
1000
DMA00
  0
GROUP
  5
6D5
102
{ACAD_REACTORS
330
D
102
}
330
D
100
AcDbGroup
300

 70
     0
 71
     1
1001
GRPNAME
1000
DMA00
  0
GROUP
  5
5FC
102
{ACAD_REACTORS
330
D
102
}
330
D
100
AcDbGroup
300

 70
     0
 71
     1
1001
GRPNAME
1000
DREC-
1001
GPARA
1000
xsiz
1000
44.182
1000
ysiz
1000
40.677
1000
angl
1000
0
1000
ctyp
1000
0
1000
csiz
1000
5
1000
lfnt
1000
cont
1000
hcnt
1000
hoff
1000
vcnt
1000
voff
1000
opnt
1000
4
1000
dxpt
1000
0
1000
dypt
1000
0
  0
GROUP
  5
654
102
{ACAD_REACTORS
330
D
102
}
330
D
100
AcDbGroup
300

 70
     0
 71
     1
1001
GRPNAME
1000
DREC-
1001
GPARA
1000
xsiz
1000
54.592
1000
ysiz
1000
53.036
1000
angl
1000
0
1000
ctyp
1000
0
1000
csiz
1000
5
1000
lfnt
1000
cont
1000
hcnt
1000
hoff
1000
vcnt
1000
voff
1000
opnt
1000
4
1000
dxpt
1000
0
1000
dypt
1000
0
  0
GROUP
  5
673
102
{ACAD_REACTORS
330
D
102
}
330
D
100
AcDbGroup
300

 70
     0
 71
     1
1001
GRPNAME
1000
DREC-
1001
GPARA
1000
xsiz
1000
30.363
1000
ysiz
1000
36.175
1000
angl
1000
0
1000
ctyp
1000
0
1000
csiz
1000
5
1000
lfnt
1000
cont
1000
hcnt
1000
hoff
1000
vcnt
1000
voff
1000
opnt
1000
4
1000
dxpt
1000
0
1000
dypt
1000
0
  0
MLINESTYLE
  5
13
102
{ACAD_REACTORS
330
E
102
}
330
E
100
AcDbMlineStyle
  2
STANDARD
 70
     0
  3

 62
     0
 51
90.0
 52
90.0
 71
     2
 49
0.5
 62
   256
  6
BYLAYER
 49
-0.5
 62
   256
  6
BYLAYER
  0
PLOTSETTINGS
  5
758
102
{ACAD_REACTORS
330
566
102
}
330
566
100
AcDbPlotSettings
  1
A3(0.5倍)
  2
\\AWTECPC05\HP DeskJet 1120C
  4
A3
  6

 40
5.95841646
 41
13.49375153
 42
6.04309082
 43
3.67242432
 44
296.92599487
 45
419.94665527
 46
89.96
 47
127.14
 48
0.0
 49
0.0
140
0.0
141
0.0
142
1.0
143
2.0
 70
  1716
 72
     1
 73
     1
 74
     2
  7
big.ctb
 75
    17
147
0.5
148
0.0
149
0.0
  0
PLOTSETTINGS
  5
757
102
{ACAD_REACTORS
330
566
102
}
330
566
100
AcDbPlotSettings
  1
A3(1倍)
  2
\\AWTECPC05\HP DeskJet 1120C
  4
A3
  6

 40
5.95841646
 41
13.49375153
 42
6.04309082
 43
3.67242432
 44
296.92599487
 45
419.94665527
 46
37.46
 47
52.89
 48
0.0
 49
0.0
140
0.0
141
0.0
142
1.0
143
1.0
 70
  1716
 72
     1
 73
     1
 74
     2
  7
big.ctb
 75
    16
147
1.0
148
0.0
149
0.0
  0
PLOTSETTINGS
  5
707
102
{ACAD_REACTORS
330
566
102
}
330
566
100
AcDbPlotSettings
  1
A3(1倍)(2000)
  2
SII LS-1300 (D-SCAN)
  4
User258
  6

 40
3.17499995
 41
3.17499995
 42
3.17498779
 43
3.17498779
 44
419.98898315
 45
296.98950195
 46
58.32
 47
40.32
 48
0.0
 49
0.0
140
0.0
141
0.0
142
1.0
143
1.0
 70
  1716
 72
     1
 73
     0
 74
     2
  7
big.ctb
 75
    16
147
1.0
148
0.0
149
0.0
  0
PLOTSETTINGS
  5
759
102
{ACAD_REACTORS
330
566
102
}
330
566
100
AcDbPlotSettings
  1
A3(2倍)
  2
\\AWTECPC05\HP DeskJet 1120C
  4
A3
  6

 40
5.95841646
 41
13.49375153
 42
6.04309082
 43
3.67242432
 44
296.92599487
 45
419.94665527
 46
-67.54
 47
-95.61
 48
0.0
 49
0.0
140
0.0
141
0.0
142
1.0
143
0.5
 70
  1716
 72
     1
 73
     1
 74
     2
  7
big.ctb
 75
    27
147
2.0
148
0.0
149
0.0
  0
PLOTSETTINGS
  5
755
102
{ACAD_REACTORS
330
566
102
}
330
566
100
AcDbPlotSettings
  1
A4(0.5倍)
  2
\\AWTECPC05\HP DeskJet 1120C
  4
A4
  6

 40
4.18041658
 41
13.49374962
 42
4.18040466
 43
3.92642212
 44
209.97332764
 45
296.92599487
 46
48.31
 47
65.5
 48
0.0
 49
0.0
140
0.0
141
0.0
142
1.0
143
2.0
 70
  1716
 72
     1
 73
     1
 74
     2
  7
big.ctb
 75
    17
147
0.5
148
0.0
149
0.0
  0
PLOTSETTINGS
  5
754
102
{ACAD_REACTORS
330
566
102
}
330
566
100
AcDbPlotSettings
  1
A4(1倍)
  2
\\AWTECPC05\HP DeskJet 1120C
  4
A4
  6

 40
4.18041658
 41
13.49374962
 42
4.18040466
 43
3.92642212
 44
209.97332764
 45
296.92599487
 46
-4.19
 47
-8.75
 48
0.0
 49
0.0
140
0.0
141
0.0
142
1.0
143
1.0
 70
  1716
 72
     1
 73
     1
 74
     2
  7
big.ctb
 75
    16
147
1.0
148
0.0
149
0.0
  0
PLOTSETTINGS
  5
708
102
{ACAD_REACTORS
330
566
102
}
330
566
100
AcDbPlotSettings
  1
A4(1倍)(2000)
  2
SII LS-1300 (D-SCAN)
  4
User259
  6

 40
3.17499995
 41
3.17499995
 42
3.17498779
 43
3.17500305
 44
296.98950195
 45
209.99449158
 46
-3.18
 47
-3.18
 48
0.0
 49
0.0
140
0.0
141
0.0
142
1.0
143
1.0
 70
  1716
 72
     1
 73
     0
 74
     2
  7
big.ctb
 75
    16
147
1.0
148
0.0
149
0.0
  0
PLOTSETTINGS
  5
756
102
{ACAD_REACTORS
330
566
102
}
330
566
100
AcDbPlotSettings
  1
A4(2倍)
  2
\\AWTECPC05\HP DeskJet 1120C
  4
A4
  6

 40
4.18041658
 41
13.49374962
 42
4.18040466
 43
3.92642212
 44
209.97332764
 45
296.92599487
 46
-109.19
 47
-157.25
 48
0.0
 49
0.0
140
0.0
141
0.0
142
1.0
143
0.5
 70
  1716
 72
     1
 73
     1
 74
     2
  7
big.ctb
 75
    27
147
2.0
148
0.0
149
0.0
  0
ACDBPLACEHOLDER
  5
564
102
{ACAD_REACTORS
330
563
102
}
330
563
100
AcDbPlaceHolder
280
     0
  0
XRECORD
  5
1365
102
{ACAD_REACTORS
330
135B
102
}
330
135B
100
AcDbXrecord
 90
        0
  0
XRECORD
  5
1369
102
{ACAD_REACTORS
330
135B
102
}
330
135B
100
AcDbXrecord
1000
DSTYLE
1002
{
1070
    79
 70
     2
1070
   179
 70
     3
1070
   341
340
594
1070
   343
340
594
1070
   344
340
594
1070
   371
 70
    -1
1070
   372
 70
    -1
1002
}
  0
XRECORD
  5
1366
102
{ACAD_REACTORS
330
135B
102
}
330
135B
100
AcDbXrecord
  1
{51294030-9CB4-11D3-8E18-00A0C925D94D}
  0
XRECORD
  5
135E
102
{ACAD_REACTORS
330
135B
102
}
330
135B
100
AcDbXrecord
  1

  0
XRECORD
  5
1364
102
{ACAD_REACTORS
330
135B
102
}
330
135B
100
AcDbXrecord
 90
        0
  0
XRECORD
  5
1360
102
{ACAD_REACTORS
330
135B
102
}
330
135B
100
AcDbXrecord
340
565
  0
XRECORD
  5
1363
102
{ACAD_REACTORS
330
135B
102
}
330
135B
100
AcDbXrecord
 90
    10781
  0
XRECORD
  5
1361
102
{ACAD_REACTORS
330
135B
102
}
330
135B
100
AcDbXrecord
340
566
  0
XRECORD
  5
1362
102
{ACAD_REACTORS
330
135B
102
}
330
135B
100
AcDbXrecord
340
563
  0
XRECORD
  5
1368
102
{ACAD_REACTORS
330
135B
102
}
330
135B
100
AcDbXrecord
 40
0.0
  0
XRECORD
  5
136C
102
{ACAD_REACTORS
330
135B
102
}
330
135B
100
AcDbXrecord
340
0
  0
XRECORD
  5
1372
102
{ACAD_REACTORS
330
135B
102
}
330
135B
100
AcDbXrecord
 10
0.0
 20
0.0
 30
0.0
  0
XRECORD
  5
136E
102
{ACAD_REACTORS
330
135B
102
}
330
135B
100
AcDbXrecord
 10
0.0
 20
0.0
 30
0.0
  0
XRECORD
  5
1371
102
{ACAD_REACTORS
330
135B
102
}
330
135B
100
AcDbXrecord
 10
0.0
 20
0.0
 30
0.0
  0
XRECORD
  5
136F
102
{ACAD_REACTORS
330
135B
102
}
330
135B
100
AcDbXrecord
 10
0.0
 20
0.0
 30
0.0
  0
XRECORD
  5
1370
102
{ACAD_REACTORS
330
135B
102
}
330
135B
100
AcDbXrecord
 10
0.0
 20
0.0
 30
0.0
  0
XRECORD
  5
136D
102
{ACAD_REACTORS
330
135B
102
}
330
135B
100
AcDbXrecord
 10
0.0
 20
0.0
 30
0.0
  0
XRECORD
  5
136A
102
{ACAD_REACTORS
330
135B
102
}
330
135B
100
AcDbXrecord
340
0
  0
XRECORD
  5
136B
102
{ACAD_REACTORS
330
135B
102
}
330
135B
100
AcDbXrecord
 70
     0
  0
XRECORD
  5
135F
102
{ACAD_REACTORS
330
135B
102
}
330
135B
100
AcDbXrecord
  1
big.ctb
  0
XRECORD
  5
135C
102
{ACAD_REACTORS
330
135B
102
}
330
135B
100
AcDbXrecord
 90
        1
  0
XRECORD
  5
135D
102
{ACAD_REACTORS
330
135B
102
}
330
135B
100
AcDbXrecord
 90
       70
  0
XRECORD
  5
1375
102
{ACAD_REACTORS
330
135B
102
}
330
135B
100
AcDbXrecord
340
0
  0
XRECORD
  5
137B
102
{ACAD_REACTORS
330
135B
102
}
330
135B
100
AcDbXrecord
 10
0.0
 20
0.0
 30
0.0
  0
XRECORD
  5
1377
102
{ACAD_REACTORS
330
135B
102
}
330
135B
100
AcDbXrecord
 10
0.0
 20
0.0
 30
0.0
  0
XRECORD
  5
137A
102
{ACAD_REACTORS
330
135B
102
}
330
135B
100
AcDbXrecord
 10
0.0
 20
0.0
 30
0.0
  0
XRECORD
  5
1378
102
{ACAD_REACTORS
330
135B
102
}
330
135B
100
AcDbXrecord
 10
0.0
 20
0.0
 30
0.0
  0
XRECORD
  5
1379
102
{ACAD_REACTORS
330
135B
102
}
330
135B
100
AcDbXrecord
 10
0.0
 20
0.0
 30
0.0
  0
XRECORD
  5
1376
102
{ACAD_REACTORS
330
135B
102
}
330
135B
100
AcDbXrecord
 10
0.0
 20
0.0
 30
0.0
  0
XRECORD
  5
1373
102
{ACAD_REACTORS
330
135B
102
}
330
135B
100
AcDbXrecord
340
0
  0
XRECORD
  5
1374
102
{ACAD_REACTORS
330
135B
102
}
330
135B
100
AcDbXrecord
 70
     0
  0
XRECORD
  5
1367
102
{ACAD_REACTORS
330
135B
102
}
330
135B
100
AcDbXrecord
  1
{BBB11B55-F096-438E-926D-64608ACA08A8}
  0
XRECORD
  5
560
102
{ACAD_REACTORS
330
540
102
}
330
540
100
AcDbXrecord
  1
2.0.0
  0
ENDSEC
  0
EOF
