  0
SECTION
  2
HEADER
  9
$ACADVER
  1
AC1014
  9
$ACADMAINTVER
 70
     9
  9
$DWGCODEPAGE
  3
ANSI_932
  9
$INSBASE
 10
0.0
 20
0.0
 30
0.0
  9
$EXTMIN
 10
-66.41108924
 20
-31.71448253
 30
-0.00152582
  9
$EXTMAX
 10
85.02406066
 20
71.51705293
 30
0.00000003
  9
$LIMMIN
 10
0.0
 20
0.0
  9
$LIMMAX
 10
297.0
 20
210.0
  9
$ORTHOMODE
 70
     0
  9
$REGENMODE
 70
     1
  9
$FILLMODE
 70
     1
  9
$QTEXTMODE
 70
     0
  9
$MIRRTEXT
 70
     1
  9
$DRAGMODE
 70
     2
  9
$LTSCALE
 40
10.0
  9
$OSMODE
 70
   549
  9
$ATTMODE
 70
     1
  9
$TEXTSIZE
 40
3.0
  9
$TRACEWID
 40
1.0
  9
$TEXTSTYLE
  7
YOKO
  9
$CLAYER
  8
240
  9
$CELTYPE
  6
BYLAYER
  9
$CECOLOR
 62
   256
  9
$CELTSCALE
 40
1.0
  9
$DELOBJ
 70
     1
  9
$DISPSILH
 70
     0
  9
$DIMSCALE
 40
1.0
  9
$DIMASZ
 40
2.23
  9
$DIMEXO
 40
0.5
  9
$DIMDLI
 40
2.5
  9
$DIMRND
 40
0.0
  9
$DIMDLE
 40
0.0
  9
$DIMEXE
 40
1.0
  9
$DIMTP
 40
0.0
  9
$DIMTM
 40
0.0
  9
$DIMTXT
 40
3.5
  9
$DIMCEN
 40
0.0
  9
$DIMTSZ
 40
0.0
  9
$DIMTOL
 70
     0
  9
$DIMLIM
 70
     0
  9
$DIMTIH
 70
     0
  9
$DIMTOH
 70
     0
  9
$DIMSE1
 70
     0
  9
$DIMSE2
 70
     0
  9
$DIMTAD
 70
     3
  9
$DIMZIN
 70
     9
  9
$DIMBLK
  1
OPEN
  9
$DIMASO
 70
     1
  9
$DIMSHO
 70
     1
  9
$DIMPOST
  1

  9
$DIMAPOST
  1

  9
$DIMALT
 70
     0
  9
$DIMALTD
 70
     2
  9
$DIMALTF
 40
25.4
  9
$DIMLFAC
 40
1.0
  9
$DIMTOFL
 70
     1
  9
$DIMTVP
 40
0.0
  9
$DIMTIX
 70
     0
  9
$DIMSOXD
 70
     0
  9
$DIMSAH
 70
     0
  9
$DIMBLK1
  1

  9
$DIMBLK2
  1

  9
$DIMSTYLE
  2
BIGT
  9
$DIMCLRD
 70
   256
  9
$DIMCLRE
 70
   256
  9
$DIMCLRT
 70
    40
  9
$DIMTFAC
 40
1.0
  9
$DIMGAP
 40
1.0
  9
$DIMJUST
 70
     0
  9
$DIMSD1
 70
     0
  9
$DIMSD2
 70
     0
  9
$DIMTOLJ
 70
     1
  9
$DIMTZIN
 70
     8
  9
$DIMALTZ
 70
     0
  9
$DIMALTTZ
 70
     0
  9
$DIMFIT
 70
     3
  9
$DIMUPT
 70
     0
  9
$DIMUNIT
 70
     2
  9
$DIMDEC
 70
     3
  9
$DIMTDEC
 70
     3
  9
$DIMALTU
 70
     2
  9
$DIMALTTD
 70
     2
  9
$DIMTXSTY
  7
STANDARD
  9
$DIMAUNIT
 70
     0
  9
$LUNITS
 70
     2
  9
$LUPREC
 70
     3
  9
$SKETCHINC
 40
1.0
  9
$FILLETRAD
 40
1.6
  9
$AUNITS
 70
     0
  9
$AUPREC
 70
     3
  9
$MENU
  1
.
  9
$ELEVATION
 40
0.0
  9
$PELEVATION
 40
0.0
  9
$THICKNESS
 40
0.0
  9
$LIMCHECK
 70
     0
  9
$BLIPMODE
 70
     0
  9
$CHAMFERA
 40
10.0
  9
$CHAMFERB
 40
10.0
  9
$CHAMFERC
 40
0.0
  9
$CHAMFERD
 40
0.0
  9
$SKPOLY
 70
     0
  9
$TDCREATE
 40
2452356.706116898
  9
$TDUPDATE
 40
2455371.643932824
  9
$TDINDWG
 40
0.0789887037
  9
$TDUSRTIMER
 40
0.0789887037
  9
$USRTIMER
 70
     1
  9
$ANGBASE
 50
0.0
  9
$ANGDIR
 70
     0
  9
$PDMODE
 70
     1
  9
$PDSIZE
 40
-5.0
  9
$PLINEWID
 40
0.0
  9
$COORDS
 70
     0
  9
$SPLFRAME
 70
     0
  9
$SPLINETYPE
 70
     6
  9
$SPLINESEGS
 70
     8
  9
$ATTDIA
 70
     0
  9
$ATTREQ
 70
     1
  9
$HANDLING
 70
-16383
  9
$HANDSEED
  5
134E
  9
$SURFTAB1
 70
     6
  9
$SURFTAB2
 70
     6
  9
$SURFTYPE
 70
     6
  9
$SURFU
 70
     6
  9
$SURFV
 70
     6
  9
$UCSNAME
  2

  9
$UCSORG
 10
0.0
 20
0.0
 30
0.0
  9
$UCSXDIR
 10
1.0
 20
0.0
 30
0.0
  9
$UCSYDIR
 10
0.0
 20
1.0
 30
0.0
  9
$PUCSNAME
  2

  9
$PUCSORG
 10
0.0
 20
0.0
 30
0.0
  9
$PUCSXDIR
 10
1.0
 20
0.0
 30
0.0
  9
$PUCSYDIR
 10
0.0
 20
1.0
 30
0.0
  9
$USERI1
 70
     1
  9
$USERI2
 70
     0
  9
$USERI3
 70
     0
  9
$USERI4
 70
     0
  9
$USERI5
 70
     0
  9
$USERR1
 40
0.0
  9
$USERR2
 40
0.0
  9
$USERR3
 40
0.0
  9
$USERR4
 40
0.0
  9
$USERR5
 40
0.0
  9
$WORLDVIEW
 70
     1
  9
$SHADEDGE
 70
     3
  9
$SHADEDIF
 70
    70
  9
$TILEMODE
 70
     1
  9
$MAXACTVP
 70
    16
  9
$PINSBASE
 10
0.0
 20
0.0
 30
0.0
  9
$PLIMCHECK
 70
     0
  9
$PEXTMIN
 10
1.00000000E+20
 20
1.00000000E+20
 30
1.00000000E+20
  9
$PEXTMAX
 10
-1.00000000E+20
 20
-1.00000000E+20
 30
-1.00000000E+20
  9
$PLIMMIN
 10
0.0
 20
0.0
  9
$PLIMMAX
 10
420.0
 20
297.0
  9
$UNITMODE
 70
     0
  9
$VISRETAIN
 70
     0
  9
$PLINEGEN
 70
     0
  9
$PSLTSCALE
 70
     1
  9
$TREEDEPTH
 70
  3020
  9
$PICKSTYLE
 70
     0
  9
$CMLSTYLE
  2
STANDARD
  9
$CMLJUST
 70
     0
  9
$CMLSCALE
 40
1.0
  9
$PROXYGRAPHICS
 70
     1
  9
$MEASUREMENT
 70
     1
  0
ENDSEC
  0
SECTION
  2
CLASSES
  0
CLASS
  1
XRECORD
  2
AcDbXrecord
  3
AutoCAD 2000
 90
        0
280
     0
281
     0
  0
CLASS
  1
ACDBDICTIONARYWDFLT
  2
AcDbDictionaryWithDefault
  3
AutoCAD 2000
 90
        0
280
     0
281
     0
  0
CLASS
  1
ACDBPLACEHOLDER
  2
AcDbPlaceHolder
  3
AutoCAD 2000
 90
        0
280
     0
281
     0
  0
CLASS
  1
LAYOUT
  2
AcDbLayout
  3
AutoCAD 2000
 90
        0
280
     0
281
     0
  0
CLASS
  1
DICTIONARYVAR
  2
AcDbDictionaryVar
  3
AutoCAD 2000
 90
        0
280
     0
281
     0
  0
CLASS
  1
LONG_TRANSACTION
  2
AcDbLongTransaction
  3
AutoCAD 2000
 90
        0
280
     0
281
     0
  0
CLASS
  1
LWPOLYLINE
  2
AcDbPolyline
  3
AutoCAD 2000
 90
        0
280
     0
281
     1
  0
CLASS
  1
HATCH
  2
AcDbHatch
  3
AutoCAD 2000
 90
        0
280
     0
281
     1
  0
CLASS
  1
XRECORD
  2
AcDbXrecord
  3
AutoCAD 2000
 90
        0
280
     0
281
     0
  0
CLASS
  1
LONG_TRANSACTION
  2
AcDbLongTransaction
  3
AutoCAD 2000
 90
        0
280
     0
281
     0
  0
CLASS
  1
LWPOLYLINE
  2
AcDbPolyline
  3
AutoCAD 2000
 90
        0
280
     0
281
     1
  0
CLASS
  1
HATCH
  2
AcDbHatch
  3
AutoCAD 2000
 90
        0
280
     0
281
     1
  0
CLASS
  1
XRECORD
  2
AcDbXrecord
  3
AutoCAD 2000
 90
        0
280
     0
281
     0
  0
CLASS
  1
LONG_TRANSACTION
  2
AcDbLongTransaction
  3
AutoCAD 2000
 90
        0
280
     0
281
     0
  0
CLASS
  1
LWPOLYLINE
  2
AcDbPolyline
  3
AutoCAD 2000
 90
        0
280
     0
281
     1
  0
CLASS
  1
HATCH
  2
AcDbHatch
  3
AutoCAD 2000
 90
        0
280
     0
281
     1
  0
CLASS
  1
XRECORD
  2
AcDbXrecord
  3
AutoCAD 2000
 90
        0
280
     0
281
     0
  0
ENDSEC
  0
SECTION
  2
TABLES
  0
TABLE
  2
VPORT
  5
8
330
0
100
AcDbSymbolTable
 70
     2
  0
VPORT
  5
1329
330
8
100
AcDbSymbolTableRecord
100
AcDbViewportTableRecord
  2
*ACTIVE
 70
     0
 10
0.0
 20
0.0
 11
1.0
 21
1.0
 12
9.30648571
 22
19.9012852
 13
0.0
 23
0.0
 14
7.0
 24
7.0
 15
7.0
 25
7.0
 16
0.0
 26
0.0
 36
1.0
 17
0.0
 27
0.0
 37
0.0
 40
104.56511754
 41
1.45595855
 42
50.0
 43
0.0
 44
0.0
 50
0.0
 51
0.0
 71
     0
 72
  2000
 73
     1
 74
     0
 75
     0
 76
     0
 77
     0
 78
     0
  0
ENDTAB
  0
TABLE
  2
LTYPE
  5
5
330
0
100
AcDbSymbolTable
 70
     4
  0
LTYPE
  5
14
330
5
100
AcDbSymbolTableRecord
100
AcDbLinetypeTableRecord
  2
BYBLOCK
 70
     0
  3

 72
    65
 73
     0
 40
0.0
  0
LTYPE
  5
15
330
5
100
AcDbSymbolTableRecord
100
AcDbLinetypeTableRecord
  2
BYLAYER
 70
     0
  3

 72
    65
 73
     0
 40
0.0
  0
LTYPE
  5
16
330
5
100
AcDbSymbolTableRecord
100
AcDbLinetypeTableRecord
  2
CONTINUOUS
 70
     0
  3
Solid line
 72
    65
 73
     0
 40
0.0
  0
LTYPE
  5
258
330
5
100
AcDbSymbolTableRecord
100
AcDbLinetypeTableRecord
  2
CENTER2
 70
     0
  3
___ _ ___ _ ___ _ ___ _ ___ _ ___ _ ___ _ ___ _
 72
    65
 73
     4
 40
1.125
 49
0.75
 74
     0
 49
-0.125
 74
     0
 49
0.125
 74
     0
 49
-0.125
 74
     0
  0
LTYPE
  5
25C
330
5
100
AcDbSymbolTableRecord
100
AcDbLinetypeTableRecord
  2
HIDDEN2
 70
     0
  3
_ _ _ _ _ _ _ _ _ _ _ _ _ _ _ _ _ _ _ _ _ _ _ _
 72
    65
 73
     2
 40
0.1875
 49
0.125
 74
     0
 49
-0.0625
 74
     0
  0
LTYPE
  5
25D
330
5
100
AcDbSymbolTableRecord
100
AcDbLinetypeTableRecord
  2
PHANTOM2
 70
     0
  3
___ _ _ ___ _ _ ___ _ _ ___ _ _ ___ _ _ ___ _ _
 72
    65
 73
     6
 40
1.25
 49
0.625
 74
     0
 49
-0.125
 74
     0
 49
0.125
 74
     0
 49
-0.125
 74
     0
 49
0.125
 74
     0
 49
-0.125
 74
     0
  0
ENDTAB
  0
TABLE
  2
LAYER
  5
2
330
0
100
AcDbSymbolTable
 70
     9
  0
LAYER
  5
F
330
2
100
AcDbSymbolTableRecord
100
AcDbLayerTableRecord
  2
0
 70
     0
 62
     7
  6
CONTINUOUS
  0
LAYER
  5
1AA
330
2
100
AcDbSymbolTableRecord
100
AcDbLayerTableRecord
  2
240
 70
     0
 62
     4
  6
CONTINUOUS
  0
LAYER
  5
1AB
330
2
100
AcDbSymbolTableRecord
100
AcDbLayerTableRecord
  2
241
 70
     0
 62
   211
  6
CONTINUOUS
  0
LAYER
  5
1AF
330
2
100
AcDbSymbolTableRecord
100
AcDbLayerTableRecord
  2
245
 70
     0
 62
     2
  6
CENTER2
  0
LAYER
  5
21A
330
2
100
AcDbSymbolTableRecord
100
AcDbLayerTableRecord
  2
246
 70
     0
 62
     3
  6
PHANTOM2
  0
LAYER
  5
21E
330
2
100
AcDbSymbolTableRecord
100
AcDbLayerTableRecord
  2
250
 70
     0
 62
     3
  6
CONTINUOUS
  0
LAYER
  5
5C4
330
2
100
AcDbSymbolTableRecord
100
AcDbLayerTableRecord
  2
DEFPOINTS
 70
     0
 62
     7
  6
CONTINUOUS
  0
ENDTAB
  0
TABLE
  2
STYLE
  5
3
330
0
100
AcDbSymbolTable
 70
     2
  0
STYLE
  5
10
330
3
100
AcDbSymbolTableRecord
100
AcDbTextStyleTableRecord
  2
STANDARD
 70
     0
 40
0.0
 41
1.0
 50
0.0
 71
     0
 42
3.0
  3
romans.shx
  4
BIGFONT.SHX
  0
STYLE
  5
339
330
3
100
AcDbSymbolTableRecord
100
AcDbTextStyleTableRecord
  2
YOKO
 70
     0
 40
0.0
 41
1.0
 50
0.0
 71
     0
 42
3.0
  3
romans.shx
  4
extfont.shx
  0
ENDTAB
  0
TABLE
  2
VIEW
  5
6
330
0
100
AcDbSymbolTable
 70
     0
  0
ENDTAB
  0
TABLE
  2
UCS
  5
7
330
0
100
AcDbSymbolTable
 70
     0
  0
ENDTAB
  0
TABLE
  2
APPID
  5
9
330
0
100
AcDbSymbolTable
 70
    10
  0
APPID
  5
11
330
9
100
AcDbSymbolTableRecord
100
AcDbRegAppTableRecord
  2
ACAD
 70
     0
  0
APPID
  5
1B1
330
9
100
AcDbSymbolTableRecord
100
AcDbRegAppTableRecord
  2
GLOBAL
 70
     0
  0
APPID
  5
2A4
330
9
100
AcDbSymbolTableRecord
100
AcDbRegAppTableRecord
  2
DETAIL
 70
     0
  0
APPID
  5
5FD
330
9
100
AcDbSymbolTableRecord
100
AcDbRegAppTableRecord
  2
GRPNAME
 70
     0
  0
APPID
  5
5FE
330
9
100
AcDbSymbolTableRecord
100
AcDbRegAppTableRecord
  2
GPARA
 70
     0
  0
APPID
  5
6A8
330
9
100
AcDbSymbolTableRecord
100
AcDbRegAppTableRecord
  2
ITEMNAME
 70
     0
  0
APPID
  5
97B
330
9
100
AcDbSymbolTableRecord
100
AcDbRegAppTableRecord
  2
HATCH_TYPE
 70
     0
  0
APPID
  5
97C
330
9
100
AcDbSymbolTableRecord
100
AcDbRegAppTableRecord
  2
HATCH_DISPLAY
 70
     0
  0
APPID
  5
97D
330
9
100
AcDbSymbolTableRecord
100
AcDbRegAppTableRecord
  2
HATCH_DISTANCE
 70
     0
  0
APPID
  5
11F8
330
9
100
AcDbSymbolTableRecord
100
AcDbRegAppTableRecord
  2
CONTENTBLOCKICON
 70
     0
  0
ENDTAB
  0
TABLE
  2
DIMSTYLE
  5
A
330
0
100
AcDbSymbolTable
 70
     4
  0
DIMSTYLE
105
59A
102
{ACAD_REACTORS
330
F8A
330
F90
330
F92
330
110A
102
}
330
A
100
AcDbSymbolTableRecord
100
AcDbDimStyleTableRecord
  2
BIGT
 70
     0
  3

  4

  5
OPEN
  6

  7

 40
1.0
 41
2.23
 42
0.5
 43
2.5
 44
1.0
 45
0.0
 46
0.0
 47
0.0
 48
0.0
140
3.5
141
0.0
142
0.0
143
25.4
144
1.0
145
0.0
146
1.0
147
1.0
 71
     0
 72
     0
 73
     0
 74
     0
 75
     0
 76
     0
 77
     3
 78
     9
170
     0
171
     2
172
     1
173
     0
174
     0
175
     0
176
   256
177
   256
178
    40
270
     2
271
     3
272
     3
273
     2
274
     2
340
10
275
     0
280
     0
281
     0
282
     0
283
     1
284
     8
285
     0
286
     0
287
     3
288
     0
  0
ENDTAB
  0
TABLE
  2
BLOCK_RECORD
  5
1
330
0
100
AcDbSymbolTable
 70
     7
  0
BLOCK_RECORD
  5
1A
102
{ACAD_XDICTIONARY
360
1041
102
}
330
1
100
AcDbSymbolTableRecord
100
AcDbBlockTableRecord
  2
*MODEL_SPACE
  0
BLOCK_RECORD
  5
17
102
{ACAD_XDICTIONARY
360
103F
102
}
330
1
100
AcDbSymbolTableRecord
100
AcDbBlockTableRecord
  2
*PAPER_SPACE
  0
BLOCK_RECORD
  5
594
330
1
100
AcDbSymbolTableRecord
100
AcDbBlockTableRecord
  2
_OPEN
  0
BLOCK_RECORD
  5
F9F
330
1
100
AcDbSymbolTableRecord
100
AcDbBlockTableRecord
  2
*D1
  0
BLOCK_RECORD
  5
FB9
330
1
100
AcDbSymbolTableRecord
100
AcDbBlockTableRecord
  2
*D2
  0
BLOCK_RECORD
  5
FD1
330
1
100
AcDbSymbolTableRecord
100
AcDbBlockTableRecord
  2
*D3
  0
BLOCK_RECORD
  5
110B
330
1
100
AcDbSymbolTableRecord
100
AcDbBlockTableRecord
  2
*D4
  0
BLOCK_RECORD
  5
1153
330
1
100
AcDbSymbolTableRecord
100
AcDbBlockTableRecord
  2
1
1001
CONTENTBLOCKICON
1071
        0
1004
2800000020000000200000000100080000000000000400000000000000000000000000000000000000000000000080000080000000808000800000008000800080800000C0C0C000C0DCC000F0CAA6000020400000206000002080000020A0000020C0000020E00000400000004020000040400000406000004080000040A0
1004
000040C0000040E00000600000006020000060400000606000006080000060A0000060C0000060E00000800000008020000080400000806000008080000080A0000080C0000080E00000A0000000A0200000A0400000A0600000A0800000A0A00000A0C00000A0E00000C0000000C0200000C0400000C0600000C0800000C0
1004
A00000C0C00000C0E00000E0000000E0200000E0400000E0600000E0800000E0A00000E0C00000E0E00040000000400020004000400040006000400080004000A0004000C0004000E00040200000402020004020400040206000402080004020A0004020C0004020E000404000004040200040404000404060004040800040
1004
40A0004040C0004040E00040600000406020004060400040606000406080004060A0004060C0004060E00040800000408020004080400040806000408080004080A0004080C0004080E00040A0000040A0200040A0400040A0600040A0800040A0A00040A0C00040A0E00040C0000040C0200040C0400040C0600040C08000
1004
40C0A00040C0C00040C0E00040E0000040E0200040E0400040E0600040E0800040E0A00040E0C00040E0E00080000000800020008000400080006000800080008000A0008000C0008000E00080200000802020008020400080206000802080008020A0008020C0008020E00080400000804020008040400080406000804080
1004
008040A0008040C0008040E00080600000806020008060400080606000806080008060A0008060C0008060E00080800000808020008080400080806000808080008080A0008080C0008080E00080A0000080A0200080A0400080A0600080A0800080A0A00080A0C00080A0E00080C0000080C0200080C0400080C0600080C0
1004
800080C0A00080C0C00080C0E00080E0000080E0200080E0400080E0600080E0800080E0A00080E0C00080E0E000C0000000C0002000C0004000C0006000C0008000C000A000C000C000C000E000C0200000C0202000C0204000C0206000C0208000C020A000C020C000C020E000C0400000C0402000C0404000C0406000C0
1004
408000C040A000C040C000C040E000C0600000C0602000C0604000C0606000C0608000C060A000C060C000C060E000C0800000C0802000C0804000C0806000C0808000C080A000C080C000C080E000C0A00000C0A02000C0A04000C0A06000C0A08000C0A0A000C0A0C000C0A0E000C0C00000C0C02000C0C04000C0C06000
1004
C0C08000C0C0A000F0FBFF00A4A0A000808080000000FF0000FF000000FFFF00FF000000FF00FF00FFFF0000FFFFFF0000000000000000000000000000000000000000000000000000000000000000000000000000000000000000000000000000000000000000000000000000000000000000000000000000000000000000
1004
00000000000000000000000000000000000000000000000000000000000000000000000000000000000000000000000000000000000000000000000000000000000000000000000000000000000000000000000000000000000000000000000000000000000000000000000000000000000000000000000000000000000000
1004
00000000000000000000000000000000000000000000000000000000000000000000000000000000000000000000000000000000000000000000000000000000000000000000000000000000000000000000000000000000000000000000000000FEFEFEFBFEFEFE0000000000000000000000000000000000000000000000
1004
0000FE00E7FEFEE7FEFEFEFEFEFEFAFAFA0000000000000000000000000000FEFEFEFEE7E7E7E7E7E7000000000000FEFE0000000000000000FEFEFEFEFEFE000000E700E7E7E700E70000000000E7E7FE00000000FEFEFEFE000000000000000000E700E7E7E700E7000000E7E70000FE00000000FE000000000000000000
1004
000000E700E7E7E700E70000E700000000FE00000000FE000000000000000000000000E700E7E7E700E70000E700000000FE000000FBFEFBFBFBFBFBFBFBFBFBFBFBFBE7FBE7E7E7FBE7FBFBE7E7E7E7E7FEFB000000FE000000000000000000000000E700E7FBE700E700000000000000FA00000000FEFEFEFE0000000000
1004
00000000E700E7FBE700E7000000000000E7FA0000000000000000FEFEFEFEFEFE000000E700E7FBE700E7000000000000E7FA0000000000000000000000000000FEFEFEFEE7E7FBE7E7E700000000000000FE0000000000000000000000000000000000FE00E7FEFEE7FEFEFEFEFEFEFAFAFA000000000000000000000000
1004
0000000000FEFEFEFBFEFEFE00000000000000000000000000000000000000000000000000000000000000000000000000000000000000000000000000000000000000000000000000000000000000000000000000000000000000000000000000000000000000000000000000000000000000000000000000000000000000
1004
00000000000000000000000000000000000000000000000000000000000000000000000000000000000000000000000000000000000000000000000000000000000000000000000000000000000000000000000000000000000000000000000000000000000000000000000000000000000000000000000000000000000000
1004
0000000000000000000000000000000000000000000000000000000000000000000000000000000000000000000000000000000000000000
  0
ENDTAB
  0
ENDSEC
  0
SECTION
  2
BLOCKS
  0
BLOCK
  5
1B
330
1A
100
AcDbEntity
  8
0
100
AcDbBlockBegin
  2
*MODEL_SPACE
 70
     0
 10
0.0
 20
0.0
 30
0.0
  3
*MODEL_SPACE
  1

  0
ENDBLK
  5
1C
330
1A
100
AcDbEntity
  8
0
100
AcDbBlockEnd
  0
BLOCK
  5
18
330
17
100
AcDbEntity
 67
     1
  8
0
100
AcDbBlockBegin
  2
*PAPER_SPACE
 70
     0
 10
0.0
 20
0.0
 30
0.0
  3
*PAPER_SPACE
  1

  0
ENDBLK
  5
19
330
17
100
AcDbEntity
 67
     1
  8
0
100
AcDbBlockEnd
  0
BLOCK
  5
598
330
594
100
AcDbEntity
  8
0
100
AcDbBlockBegin
  2
_OPEN
 70
     0
 10
0.0
 20
0.0
 30
0.0
  3
_OPEN
  1

  0
LINE
  5
595
330
594
100
AcDbEntity
  8
0
  6
BYBLOCK
 62
     0
100
AcDbLine
 10
-1.0
 20
0.16666667
 30
0.0
 11
0.0
 21
0.0
 31
0.0
  0
LINE
  5
596
330
594
100
AcDbEntity
  8
0
  6
BYBLOCK
 62
     0
100
AcDbLine
 10
-1.0
 20
-0.16666667
 30
0.0
 11
0.0
 21
0.0
 31
0.0
  0
LINE
  5
597
330
594
100
AcDbEntity
  8
0
  6
BYBLOCK
 62
     0
100
AcDbLine
 10
0.0
 20
0.0
 30
0.0
 11
-1.0
 21
0.0
 31
0.0
  0
ENDBLK
  5
599
330
594
100
AcDbEntity
  8
0
100
AcDbBlockEnd
  0
BLOCK
  5
FA9
330
F9F
100
AcDbEntity
  8
0
100
AcDbBlockBegin
  2
*D1
 70
     1
 10
0.0
 20
0.0
 30
0.0
  3
*D1
  1

  0
LINE
  5
1134
330
F9F
100
AcDbEntity
  8
250
  6
CONTINUOUS
100
AcDbLine
 10
0.0
 20
22.725
 30
0.0
 11
0.0
 21
53.5
 31
0.0
  0
LINE
  5
1135
330
F9F
100
AcDbEntity
  8
250
  6
CONTINUOUS
100
AcDbLine
 10
70.0
 20
25.5
 30
0.0
 11
70.0
 21
53.5
 31
0.0
  0
LINE
  5
1136
330
F9F
100
AcDbEntity
  8
250
  6
CONTINUOUS
100
AcDbLine
 10
2.23
 20
52.5
 30
0.0
 11
67.77
 21
52.5
 31
0.0
  0
INSERT
  5
1137
330
F9F
100
AcDbEntity
  8
250
  6
CONTINUOUS
100
AcDbBlockReference
  2
_OPEN
 10
0.0
 20
52.5
 30
0.0
 41
2.23
 42
2.23
 43
2.23
 50
180.0
  0
INSERT
  5
1138
330
F9F
100
AcDbEntity
  8
250
  6
CONTINUOUS
100
AcDbBlockReference
  2
_OPEN
 10
70.0
 20
52.5
 30
0.0
 41
2.23
 42
2.23
 43
2.23
  0
MTEXT
  5
1139
330
F9F
100
AcDbEntity
  8
250
  6
CONTINUOUS
 62
    40
100
AcDbMText
 10
35.0
 20
55.0
 30
0.0
 40
3.0
 41
0.0
 71
     5
 72
     1
  1
\A1;70
1001
ACAD
1000
MTEXTBEGIN
1070
    73
1070
     1
1070
    44
1040
1.0
1070
    74
1070
     0
1000
MTEXTEND
1000
MTEXTBEGIN
1070
    73
1070
     1
1070
    44
1040
1.0
1070
    74
1070
     0
1000
MTEXTEND
  0
POINT
  5
113A
330
F9F
100
AcDbEntity
  8
DEFPOINTS
  6
CONTINUOUS
 62
     0
100
AcDbPoint
 10
0.0
 20
22.225
 30
0.0
  0
POINT
  5
113B
330
F9F
100
AcDbEntity
  8
DEFPOINTS
  6
CONTINUOUS
 62
     0
100
AcDbPoint
 10
70.0
 20
25.0
 30
0.0
  0
POINT
  5
113C
330
F9F
100
AcDbEntity
  8
DEFPOINTS
  6
CONTINUOUS
 62
     0
100
AcDbPoint
 10
70.0
 20
52.5
 30
0.0
  0
ENDBLK
  5
FAA
330
F9F
100
AcDbEntity
  8
0
100
AcDbBlockEnd
  0
BLOCK
  5
FC3
330
FB9
100
AcDbEntity
  8
0
100
AcDbBlockBegin
  2
*D2
 70
     1
 10
0.0
 20
0.0
 30
0.0
  3
*D2
  1

  0
LINE
  5
10FD
330
FB9
100
AcDbEntity
  8
250
  6
CONTINUOUS
100
AcDbLine
 10
70.5
 20
-25.0
 30
0.0
 11
85.0
 21
-25.0
 31
0.0
  0
LINE
  5
10FE
330
FB9
100
AcDbEntity
  8
250
  6
CONTINUOUS
100
AcDbLine
 10
70.5
 20
25.0
 30
0.0
 11
85.0
 21
25.0
 31
0.0
  0
LINE
  5
10FF
330
FB9
100
AcDbEntity
  8
250
  6
CONTINUOUS
100
AcDbLine
 10
84.0
 20
-22.77
 30
0.0
 11
84.0
 21
22.77
 31
0.0
  0
INSERT
  5
1100
330
FB9
100
AcDbEntity
  8
250
  6
CONTINUOUS
100
AcDbBlockReference
  2
_OPEN
 10
84.0
 20
-25.0
 30
0.0
 41
2.23
 42
2.23
 43
2.23
 50
270.0
  0
INSERT
  5
1101
330
FB9
100
AcDbEntity
  8
250
  6
CONTINUOUS
100
AcDbBlockReference
  2
_OPEN
 10
84.0
 20
25.0
 30
0.0
 41
2.23
 42
2.23
 43
2.23
 50
90.0
  0
MTEXT
  5
1102
330
FB9
100
AcDbEntity
  8
250
  6
CONTINUOUS
 62
    40
100
AcDbMText
 10
81.5
 20
0.0
 30
0.0
 40
3.0
 41
0.0
 71
     5
 72
     1
  1
\A1;{\H3;\U+2205}50
 11
0.0
 21
1.0
 31
0.0
1001
ACAD
1000
MTEXTBEGIN
1070
    73
1070
     1
1070
    44
1040
1.0
1070
    74
1070
     0
1000
MTEXTEND
1000
MTEXTBEGIN
1070
    73
1070
     1
1070
    44
1040
1.0
1070
    74
1070
     0
1000
MTEXTEND
  0
POINT
  5
1103
330
FB9
100
AcDbEntity
  8
DEFPOINTS
  6
CONTINUOUS
 62
     0
100
AcDbPoint
 10
70.0
 20
-25.0
 30
0.0
  0
POINT
  5
1104
330
FB9
100
AcDbEntity
  8
DEFPOINTS
  6
CONTINUOUS
 62
     0
100
AcDbPoint
 10
70.0
 20
25.0
 30
0.0
  0
POINT
  5
1105
330
FB9
100
AcDbEntity
  8
DEFPOINTS
  6
CONTINUOUS
 62
     0
100
AcDbPoint
 10
84.0
 20
25.0
 30
0.0
  0
ENDBLK
  5
FC4
330
FB9
100
AcDbEntity
  8
0
100
AcDbBlockEnd
  0
BLOCK
  5
FDB
330
FD1
100
AcDbEntity
  8
0
100
AcDbBlockBegin
  2
*D3
 70
     1
 10
0.0
 20
0.0
 30
0.0
  3
*D3
  1

  0
LINE
  5
114A
330
FD1
100
AcDbEntity
  8
250
  6
CONTINUOUS
100
AcDbLine
 10
32.0
 20
24.9
 30
0.0
 11
32.0
 21
46.5
 31
0.0
  0
LINE
  5
114B
330
FD1
100
AcDbEntity
  8
250
  6
CONTINUOUS
100
AcDbLine
 10
70.0
 20
25.5
 30
0.0
 11
70.0
 21
46.5
 31
0.0
  0
LINE
  5
114C
330
FD1
100
AcDbEntity
  8
250
  6
CONTINUOUS
100
AcDbLine
 10
34.23
 20
45.5
 30
0.0
 11
67.77
 21
45.5
 31
0.0
  0
INSERT
  5
114D
330
FD1
100
AcDbEntity
  8
250
  6
CONTINUOUS
100
AcDbBlockReference
  2
_OPEN
 10
32.0
 20
45.5
 30
0.0
 41
2.23
 42
2.23
 43
2.23
 50
180.0
  0
INSERT
  5
114E
330
FD1
100
AcDbEntity
  8
250
  6
CONTINUOUS
100
AcDbBlockReference
  2
_OPEN
 10
70.0
 20
45.5
 30
0.0
 41
2.23
 42
2.23
 43
2.23
  0
MTEXT
  5
114F
330
FD1
100
AcDbEntity
  8
250
  6
CONTINUOUS
 62
    40
100
AcDbMText
 10
51.0
 20
48.0
 30
0.0
 40
3.0
 41
0.0
 71
     5
 72
     1
  1
\A1;38
1001
ACAD
1000
MTEXTBEGIN
1070
    73
1070
     1
1070
    44
1040
1.0
1070
    74
1070
     0
1000
MTEXTEND
1000
MTEXTBEGIN
1070
    73
1070
     1
1070
    44
1040
1.0
1070
    74
1070
     0
1000
MTEXTEND
  0
POINT
  5
1150
330
FD1
100
AcDbEntity
  8
DEFPOINTS
  6
CONTINUOUS
 62
     0
100
AcDbPoint
 10
32.0
 20
24.4
 30
0.0
  0
POINT
  5
1151
330
FD1
100
AcDbEntity
  8
DEFPOINTS
  6
CONTINUOUS
 62
     0
100
AcDbPoint
 10
70.0
 20
25.0
 30
0.0
  0
POINT
  5
1152
330
FD1
100
AcDbEntity
  8
DEFPOINTS
  6
CONTINUOUS
 62
     0
100
AcDbPoint
 10
70.0
 20
45.5
 30
0.0
  0
ENDBLK
  5
FDC
330
FD1
100
AcDbEntity
  8
0
100
AcDbBlockEnd
  0
BLOCK
  5
1115
330
110B
100
AcDbEntity
  8
0
100
AcDbBlockBegin
  2
*D4
 70
     1
 10
0.0
 20
0.0
 30
0.0
  3
*D4
  1

  0
LINE
  5
113D
330
110B
100
AcDbEntity
  8
250
  6
CONTINUOUS
100
AcDbLine
 10
59.0
 20
25.5
 30
0.0
 11
59.0
 21
39.5
 31
0.0
  0
LINE
  5
113E
330
110B
100
AcDbEntity
  8
250
  6
CONTINUOUS
100
AcDbLine
 10
70.0
 20
25.5
 30
0.0
 11
70.0
 21
39.5
 31
0.0
  0
LINE
  5
113F
330
110B
100
AcDbEntity
  8
250
  6
CONTINUOUS
100
AcDbLine
 10
61.23
 20
38.5
 30
0.0
 11
67.77
 21
38.5
 31
0.0
  0
INSERT
  5
1140
330
110B
100
AcDbEntity
  8
250
  6
CONTINUOUS
100
AcDbBlockReference
  2
_OPEN
 10
59.0
 20
38.5
 30
0.0
 41
2.23
 42
2.23
 43
2.23
 50
180.0
  0
INSERT
  5
1141
330
110B
100
AcDbEntity
  8
250
  6
CONTINUOUS
100
AcDbBlockReference
  2
_OPEN
 10
70.0
 20
38.5
 30
0.0
 41
2.23
 42
2.23
 43
2.23
  0
MTEXT
  5
1142
330
110B
100
AcDbEntity
  8
250
  6
CONTINUOUS
 62
    40
100
AcDbMText
 10
64.5
 20
41.25
 30
0.0
 40
3.5
 41
0.0
 71
     5
 72
     1
  1
\A1;11
1001
ACAD
1000
MTEXTBEGIN
1070
    73
1070
     1
1070
    44
1040
1.0
1070
    74
1070
     0
1000
MTEXTEND
1000
MTEXTBEGIN
1070
    73
1070
     1
1070
    44
1040
1.0
1070
    74
1070
     0
1000
MTEXTEND
  0
POINT
  5
1143
330
110B
100
AcDbEntity
  8
DEFPOINTS
  6
CONTINUOUS
 62
     0
100
AcDbPoint
 10
59.0
 20
25.0
 30
0.0
  0
POINT
  5
1144
330
110B
100
AcDbEntity
  8
DEFPOINTS
  6
CONTINUOUS
 62
     0
100
AcDbPoint
 10
70.0
 20
25.0
 30
0.0
  0
POINT
  5
1145
330
110B
100
AcDbEntity
  8
DEFPOINTS
  6
CONTINUOUS
 62
     0
100
AcDbPoint
 10
70.0
 20
38.5
 30
0.0
  0
ENDBLK
  5
1116
330
110B
100
AcDbEntity
  8
0
100
AcDbBlockEnd
  0
BLOCK
  5
1154
330
1153
100
AcDbEntity
  8
0
100
AcDbBlockBegin
  2
1
 70
     0
 10
0.0
 20
0.0
 30
0.0
  3
1
  1

  0
ARC
  5
12E2
330
1153
100
AcDbEntity
  8
240
  6
CONTINUOUS
100
AcDbCircle
 10
2.0
 20
30.5
 30
0.0
 40
1.0
100
AcDbArc
 50
90.0
 51
180.0
  0
LINE
  5
12E3
330
1153
100
AcDbEntity
  8
241
  6
HIDDEN2
100
AcDbLine
 10
23.0
 20
22.5
 30
0.0
 11
1.0
 21
22.5
 31
0.0
  0
LINE
  5
12E4
330
1153
100
AcDbEntity
  8
241
  6
HIDDEN2
100
AcDbLine
 10
23.0
 20
-22.5
 30
0.0
 11
1.0
 21
-22.5
 31
0.0
  0
ARC
  5
12E5
330
1153
100
AcDbEntity
  8
240
  6
CONTINUOUS
100
AcDbCircle
 10
2.0
 20
-30.5
 30
0.0
 40
1.0
100
AcDbArc
 50
180.0
 51
270.0
  0
LINE
  5
12E6
330
1153
100
AcDbEntity
  8
245
  6
CENTER2
100
AcDbLine
 10
-66.4
 20
0.0
 30
0.0
 11
71.0
 21
0.0
 31
0.0
1001
GRPNAME
1000
PASTMD0F
  0
LINE
  5
12E7
330
1153
100
AcDbEntity
  8
241
  6
CONTINUOUS
100
AcDbLine
 10
0.0
 20
22.225
 30
0.0
 11
0.0
 21
0.0
 31
0.0
  0
LINE
  5
12E8
330
1153
100
AcDbEntity
  8
241
100
AcDbLine
 10
1.0
 20
0.0
 30
0.0
 11
1.0
 21
22.225
 31
0.0
  0
LINE
  5
12E9
330
1153
100
AcDbEntity
  8
240
  6
CONTINUOUS
100
AcDbLine
 10
0.0
 20
22.225
 30
0.0
 11
-64.03089103
 21
12.88716173
 31
0.0
  0
LINE
  5
12EA
330
1153
100
AcDbEntity
  8
240
  6
CONTINUOUS
100
AcDbLine
 10
0.0
 20
-22.225
 30
0.0
 11
-64.03089103
 21
-12.88716173
 31
0.0
  0
LINE
  5
12EB
330
1153
100
AcDbEntity
  8
240
  6
CONTINUOUS
100
AcDbLine
 10
-65.4
 20
-11.30390896
 30
0.0
 11
-65.4
 21
0.0
 31
0.0
  0
ARC
  5
12EC
330
1153
100
AcDbEntity
  8
240
  6
CONTINUOUS
100
AcDbCircle
 10
-63.8
 20
-11.30390896
 30
0.0
 40
1.6
100
AcDbArc
 50
180.0
 51
261.70285503
  0
LINE
  5
12ED
330
1153
100
AcDbEntity
  8
240
  6
CONTINUOUS
100
AcDbLine
 10
-65.4
 20
11.30390896
 30
0.0
 11
-65.4
 21
0.0
 31
0.0
  0
ARC
  5
12EE
330
1153
100
AcDbEntity
  8
240
  6
CONTINUOUS
100
AcDbCircle
 10
-63.8
 20
11.30390896
 30
0.0
 40
1.6
100
AcDbArc
 50
98.29714497
 51
180.0
  0
LINE
  5
12EF
330
1153
100
AcDbEntity
  8
240
  6
CONTINUOUS
100
AcDbLine
 10
1.0
 20
-22.225
 30
0.0
 11
1.0
 21
-30.5
 31
0.0
  0
LINE
  5
12F0
330
1153
100
AcDbEntity
  8
241
  6
CONTINUOUS
100
AcDbLine
 10
0.0
 20
-22.225
 30
0.0
 11
0.0
 21
0.0
 31
0.0
  0
LINE
  5
12F1
330
1153
100
AcDbEntity
  8
241
100
AcDbLine
 10
1.0
 20
0.0
 30
0.0
 11
1.0
 21
-22.225
 31
0.0
  0
LINE
  5
12F2
330
1153
100
AcDbEntity
  8
240
100
AcDbLine
 10
0.0
 20
-22.225
 30
0.0
 11
1.0
 21
-22.225
 31
0.0
  0
LINE
  5
12F3
330
1153
100
AcDbEntity
  8
240
  6
CONTINUOUS
100
AcDbLine
 10
1.0
 20
22.225
 30
0.0
 11
1.0
 21
30.5
 31
0.0
  0
LINE
  5
12F4
330
1153
100
AcDbEntity
  8
240
100
AcDbLine
 10
0.0
 20
22.225
 30
0.0
 11
1.0
 21
22.225
 31
0.0
  0
LINE
  5
12F5
330
1153
100
AcDbEntity
  8
240
  6
CONTINUOUS
100
AcDbLine
 10
69.4
 20
1.70311081
 30
0.0
 11
69.4
 21
24.3
 31
0.0
1001
GRPNAME
1000
PASTMD0E
  0
LINE
  5
12F6
330
1153
100
AcDbEntity
  8
241
  6
CONTINUOUS
100
AcDbLine
 10
27.0
 20
0.0
 30
0.0
 11
27.0
 21
27.4
 31
0.0
  0
LINE
  5
12F7
330
1153
100
AcDbEntity
  8
241
  6
CONTINUOUS
100
AcDbLine
 10
11.6
 20
31.5
 30
0.0
 11
11.6
 21
0.0
 31
0.0
  0
LINE
  5
12F8
330
1153
100
AcDbEntity
  8
241
  6
CONTINUOUS
100
AcDbLine
 10
14.48675135
 20
26.5
 30
0.0
 11
14.48675135
 21
0.0
 31
0.0
  0
LINE
  5
12F9
330
1153
100
AcDbEntity
  8
241
  6
CONTINUOUS
100
AcDbLine
 10
18.71324865
 20
26.5
 30
0.0
 11
18.71324865
 21
0.0
 31
0.0
  0
LINE
  5
12FA
330
1153
100
AcDbEntity
  8
241
  6
CONTINUOUS
100
AcDbLine
 10
21.6
 20
0.0
 30
0.0
 11
21.6
 21
31.5
 31
0.0
  0
LINE
  5
12FB
330
1153
100
AcDbEntity
  8
245
  6
CENTER2
100
AcDbLine
 10
16.6
 20
-31.5
 30
0.0
 11
16.6
 21
31.5
 31
0.0
  0
LWPOLYLINE
  5
12FC
330
1153
100
AcDbEntity
  8
241
  6
CONTINUOUS
100
AcDbPolyline
 90
       70
 70
     0
 43
0.0
 10
63.74556821
 20
14.16627101
 10
63.72222794
 20
14.02283172
 10
63.70271196
 20
13.87902433
 10
63.68706073
 20
13.73514687
 10
63.67530669
 20
13.59149753
 10
63.66747418
 20
13.44837402
 10
63.66357946
 20
13.30607297
 10
63.66363058
 20
13.16488929
 10
63.66762744
 20
13.02511558
 10
63.67556176
 20
12.88704152
 10
63.68741709
 20
12.75095327
 10
63.70316887
 20
12.61713287
 10
63.72278445
 20
12.48585766
 10
63.74622317
 20
12.35739971
 10
63.77343646
 20
12.23202524
 10
63.80436792
 20
12.1099941
 10
63.83895345
 20
11.99155919
 10
63.87712136
 20
11.87696596
 10
63.91879256
 20
11.76645191
 10
63.96388068
 20
11.66024608
 10
64.01229228
 20
11.55856858
 10
64.06392702
 20
11.46163013
 10
64.11867789
 20
11.36963164
 10
64.17643143
 20
11.28276377
 10
64.23706793
 20
11.20120656
 10
64.30046173
 20
11.12512903
 10
64.36648144
 20
11.05468885
 10
64.43499025
 20
10.99003202
 10
64.50584617
 20
10.93129252
 10
64.57890234
 20
10.8785921
 10
64.65400737
 20
10.83203997
 10
64.73100559
 20
10.79173262
 10
64.80973743
 20
10.75775358
 10
64.89003972
 20
10.73017328
 10
64.97174603
 20
10.70904887
 10
65.05468703
 20
10.69442413
 10
65.13869082
 20
10.68632938
 10
65.22358331
 20
10.68478139
 10
65.30918856
 20
10.68978336
 10
65.39532915
 20
10.70132494
 10
65.48182655
 20
10.7193822
 10
65.5685015
 20
10.74391771
 10
65.65517438
 20
10.77488063
 10
65.74166554
 20
10.8122068
 10
65.82779574
 20
10.85581884
 10
65.91338647
 20
10.90562637
 10
65.99826035
 20
10.96152618
 10
66.08224148
 20
11.0234024
 10
66.16515581
 20
11.0911268
 10
66.2468315
 20
11.16455903
 10
66.32709927
 20
11.24354688
 10
66.40579278
 20
11.32792667
 10
66.48274893
 20
11.41752352
 10
66.55780823
 20
11.51215173
 10
66.63081512
 20
11.6116152
 10
66.70161829
 20
11.71570778
 10
66.77007102
 20
11.82421375
 10
66.83603142
 20
11.93690822
 10
66.8993628
 20
12.05355764
 10
66.9599339
 20
12.17392026
 10
67.01761919
 20
12.29774662
 10
67.07229912
 20
12.4247801
 10
67.12386037
 20
12.55475742
 10
67.17219607
 20
12.6874092
 10
67.21720605
 20
12.82246052
 10
67.25879702
 20
12.9596315
 10
67.2968828
 20
13.09863784
 10
67.33138445
 20
13.23919147
 10
67.36223045
 20
13.38100107
 10
67.3893569
 20
13.52377276
1001
GRPNAME
1000
PASTMD0E
  0
LWPOLYLINE
  5
12FD
330
1153
100
AcDbEntity
  8
241
  6
CONTINUOUS
100
AcDbPolyline
 90
       70
 70
     0
 43
0.0
 10
67.3893569
 20
13.52377276
 10
67.40622712
 20
13.630509
 10
67.4192864
 20
13.73768963
 10
67.42850766
 20
13.8450925
 10
67.43387178
 20
13.95249503
 10
67.43536766
 20
14.05967461
 10
67.43299219
 20
14.16640911
 10
67.42675029
 20
14.27247732
 10
67.41665491
 20
14.3776594
 10
67.40272696
 20
14.48173737
 10
67.38499531
 20
14.58449552
 10
67.36349671
 20
14.68572088
 10
67.33827572
 20
14.78520365
 10
67.30938461
 20
14.88273765
 10
67.27688325
 20
14.97812073
 10
67.24083902
 20
15.07115522
 10
67.2013266
 20
15.1616483
 10
67.1584279
 20
15.2494124
 10
67.11223181
 20
15.33426565
 10
67.06283409
 20
15.41603217
 10
67.01033712
 20
15.4945425
 10
66.95484969
 20
15.56963393
 10
66.8964868
 20
15.64115083
 10
66.83536942
 20
15.70894497
 10
66.77162422
 20
15.77287585
 10
66.7053833
 20
15.83281096
 10
66.63678396
 20
15.8886261
 10
66.56596837
 20
15.94020557
 10
66.49308329
 20
15.98744249
 10
66.4182798
 20
16.03023895
 10
66.34171291
 20
16.06850625
 10
66.26354132
 20
16.10216508
 10
66.18392704
 20
16.13114569
 10
66.10303508
 20
16.155388
 10
66.02103308
 20
16.17484178
 10
65.93809101
 20
16.1894667
 10
65.85438075
 20
16.19923246
 10
65.77007581
 20
16.20411882
 10
65.68535091
 20
16.20411565
 10
65.60038165
 20
16.19922295
 10
65.51534412
 20
16.18945087
 10
65.43041458
 20
16.17481966
 10
65.34576903
 20
16.15535964
 10
65.26158293
 20
16.13111114
 10
65.17803073
 20
16.10212443
 10
65.09528561
 20
16.06845957
 10
65.01351906
 20
16.03018634
 10
64.93290055
 20
15.98738406
 10
64.85359716
 20
15.94014145
 10
64.77577325
 20
15.8885564
 10
64.69959012
 20
15.83273585
 10
64.62520565
 20
15.77279546
 10
64.55277401
 20
15.70885949
 10
64.48244532
 20
15.64106042
 10
64.41436534
 20
15.56953879
 10
64.34867517
 20
15.49444283
 10
64.28551095
 20
15.41592816
 10
64.22500359
 20
15.33415752
 10
64.1672785
 20
15.24930039
 10
64.11245532
 20
15.16153262
 10
64.06064766
 20
15.07103613
 10
64.01196291
 20
14.97799846
 10
63.96650196
 20
14.88261246
 10
63.92435903
 20
14.7850758
 10
63.88562147
 20
14.68559063
 10
63.85036955
 20
14.58436315
 10
63.81867636
 20
14.48160315
 10
63.79060756
 20
14.37752361
 10
63.76622133
 20
14.27234023
 10
63.74556821
 20
14.16627101
1001
GRPNAME
1000
PASTMD0E
  0
LINE
  5
12FE
330
1153
100
AcDbEntity
  8
246
100
AcDbLine
 10
70.0
 20
25.0
 30
0.0
 11
70.0
 21
-25.0
 31
0.0
1001
GRPNAME
1000
PASTMD0E
  0
LINE
  5
12FF
330
1153
100
AcDbEntity
  8
241
  6
CONTINUOUS
100
AcDbLine
 10
57.12716376
 20
0.53532922
 30
0.0
 11
69.4
 21
-3.93161786
 31
0.0
1001
GRPNAME
1000
PASTMD0E
  0
LINE
  5
1300
330
1153
100
AcDbEntity
  8
241
  6
CONTINUOUS
100
AcDbLine
 10
58.62351139
 20
3.60329651
 30
0.0
 11
57.07193983
 21
0.42210339
 31
0.0
1001
GRPNAME
1000
PASTMD0E
  0
LINE
  5
1301
330
1153
100
AcDbEntity
  8
241
  6
CONTINUOUS
100
AcDbLine
 10
45.90616721
 20
-7.03115464
 30
0.0
 11
69.4
 21
-19.65797904
 31
0.0
1001
GRPNAME
1000
PASTMD0E
  0
LINE
  5
1302
330
1153
100
AcDbEntity
  8
240
  6
CONTINUOUS
100
AcDbLine
 10
69.4
 20
-24.3
 30
0.0
 11
58.10000001
 21
-24.55
 31
0.0
1001
GRPNAME
1000
PASTMD0E
  0
LINE
  5
1303
330
1153
100
AcDbEntity
  8
241
  6
CONTINUOUS
100
AcDbLine
 10
27.0
 20
0.0
 30
0.0
 11
27.0
 21
-27.4
 31
0.0
  0
LINE
  5
1304
330
1153
100
AcDbEntity
  8
241
  6
HIDDEN2
100
AcDbLine
 10
23.0
 20
-22.5
 30
0.0
 11
23.0
 21
-31.5
 31
0.0
  0
LINE
  5
1305
330
1153
100
AcDbEntity
  8
241
  6
CONTINUOUS
100
AcDbLine
 10
11.6
 20
-31.5
 30
0.0
 11
11.6
 21
0.0
 31
0.0
  0
LINE
  5
1306
330
1153
100
AcDbEntity
  8
241
  6
CONTINUOUS
100
AcDbLine
 10
21.6
 20
0.0
 30
0.0
 11
21.6
 21
-31.5
 31
0.0
  0
LINE
  5
1307
330
1153
100
AcDbEntity
  8
241
  6
CONTINUOUS
100
AcDbLine
 10
18.71324865
 20
-26.5
 30
0.0
 11
18.71324865
 21
0.0
 31
0.0
  0
LINE
  5
1308
330
1153
100
AcDbEntity
  8
241
  6
CONTINUOUS
100
AcDbLine
 10
14.48675135
 20
-26.5
 30
0.0
 11
14.48675135
 21
0.0
 31
0.0
  0
ARC
  5
1309
330
1153
100
AcDbEntity
  8
240
  6
CONTINUOUS
100
AcDbCircle
 10
30.0
 20
-27.4
 30
0.0
 40
3.0
100
AcDbArc
 50
89.99999999
 51
179.99999999
1001
GRPNAME
1000
PASTMD05
  0
LINE
  5
130A
330
1153
100
AcDbEntity
  8
240
  6
CONTINUOUS
100
AcDbLine
 10
57.35358983
 20
-24.4
 30
0.0
 11
30.0
 21
-24.4
 31
0.0
1001
GRPNAME
1000
PASTMD0E
  0
LINE
  5
130B
330
1153
100
AcDbEntity
  8
240
  6
CONTINUOUS
100
AcDbLine
 10
18.71324865
 20
-26.5
 30
0.0
 11
14.48675135
 21
-26.5
 31
0.0
  0
LINE
  5
130C
330
1153
100
AcDbEntity
  8
240
  6
CONTINUOUS
100
AcDbLine
 10
2.0
 20
-31.5
 30
0.0
 11
11.6
 21
-31.5
 31
0.0
  0
LINE
  5
130D
330
1153
100
AcDbEntity
  8
240
  6
CONTINUOUS
100
AcDbLine
 10
14.48675135
 20
-26.5
 30
0.0
 11
11.6
 21
-31.5
 31
0.0
  0
LINE
  5
130E
330
1153
100
AcDbEntity
  8
240
  6
CONTINUOUS
100
AcDbLine
 10
21.6
 20
-31.5
 30
0.0
 11
26.0
 21
-31.5
 31
0.0
  0
LINE
  5
130F
330
1153
100
AcDbEntity
  8
240
  6
CONTINUOUS
100
AcDbLine
 10
18.71324865
 20
-26.5
 30
0.0
 11
21.6
 21
-31.5
 31
0.0
  0
LINE
  5
1310
330
1153
100
AcDbEntity
  8
240
  6
CONTINUOUS
100
AcDbLine
 10
27.0
 20
-30.5
 30
0.0
 11
27.0
 21
-27.4
 31
0.0
  0
ARC
  5
1311
330
1153
100
AcDbEntity
  8
240
  6
CONTINUOUS
100
AcDbCircle
 10
26.0
 20
-30.5
 30
0.0
 40
1.0
100
AcDbArc
 50
270.0
 51
0.0
  0
LINE
  5
1312
330
1153
100
AcDbEntity
  8
240
  6
CONTINUOUS
100
AcDbLine
 10
58.10000001
 20
-24.55
 30
0.0
 11
57.35358983
 21
-24.4
 31
0.0
1001
GRPNAME
1000
PASTMD0E
  0
ARC
  5
1313
330
1153
100
AcDbEntity
  8
241
  6
CONTINUOUS
100
AcDbCircle
 10
48.1592454
 20
-2.83901254
 30
0.0
 40
4.759245396937178
100
AcDbArc
 50
79.99999997
 51
241.74405445
1001
GRPNAME
1000
PASTMD0E
  0
LINE
  5
1314
330
1153
100
AcDbEntity
  8
241
  6
CONTINUOUS
100
AcDbLine
 10
48.98567969
 20
1.84792923
 30
0.0
 11
57.07193983
 21
0.42210339
 31
0.0
1001
GRPNAME
1000
PASTMD0E
  0
LINE
  5
1315
330
1153
100
AcDbEntity
  8
240
  6
CONTINUOUS
100
AcDbLine
 10
69.4
 20
-24.3
 30
0.0
 11
69.4
 21
-3.93161786
 31
0.0
1001
GRPNAME
1000
PASTMD0E
  0
LINE
  5
1316
330
1153
100
AcDbEntity
  8
246
100
AcDbLine
 10
70.0
 20
-25.0
 30
0.0
 11
59.0
 21
-25.0
 31
0.0
  0
LINE
  5
1317
330
1153
100
AcDbEntity
  8
241
  6
CONTINUOUS
100
AcDbLine
 10
58.62351139
 20
3.60329651
 30
0.0
 11
69.3845265
 21
1.70583921
 31
0.0
1001
GRPNAME
1000
PASTMD0E
  0
LINE
  5
1318
330
1153
100
AcDbEntity
  8
240
  6
CONTINUOUS
100
AcDbLine
 10
69.3845265
 20
1.70583921
 30
0.0
 11
70.0
 21
-4.15
 31
0.0
1001
GRPNAME
1000
PASTMD0E
  0
LINE
  5
1319
330
1153
100
AcDbEntity
  8
240
  6
CONTINUOUS
100
AcDbLine
 10
70.0
 20
-4.15
 30
0.0
 11
69.4
 21
-3.93161786
 31
0.0
1001
GRPNAME
1000
PASTMD0E
  0
LINE
  5
131A
330
1153
100
AcDbEntity
  8
240
  6
CONTINUOUS
100
AcDbLine
 10
69.4
 20
1.70311081
 30
0.0
 11
69.3845265
 21
1.70583921
 31
0.0
1001
GRPNAME
1000
PASTMD0E
  0
LINE
  5
131B
330
1153
100
AcDbEntity
  8
240
  6
CONTINUOUS
100
AcDbLine
 10
69.4
 20
24.3
 30
0.0
 11
58.10000001
 21
24.55
 31
0.0
1001
GRPNAME
1000
PASTMD0E
  0
LINE
  5
131C
330
1153
100
AcDbEntity
  8
240
  6
CONTINUOUS
100
AcDbLine
 10
57.35358983
 20
24.4
 30
0.0
 11
30.0
 21
24.4
 31
0.0
1001
GRPNAME
1000
PASTMD0E
  0
LINE
  5
131D
330
1153
100
AcDbEntity
  8
240
  6
CONTINUOUS
100
AcDbLine
 10
18.71324865
 20
26.5
 30
0.0
 11
14.48675135
 21
26.5
 31
0.0
  0
LINE
  5
131E
330
1153
100
AcDbEntity
  8
240
  6
CONTINUOUS
100
AcDbLine
 10
2.0
 20
31.5
 30
0.0
 11
11.6
 21
31.5
 31
0.0
  0
LINE
  5
131F
330
1153
100
AcDbEntity
  8
240
  6
CONTINUOUS
100
AcDbLine
 10
11.6
 20
31.5
 30
0.0
 11
14.48675135
 21
26.5
 31
0.0
  0
LINE
  5
1320
330
1153
100
AcDbEntity
  8
241
  6
HIDDEN2
100
AcDbLine
 10
23.0
 20
22.5
 30
0.0
 11
23.0
 21
31.5
 31
0.0
  0
LINE
  5
1321
330
1153
100
AcDbEntity
  8
240
  6
CONTINUOUS
100
AcDbLine
 10
21.6
 20
31.5
 30
0.0
 11
26.0
 21
31.5
 31
0.0
  0
LINE
  5
1322
330
1153
100
AcDbEntity
  8
240
  6
CONTINUOUS
100
AcDbLine
 10
21.6
 20
31.5
 30
0.0
 11
18.71324865
 21
26.5
 31
0.0
  0
LINE
  5
1323
330
1153
100
AcDbEntity
  8
240
  6
CONTINUOUS
100
AcDbLine
 10
27.0
 20
30.5
 30
0.0
 11
27.0
 21
27.4
 31
0.0
  0
ARC
  5
1324
330
1153
100
AcDbEntity
  8
240
  6
CONTINUOUS
100
AcDbCircle
 10
30.0
 20
27.4
 30
0.0
 40
3.0
100
AcDbArc
 50
179.99999999
 51
269.99999999
1001
GRPNAME
1000
PASTMD05
  0
ARC
  5
1325
330
1153
100
AcDbEntity
  8
240
  6
CONTINUOUS
100
AcDbCircle
 10
26.0
 20
30.5
 30
0.0
 40
1.0
100
AcDbArc
 50
0.0
 51
90.0
  0
LINE
  5
1326
330
1153
100
AcDbEntity
  8
240
  6
CONTINUOUS
100
AcDbLine
 10
58.10000001
 20
24.55
 30
0.0
 11
57.35358983
 21
24.4
 31
0.0
1001
GRPNAME
1000
PASTMD0E
  0
LINE
  5
1327
330
1153
100
AcDbEntity
  8
246
100
AcDbLine
 10
70.0
 20
25.0
 30
0.0
 11
59.0
 21
25.0
 31
0.0
  0
ENDBLK
  5
1155
330
1153
100
AcDbEntity
  8
0
100
AcDbBlockEnd
  0
ENDSEC
  0
SECTION
  2
ENTITIES
  0
DIMENSION
  5
F8A
330
1A
100
AcDbEntity
  8
250
  6
CONTINUOUS
100
AcDbDimension
  2
*D1
 10
70.0
 20
52.5
 30
0.0
 11
35.0
 21
55.0
 31
0.0
 70
    32
  3
BIGT
100
AcDbAlignedDimension
 13
0.0
 23
22.225
 33
0.0
 14
70.0
 24
25.0
 34
0.0
100
AcDbRotatedDimension
1001
ACAD
1000
DSTYLE
1002
{
1070
    78
1070
     8
1070
   140
1040
3.0
1002
}
  0
TEXT
  5
F8E
330
1A
100
AcDbEntity
  8
241
100
AcDbText
 10
-65.4
 20
66.5
 30
0.0
 40
5.0
  1
BBT40-FCM50115-70
  7
YOKO
 11
-65.4
 21
66.5
 31
0.0
100
AcDbText
 73
     1
  0
DIMENSION
  5
F90
330
1A
100
AcDbEntity
  8
250
  6
CONTINUOUS
100
AcDbDimension
  2
*D2
 10
84.0
 20
25.0
 30
0.0
 11
84.0
 21
0.0
 31
0.0
 70
   160
  1
{\H3;\U+2205}<>
  3
BIGT
100
AcDbAlignedDimension
 13
70.0
 23
-25.0
 33
0.0
 14
70.0
 24
25.0
 34
0.0
 50
90.0
100
AcDbRotatedDimension
1001
ACAD
1000
DSTYLE
1002
{
1070
    78
1070
     8
1070
   140
1040
3.0
1002
}
  0
DIMENSION
  5
F92
330
1A
100
AcDbEntity
  8
250
  6
CONTINUOUS
100
AcDbDimension
  2
*D3
 10
70.0
 20
45.5
 30
0.0
 11
51.0
 21
48.0
 31
0.0
 70
    32
  3
BIGT
100
AcDbAlignedDimension
 13
32.0
 23
24.4
 33
0.0
 14
70.0
 24
25.0
 34
0.0
100
AcDbRotatedDimension
1001
ACAD
1000
DSTYLE
1002
{
1070
    78
1070
     8
1070
   140
1040
3.0
1002
}
  0
DIMENSION
  5
110A
330
1A
100
AcDbEntity
  8
250
  6
CONTINUOUS
100
AcDbDimension
  2
*D4
 10
70.0
 20
38.5
 30
0.0
 11
64.5
 21
38.5
 31
0.0
 70
   160
  3
BIGT
100
AcDbAlignedDimension
 13
59.0
 23
25.0
 33
0.0
 14
70.0
 24
25.0
 34
0.0
100
AcDbRotatedDimension
  0
LEADER
  5
1299
330
1A
100
AcDbEntity
  8
250
  6
CONTINUOUS
100
AcDbLeader
  3
BIGT
 76
     2
 10
-26.64442081
 20
-18.3393553
 30
0.0
 10
-32.4583971
 20
-28.40945762
 30
0.0
1001
ACAD
1000
DSTYLE
1002
{
1070
     5
1000
OPEN
1070
   343
1005
594
1002
}
  0
MTEXT
  5
129A
330
1A
100
AcDbEntity
  8
250
  6
CONTINUOUS
 62
    40
100
AcDbMText
 10
-47.39173044
 20
-27.40945762
 30
0.0
 40
2.8
 41
0.0
 71
     7
 72
     1
  1
BBT40
  7
YOKO
1001
ITEMNAME
1000
LNSP3
1001
ACAD
1000
MTEXTBEGIN
1070
    73
1070
     1
1070
    44
1040
1.0
1070
    74
1070
     0
1000
MTEXTEND
1000
MTEXTBEGIN
1070
    73
1070
     1
1070
    44
1040
1.0
1070
    74
1070
     0
1000
MTEXTEND
  0
LINE
  5
129D
330
1A
100
AcDbEntity
  8
250
  6
CONTINUOUS
100
AcDbLine
 10
-32.4583971
 20
-28.40945762
 30
0.0
 11
-50.19173044
 21
-28.40945762
 31
0.0
1001
ITEMNAME
1000
LNSP2
  0
INSERT
  5
1328
330
1A
100
AcDbEntity
  8
240
100
AcDbBlockReference
  2
1
 10
0.0
 20
0.0
 30
0.0
  0
VIEWPORT
  5
22
330
17
100
AcDbEntity
 67
     1
  8
0
100
AcDbViewport
 10
261.51769912
 20
148.5
 30
0.0
 40
523.03539823
 41
297.0
 68
     1
 69
     1
1001
ACAD
1000
MVIEW
1002
{
1070
    16
1010
0.0
1020
0.0
1030
0.0
1010
0.0
1020
0.0
1030
1.0
1040
0.0
1040
297.0
1040
261.51769912
1040
148.5
1040
50.0
1040
0.0
1040
0.0
1070
     0
1070
   100
1070
     1
1070
     1
1070
     0
1070
     0
1070
     0
1070
     0
1040
0.0
1040
0.0
1040
0.0
1040
1.0
1040
1.0
1040
10.0
1040
10.0
1070
     0
1002
{
1002
}
1002
}
  0
ENDSEC
  0
SECTION
  2
OBJECTS
  0
DICTIONARY
  5
C
330
0
100
AcDbDictionary
  3
ACAD_GROUP
350
D
  3
ACAD_LAYOUT
350
565
  3
ACAD_MLINESTYLE
350
E
  3
ACAD_PLOTSETTINGS
350
566
  3
ACAD_PLOTSTYLENAME
350
563
  3
ACDBHEADERROUNDTRIPXREC
350
132A
  3
ACDBVARIABLEDICTIONARY
350
1016
  3
GRADE_DWG
350
540
  0
DICTIONARY
  5
1041
330
1A
100
AcDbDictionary
280
     1
  3
ACAD_LAYOUTSELFREF
360
134C
  0
DICTIONARY
  5
103F
330
17
100
AcDbDictionary
280
     1
  3
ACAD_LAYOUTSELFREF
360
134B
  0
DICTIONARY
  5
D
102
{ACAD_REACTORS
330
C
102
}
330
C
100
AcDbDictionary
  3
ASTMD05-1
350
DCA
  3
ASTMD0E-1
350
935
  3
ASTMD0F-1
350
933
  3
ASTMD0G-1
350
92F
  3
DREC-1
350
5FC
  3
DREC-2
350
654
  3
DREC-3
350
673
  3
LNSP-1
350
ABB
  3
M10000G-1
350
931
  3
M10000H-1
350
92D
  3
M10000I-1
350
937
  0
DICTIONARY
  5
565
102
{ACAD_REACTORS
330
C
102
}
330
C
100
AcDbDictionary
  0
DICTIONARY
  5
E
102
{ACAD_REACTORS
330
C
102
}
330
C
100
AcDbDictionary
  3
STANDARD
350
13
  0
DICTIONARY
  5
566
102
{ACAD_REACTORS
330
C
102
}
330
C
100
AcDbDictionary
  0
ACDBDICTIONARYWDFLT
  5
563
102
{ACAD_REACTORS
330
C
102
}
330
C
100
AcDbDictionary
281
     1
  3
Normal
350
564
100
AcDbDictionaryWithDefault
340
564
  0
DICTIONARY
  5
132A
102
{ACAD_REACTORS
330
C
102
}
330
C
100
AcDbDictionary
  3
CEPSNTYPE
350
1334
  3
DIMSTYLEDATA
350
1338
  3
FINGERPRINTGUID
350
1335
  3
HYPERLINKBASE
350
132D
  3
INSUNITS
350
1333
  3
LAYOUTDICT
350
132F
  3
LWETCUNION
350
1332
  3
PLOTSETDICT
350
1330
  3
PLOTSTYLNAMDICT
350
1331
  3
PSVPSCALE
350
1337
  3
PUCSBASE
350
133B
  3
PUCSORGBACK
350
1341
  3
PUCSORGBOTTOM
350
133D
  3
PUCSORGFRONT
350
1340
  3
PUCSORGLEFT
350
133E
  3
PUCSORGRIGHT
350
133F
  3
PUCSORGTOP
350
133C
  3
PUCSORTHOREF
350
1339
  3
PUCSORTHOVIEW
350
133A
  3
STYLESHEET
350
132E
  3
TSTACKALIGN
350
132B
  3
TSTACKSIZE
350
132C
  3
UCSBASE
350
1344
  3
UCSORGBACK
350
134A
  3
UCSORGBOTTOM
350
1346
  3
UCSORGFRONT
350
1349
  3
UCSORGLEFT
350
1347
  3
UCSORGRIGHT
350
1348
  3
UCSORGTOP
350
1345
  3
UCSORTHOREF
350
1342
  3
UCSORTHOVIEW
350
1343
  3
VERSIONGUID
350
1336
  0
DICTIONARY
  5
1016
102
{ACAD_REACTORS
330
C
102
}
330
C
100
AcDbDictionary
  3
DIMASSOC
350
1017
  0
DICTIONARY
  5
540
102
{ACAD_REACTORS
330
C
102
}
330
C
100
AcDbDictionary
  3
VERSION
350
560
  0
XRECORD
  5
134C
102
{ACAD_REACTORS
330
1041
102
}
330
1041
100
AcDbXrecord
340
1A
  0
XRECORD
  5
134B
102
{ACAD_REACTORS
330
103F
102
}
330
103F
100
AcDbXrecord
340
17
  0
GROUP
  5
DCA
102
{ACAD_REACTORS
330
D
102
}
330
D
100
AcDbGroup
300

 70
     0
 71
     1
1001
GRPNAME
1000
PASTMD05
  0
GROUP
  5
935
102
{ACAD_REACTORS
330
D
102
}
330
D
100
AcDbGroup
300

 70
     0
 71
     1
1001
GRPNAME
1000
PASTMD0E
  0
GROUP
  5
933
102
{ACAD_REACTORS
330
D
102
}
330
D
100
AcDbGroup
300

 70
     0
 71
     1
1001
GRPNAME
1000
PASTMD0F
  0
GROUP
  5
92F
102
{ACAD_REACTORS
330
D
102
}
330
D
100
AcDbGroup
300

 70
     0
 71
     1
1001
GRPNAME
1000
PASTMD0G
  0
GROUP
  5
5FC
102
{ACAD_REACTORS
330
D
102
}
330
D
100
AcDbGroup
300

 70
     0
 71
     1
1001
GRPNAME
1000
DREC-
1001
GPARA
1000
xsiz
1000
44.182
1000
ysiz
1000
40.677
1000
angl
1000
0
1000
ctyp
1000
0
1000
csiz
1000
5
1000
lfnt
1000
cont
1000
hcnt
1000
hoff
1000
vcnt
1000
voff
1000
opnt
1000
4
1000
dxpt
1000
0
1000
dypt
1000
0
  0
GROUP
  5
654
102
{ACAD_REACTORS
330
D
102
}
330
D
100
AcDbGroup
300

 70
     0
 71
     1
1001
GRPNAME
1000
DREC-
1001
GPARA
1000
xsiz
1000
54.592
1000
ysiz
1000
53.036
1000
angl
1000
0
1000
ctyp
1000
0
1000
csiz
1000
5
1000
lfnt
1000
cont
1000
hcnt
1000
hoff
1000
vcnt
1000
voff
1000
opnt
1000
4
1000
dxpt
1000
0
1000
dypt
1000
0
  0
GROUP
  5
673
102
{ACAD_REACTORS
330
D
102
}
330
D
100
AcDbGroup
300

 70
     0
 71
     1
1001
GRPNAME
1000
DREC-
1001
GPARA
1000
xsiz
1000
30.363
1000
ysiz
1000
36.175
1000
angl
1000
0
1000
ctyp
1000
0
1000
csiz
1000
5
1000
lfnt
1000
cont
1000
hcnt
1000
hoff
1000
vcnt
1000
voff
1000
opnt
1000
4
1000
dxpt
1000
0
1000
dypt
1000
0
  0
GROUP
  5
ABB
102
{ACAD_REACTORS
330
D
102
}
330
D
100
AcDbGroup
300

 70
     0
 71
     1
1001
GRPNAME
1000
LNSP
  0
GROUP
  5
931
102
{ACAD_REACTORS
330
D
102
}
330
D
100
AcDbGroup
300

 70
     0
 71
     1
1001
GRPNAME
1000
DM10000G
  0
GROUP
  5
92D
102
{ACAD_REACTORS
330
D
102
}
330
D
100
AcDbGroup
300

 70
     0
 71
     1
1001
GRPNAME
1000
DM10000H
  0
GROUP
  5
937
102
{ACAD_REACTORS
330
D
102
}
330
D
100
AcDbGroup
300

 70
     0
 71
     1
1001
GRPNAME
1000
DM10000I
  0
MLINESTYLE
  5
13
102
{ACAD_REACTORS
330
E
102
}
330
E
100
AcDbMlineStyle
  2
STANDARD
 70
     0
  3

 62
     0
 51
90.0
 52
90.0
 71
     2
 49
0.5
 62
   256
  6
BYLAYER
 49
-0.5
 62
   256
  6
BYLAYER
  0
ACDBPLACEHOLDER
  5
564
102
{ACAD_REACTORS
330
563
102
}
330
563
100
AcDbPlaceHolder
280
     0
  0
XRECORD
  5
1334
102
{ACAD_REACTORS
330
132A
102
}
330
132A
100
AcDbXrecord
 90
        0
  0
XRECORD
  5
1338
102
{ACAD_REACTORS
330
132A
102
}
330
132A
100
AcDbXrecord
1000
DSTYLE
1002
{
1070
   341
340
594
1070
   342
340
594
1002
}
  0
XRECORD
  5
1335
102
{ACAD_REACTORS
330
132A
102
}
330
132A
100
AcDbXrecord
  1
{51294030-9CB4-11D3-8E18-00A0C925D94D}
  0
XRECORD
  5
132D
102
{ACAD_REACTORS
330
132A
102
}
330
132A
100
AcDbXrecord
  1

  0
XRECORD
  5
1333
102
{ACAD_REACTORS
330
132A
102
}
330
132A
100
AcDbXrecord
 90
        0
  0
XRECORD
  5
132F
102
{ACAD_REACTORS
330
132A
102
}
330
132A
100
AcDbXrecord
340
565
  0
XRECORD
  5
1332
102
{ACAD_REACTORS
330
132A
102
}
330
132A
100
AcDbXrecord
 90
    10781
  0
XRECORD
  5
1330
102
{ACAD_REACTORS
330
132A
102
}
330
132A
100
AcDbXrecord
340
566
  0
XRECORD
  5
1331
102
{ACAD_REACTORS
330
132A
102
}
330
132A
100
AcDbXrecord
340
563
  0
XRECORD
  5
1337
102
{ACAD_REACTORS
330
132A
102
}
330
132A
100
AcDbXrecord
 40
0.0
  0
XRECORD
  5
133B
102
{ACAD_REACTORS
330
132A
102
}
330
132A
100
AcDbXrecord
340
0
  0
XRECORD
  5
1341
102
{ACAD_REACTORS
330
132A
102
}
330
132A
100
AcDbXrecord
 10
0.0
 20
0.0
 30
0.0
  0
XRECORD
  5
133D
102
{ACAD_REACTORS
330
132A
102
}
330
132A
100
AcDbXrecord
 10
0.0
 20
0.0
 30
0.0
  0
XRECORD
  5
1340
102
{ACAD_REACTORS
330
132A
102
}
330
132A
100
AcDbXrecord
 10
0.0
 20
0.0
 30
0.0
  0
XRECORD
  5
133E
102
{ACAD_REACTORS
330
132A
102
}
330
132A
100
AcDbXrecord
 10
0.0
 20
0.0
 30
0.0
  0
XRECORD
  5
133F
102
{ACAD_REACTORS
330
132A
102
}
330
132A
100
AcDbXrecord
 10
0.0
 20
0.0
 30
0.0
  0
XRECORD
  5
133C
102
{ACAD_REACTORS
330
132A
102
}
330
132A
100
AcDbXrecord
 10
0.0
 20
0.0
 30
0.0
  0
XRECORD
  5
1339
102
{ACAD_REACTORS
330
132A
102
}
330
132A
100
AcDbXrecord
340
0
  0
XRECORD
  5
133A
102
{ACAD_REACTORS
330
132A
102
}
330
132A
100
AcDbXrecord
 70
     0
  0
XRECORD
  5
132E
102
{ACAD_REACTORS
330
132A
102
}
330
132A
100
AcDbXrecord
  1
big.ctb
  0
XRECORD
  5
132B
102
{ACAD_REACTORS
330
132A
102
}
330
132A
100
AcDbXrecord
 90
        1
  0
XRECORD
  5
132C
102
{ACAD_REACTORS
330
132A
102
}
330
132A
100
AcDbXrecord
 90
       70
  0
XRECORD
  5
1344
102
{ACAD_REACTORS
330
132A
102
}
330
132A
100
AcDbXrecord
340
0
  0
XRECORD
  5
134A
102
{ACAD_REACTORS
330
132A
102
}
330
132A
100
AcDbXrecord
 10
0.0
 20
0.0
 30
0.0
  0
XRECORD
  5
1346
102
{ACAD_REACTORS
330
132A
102
}
330
132A
100
AcDbXrecord
 10
0.0
 20
0.0
 30
0.0
  0
XRECORD
  5
1349
102
{ACAD_REACTORS
330
132A
102
}
330
132A
100
AcDbXrecord
 10
0.0
 20
0.0
 30
0.0
  0
XRECORD
  5
1347
102
{ACAD_REACTORS
330
132A
102
}
330
132A
100
AcDbXrecord
 10
0.0
 20
0.0
 30
0.0
  0
XRECORD
  5
1348
102
{ACAD_REACTORS
330
132A
102
}
330
132A
100
AcDbXrecord
 10
0.0
 20
0.0
 30
0.0
  0
XRECORD
  5
1345
102
{ACAD_REACTORS
330
132A
102
}
330
132A
100
AcDbXrecord
 10
0.0
 20
0.0
 30
0.0
  0
XRECORD
  5
1342
102
{ACAD_REACTORS
330
132A
102
}
330
132A
100
AcDbXrecord
340
0
  0
XRECORD
  5
1343
102
{ACAD_REACTORS
330
132A
102
}
330
132A
100
AcDbXrecord
 70
     0
  0
XRECORD
  5
1336
102
{ACAD_REACTORS
330
132A
102
}
330
132A
100
AcDbXrecord
  1
{FC6F78AF-3F2D-4A48-A8CB-E782A6938A19}
  0
DICTIONARYVAR
  5
1017
102
{ACAD_REACTORS
330
1016
102
}
330
1016
100
DictionaryVariables
280
     0
  1
1
  0
XRECORD
  5
560
102
{ACAD_REACTORS
330
540
102
}
330
540
100
AcDbXrecord
  1
2.0.0
  0
ENDSEC
  0
EOF
