  0
SECTION
  2
HEADER
  9
$ACADVER
  1
AC1014
  9
$ACADMAINTVER
 70
     9
  9
$DWGCODEPAGE
  3
ANSI_932
  9
$INSBASE
 10
0.0
 20
0.0
 30
0.0
  9
$EXTMIN
 10
-66.41108924
 20
-31.71448253
 30
-0.00152582
  9
$EXTMAX
 10
99.02529664
 20
68.01330306
 30
0.00000003
  9
$LIMMIN
 10
0.0
 20
0.0
  9
$LIMMAX
 10
297.0
 20
210.0
  9
$ORTHOMODE
 70
     0
  9
$REGENMODE
 70
     1
  9
$FILLMODE
 70
     1
  9
$QTEXTMODE
 70
     0
  9
$MIRRTEXT
 70
     1
  9
$DRAGMODE
 70
     2
  9
$LTSCALE
 40
10.0
  9
$OSMODE
 70
   549
  9
$ATTMODE
 70
     1
  9
$TEXTSIZE
 40
3.0
  9
$TRACEWID
 40
1.0
  9
$TEXTSTYLE
  7
YOKO
  9
$CLAYER
  8
241
  9
$CELTYPE
  6
BYLAYER
  9
$CECOLOR
 62
   256
  9
$CELTSCALE
 40
1.0
  9
$DELOBJ
 70
     1
  9
$DISPSILH
 70
     0
  9
$DIMSCALE
 40
1.0
  9
$DIMASZ
 40
2.23
  9
$DIMEXO
 40
0.5
  9
$DIMDLI
 40
2.5
  9
$DIMRND
 40
0.0
  9
$DIMDLE
 40
0.0
  9
$DIMEXE
 40
1.0
  9
$DIMTP
 40
0.0
  9
$DIMTM
 40
0.0
  9
$DIMTXT
 40
3.5
  9
$DIMCEN
 40
0.0
  9
$DIMTSZ
 40
0.0
  9
$DIMTOL
 70
     0
  9
$DIMLIM
 70
     0
  9
$DIMTIH
 70
     0
  9
$DIMTOH
 70
     0
  9
$DIMSE1
 70
     0
  9
$DIMSE2
 70
     0
  9
$DIMTAD
 70
     3
  9
$DIMZIN
 70
     9
  9
$DIMBLK
  1
OPEN
  9
$DIMASO
 70
     1
  9
$DIMSHO
 70
     1
  9
$DIMPOST
  1

  9
$DIMAPOST
  1

  9
$DIMALT
 70
     0
  9
$DIMALTD
 70
     2
  9
$DIMALTF
 40
25.4
  9
$DIMLFAC
 40
1.0
  9
$DIMTOFL
 70
     1
  9
$DIMTVP
 40
0.0
  9
$DIMTIX
 70
     0
  9
$DIMSOXD
 70
     0
  9
$DIMSAH
 70
     0
  9
$DIMBLK1
  1

  9
$DIMBLK2
  1

  9
$DIMSTYLE
  2
BIGT
  9
$DIMCLRD
 70
   256
  9
$DIMCLRE
 70
   256
  9
$DIMCLRT
 70
    40
  9
$DIMTFAC
 40
1.0
  9
$DIMGAP
 40
1.0
  9
$DIMJUST
 70
     0
  9
$DIMSD1
 70
     0
  9
$DIMSD2
 70
     0
  9
$DIMTOLJ
 70
     1
  9
$DIMTZIN
 70
     8
  9
$DIMALTZ
 70
     0
  9
$DIMALTTZ
 70
     0
  9
$DIMFIT
 70
     3
  9
$DIMUPT
 70
     0
  9
$DIMUNIT
 70
     2
  9
$DIMDEC
 70
     3
  9
$DIMTDEC
 70
     3
  9
$DIMALTU
 70
     2
  9
$DIMALTTD
 70
     2
  9
$DIMTXSTY
  7
STANDARD
  9
$DIMAUNIT
 70
     0
  9
$LUNITS
 70
     2
  9
$LUPREC
 70
     3
  9
$SKETCHINC
 40
1.0
  9
$FILLETRAD
 40
1.6
  9
$AUNITS
 70
     0
  9
$AUPREC
 70
     3
  9
$MENU
  1
.
  9
$ELEVATION
 40
0.0
  9
$PELEVATION
 40
0.0
  9
$THICKNESS
 40
0.0
  9
$LIMCHECK
 70
     0
  9
$BLIPMODE
 70
     0
  9
$CHAMFERA
 40
10.0
  9
$CHAMFERB
 40
10.0
  9
$CHAMFERC
 40
0.0
  9
$CHAMFERD
 40
0.0
  9
$SKPOLY
 70
     0
  9
$TDCREATE
 40
2452356.692130891
  9
$TDUPDATE
 40
2455377.652921007
  9
$TDINDWG
 40
0.1288058796
  9
$TDUSRTIMER
 40
0.1288058796
  9
$USRTIMER
 70
     1
  9
$ANGBASE
 50
0.0
  9
$ANGDIR
 70
     0
  9
$PDMODE
 70
     1
  9
$PDSIZE
 40
-5.0
  9
$PLINEWID
 40
0.0
  9
$COORDS
 70
     0
  9
$SPLFRAME
 70
     0
  9
$SPLINETYPE
 70
     6
  9
$SPLINESEGS
 70
     8
  9
$ATTDIA
 70
     0
  9
$ATTREQ
 70
     1
  9
$HANDLING
 70
-16383
  9
$HANDSEED
  5
1164
  9
$SURFTAB1
 70
     6
  9
$SURFTAB2
 70
     6
  9
$SURFTYPE
 70
     6
  9
$SURFU
 70
     6
  9
$SURFV
 70
     6
  9
$UCSNAME
  2

  9
$UCSORG
 10
0.0
 20
0.0
 30
0.0
  9
$UCSXDIR
 10
1.0
 20
0.0
 30
0.0
  9
$UCSYDIR
 10
0.0
 20
1.0
 30
0.0
  9
$PUCSNAME
  2

  9
$PUCSORG
 10
0.0
 20
0.0
 30
0.0
  9
$PUCSXDIR
 10
1.0
 20
0.0
 30
0.0
  9
$PUCSYDIR
 10
0.0
 20
1.0
 30
0.0
  9
$USERI1
 70
     1
  9
$USERI2
 70
     0
  9
$USERI3
 70
     0
  9
$USERI4
 70
     0
  9
$USERI5
 70
     0
  9
$USERR1
 40
0.0
  9
$USERR2
 40
0.0
  9
$USERR3
 40
0.0
  9
$USERR4
 40
0.0
  9
$USERR5
 40
0.0
  9
$WORLDVIEW
 70
     1
  9
$SHADEDGE
 70
     3
  9
$SHADEDIF
 70
    70
  9
$TILEMODE
 70
     1
  9
$MAXACTVP
 70
    16
  9
$PINSBASE
 10
0.0
 20
0.0
 30
0.0
  9
$PLIMCHECK
 70
     0
  9
$PEXTMIN
 10
1.00000000E+20
 20
1.00000000E+20
 30
1.00000000E+20
  9
$PEXTMAX
 10
-1.00000000E+20
 20
-1.00000000E+20
 30
-1.00000000E+20
  9
$PLIMMIN
 10
0.0
 20
0.0
  9
$PLIMMAX
 10
420.0
 20
297.0
  9
$UNITMODE
 70
     0
  9
$VISRETAIN
 70
     0
  9
$PLINEGEN
 70
     0
  9
$PSLTSCALE
 70
     1
  9
$TREEDEPTH
 70
  3020
  9
$PICKSTYLE
 70
     0
  9
$CMLSTYLE
  2
STANDARD
  9
$CMLJUST
 70
     0
  9
$CMLSCALE
 40
1.0
  9
$PROXYGRAPHICS
 70
     1
  9
$MEASUREMENT
 70
     1
  0
ENDSEC
  0
SECTION
  2
CLASSES
  0
CLASS
  1
XRECORD
  2
AcDbXrecord
  3
AutoCAD 2000
 90
        0
280
     0
281
     0
  0
CLASS
  1
ACDBDICTIONARYWDFLT
  2
AcDbDictionaryWithDefault
  3
AutoCAD 2000
 90
        0
280
     0
281
     0
  0
CLASS
  1
ACDBPLACEHOLDER
  2
AcDbPlaceHolder
  3
AutoCAD 2000
 90
        0
280
     0
281
     0
  0
CLASS
  1
LAYOUT
  2
AcDbLayout
  3
AutoCAD 2000
 90
        0
280
     0
281
     0
  0
CLASS
  1
DICTIONARYVAR
  2
AcDbDictionaryVar
  3
AutoCAD 2000
 90
        0
280
     0
281
     0
  0
CLASS
  1
LONG_TRANSACTION
  2
AcDbLongTransaction
  3
AutoCAD 2000
 90
        0
280
     0
281
     0
  0
CLASS
  1
LWPOLYLINE
  2
AcDbPolyline
  3
AutoCAD 2000
 90
        0
280
     0
281
     1
  0
CLASS
  1
HATCH
  2
AcDbHatch
  3
AutoCAD 2000
 90
        0
280
     0
281
     1
  0
CLASS
  1
XRECORD
  2
AcDbXrecord
  3
AutoCAD 2000
 90
        0
280
     0
281
     0
  0
CLASS
  1
LONG_TRANSACTION
  2
AcDbLongTransaction
  3
AutoCAD 2000
 90
        0
280
     0
281
     0
  0
CLASS
  1
LWPOLYLINE
  2
AcDbPolyline
  3
AutoCAD 2000
 90
        0
280
     0
281
     1
  0
CLASS
  1
HATCH
  2
AcDbHatch
  3
AutoCAD 2000
 90
        0
280
     0
281
     1
  0
CLASS
  1
XRECORD
  2
AcDbXrecord
  3
AutoCAD 2000
 90
        0
280
     0
281
     0
  0
CLASS
  1
LONG_TRANSACTION
  2
AcDbLongTransaction
  3
AutoCAD 2000
 90
        0
280
     0
281
     0
  0
CLASS
  1
LWPOLYLINE
  2
AcDbPolyline
  3
AutoCAD 2000
 90
        0
280
     0
281
     1
  0
CLASS
  1
HATCH
  2
AcDbHatch
  3
AutoCAD 2000
 90
        0
280
     0
281
     1
  0
CLASS
  1
XRECORD
  2
AcDbXrecord
  3
AutoCAD 2000
 90
        0
280
     0
281
     0
  0
CLASS
  1
LONG_TRANSACTION
  2
AcDbLongTransaction
  3
AutoCAD 2000
 90
        0
280
     0
281
     0
  0
CLASS
  1
LWPOLYLINE
  2
AcDbPolyline
  3
AutoCAD 2000
 90
        0
280
     0
281
     1
  0
CLASS
  1
HATCH
  2
AcDbHatch
  3
AutoCAD 2000
 90
        0
280
     0
281
     1
  0
CLASS
  1
XRECORD
  2
AcDbXrecord
  3
AutoCAD 2000
 90
        0
280
     0
281
     0
  0
ENDSEC
  0
SECTION
  2
TABLES
  0
TABLE
  2
VPORT
  5
8
330
0
100
AcDbSymbolTable
 70
     4
  0
VPORT
  5
113F
330
8
100
AcDbSymbolTableRecord
100
AcDbViewportTableRecord
  2
*ACTIVE
 70
     0
 10
0.0
 20
0.0
 11
1.0
 21
1.0
 12
16.3071037
 22
18.14941026
 13
0.0
 23
0.0
 14
7.0
 24
7.0
 15
7.0
 25
7.0
 16
0.0
 26
0.0
 36
1.0
 17
0.0
 27
0.0
 37
0.0
 40
114.23289207
 41
1.45595855
 42
50.0
 43
0.0
 44
0.0
 50
0.0
 51
0.0
 71
     0
 72
  2000
 73
     1
 74
     0
 75
     0
 76
     0
 77
     0
 78
     0
  0
ENDTAB
  0
TABLE
  2
LTYPE
  5
5
330
0
100
AcDbSymbolTable
 70
     4
  0
LTYPE
  5
14
330
5
100
AcDbSymbolTableRecord
100
AcDbLinetypeTableRecord
  2
BYBLOCK
 70
     0
  3

 72
    65
 73
     0
 40
0.0
  0
LTYPE
  5
15
330
5
100
AcDbSymbolTableRecord
100
AcDbLinetypeTableRecord
  2
BYLAYER
 70
     0
  3

 72
    65
 73
     0
 40
0.0
  0
LTYPE
  5
16
330
5
100
AcDbSymbolTableRecord
100
AcDbLinetypeTableRecord
  2
CONTINUOUS
 70
     0
  3
Solid line
 72
    65
 73
     0
 40
0.0
  0
LTYPE
  5
258
330
5
100
AcDbSymbolTableRecord
100
AcDbLinetypeTableRecord
  2
CENTER2
 70
     0
  3
___ _ ___ _ ___ _ ___ _ ___ _ ___ _ ___ _ ___ _
 72
    65
 73
     4
 40
1.125
 49
0.75
 74
     0
 49
-0.125
 74
     0
 49
0.125
 74
     0
 49
-0.125
 74
     0
  0
LTYPE
  5
25C
330
5
100
AcDbSymbolTableRecord
100
AcDbLinetypeTableRecord
  2
HIDDEN2
 70
     0
  3
_ _ _ _ _ _ _ _ _ _ _ _ _ _ _ _ _ _ _ _ _ _ _ _
 72
    65
 73
     2
 40
0.1875
 49
0.125
 74
     0
 49
-0.0625
 74
     0
  0
LTYPE
  5
25D
330
5
100
AcDbSymbolTableRecord
100
AcDbLinetypeTableRecord
  2
PHANTOM2
 70
     0
  3
___ _ _ ___ _ _ ___ _ _ ___ _ _ ___ _ _ ___ _ _
 72
    65
 73
     6
 40
1.25
 49
0.625
 74
     0
 49
-0.125
 74
     0
 49
0.125
 74
     0
 49
-0.125
 74
     0
 49
0.125
 74
     0
 49
-0.125
 74
     0
  0
ENDTAB
  0
TABLE
  2
LAYER
  5
2
330
0
100
AcDbSymbolTable
 70
     8
  0
LAYER
  5
F
330
2
100
AcDbSymbolTableRecord
100
AcDbLayerTableRecord
  2
0
 70
     0
 62
     7
  6
CONTINUOUS
  0
LAYER
  5
1AA
330
2
100
AcDbSymbolTableRecord
100
AcDbLayerTableRecord
  2
240
 70
     0
 62
     4
  6
CONTINUOUS
  0
LAYER
  5
1AB
330
2
100
AcDbSymbolTableRecord
100
AcDbLayerTableRecord
  2
241
 70
     0
 62
   211
  6
CONTINUOUS
  0
LAYER
  5
1AF
330
2
100
AcDbSymbolTableRecord
100
AcDbLayerTableRecord
  2
245
 70
     0
 62
     2
  6
CENTER2
  0
LAYER
  5
21A
330
2
100
AcDbSymbolTableRecord
100
AcDbLayerTableRecord
  2
246
 70
     0
 62
     3
  6
PHANTOM2
  0
LAYER
  5
21E
330
2
100
AcDbSymbolTableRecord
100
AcDbLayerTableRecord
  2
250
 70
     0
 62
     3
  6
CONTINUOUS
  0
LAYER
  5
5C4
330
2
100
AcDbSymbolTableRecord
100
AcDbLayerTableRecord
  2
DEFPOINTS
 70
     0
 62
     7
  6
CONTINUOUS
  0
ENDTAB
  0
TABLE
  2
STYLE
  5
3
330
0
100
AcDbSymbolTable
 70
     2
  0
STYLE
  5
10
330
3
100
AcDbSymbolTableRecord
100
AcDbTextStyleTableRecord
  2
STANDARD
 70
     0
 40
0.0
 41
1.0
 50
0.0
 71
     0
 42
3.0
  3
romans.shx
  4
BIGFONT.SHX
  0
STYLE
  5
339
330
3
100
AcDbSymbolTableRecord
100
AcDbTextStyleTableRecord
  2
YOKO
 70
     0
 40
0.0
 41
1.0
 50
0.0
 71
     0
 42
3.0
  3
romans.shx
  4
extfont.shx
  0
ENDTAB
  0
TABLE
  2
VIEW
  5
6
330
0
100
AcDbSymbolTable
 70
     1
  0
VIEW
  5
113D
330
6
100
AcDbSymbolTableRecord
100
AcDbViewTableRecord
  2
OLE1
 70
     0
 40
114.23289207
 10
16.3071037
 20
18.14941026
 41
166.31835581
 11
0.0
 21
0.0
 31
1.0
 12
0.0
 22
0.0
 32
0.0
 42
50.0
 43
0.0
 44
0.0
 50
0.0
 71
     0
  0
ENDTAB
  0
TABLE
  2
UCS
  5
7
330
0
100
AcDbSymbolTable
 70
     0
  0
ENDTAB
  0
TABLE
  2
APPID
  5
9
330
0
100
AcDbSymbolTable
 70
    10
  0
APPID
  5
11
330
9
100
AcDbSymbolTableRecord
100
AcDbRegAppTableRecord
  2
ACAD
 70
     0
  0
APPID
  5
1B1
330
9
100
AcDbSymbolTableRecord
100
AcDbRegAppTableRecord
  2
GLOBAL
 70
     0
  0
APPID
  5
2A4
330
9
100
AcDbSymbolTableRecord
100
AcDbRegAppTableRecord
  2
DETAIL
 70
     0
  0
APPID
  5
5FD
330
9
100
AcDbSymbolTableRecord
100
AcDbRegAppTableRecord
  2
GRPNAME
 70
     0
  0
APPID
  5
5FE
330
9
100
AcDbSymbolTableRecord
100
AcDbRegAppTableRecord
  2
GPARA
 70
     0
  0
APPID
  5
6A8
330
9
100
AcDbSymbolTableRecord
100
AcDbRegAppTableRecord
  2
ITEMNAME
 70
     0
  0
APPID
  5
964
330
9
100
AcDbSymbolTableRecord
100
AcDbRegAppTableRecord
  2
HATCH_TYPE
 70
     0
  0
APPID
  5
965
330
9
100
AcDbSymbolTableRecord
100
AcDbRegAppTableRecord
  2
HATCH_DISPLAY
 70
     0
  0
APPID
  5
966
330
9
100
AcDbSymbolTableRecord
100
AcDbRegAppTableRecord
  2
HATCH_DISTANCE
 70
     0
  0
APPID
  5
F11
330
9
100
AcDbSymbolTableRecord
100
AcDbRegAppTableRecord
  2
CONTENTBLOCKICON
 70
     0
  0
ENDTAB
  0
TABLE
  2
DIMSTYLE
  5
A
330
0
100
AcDbSymbolTable
 70
     1
  0
DIMSTYLE
105
59A
102
{ACAD_REACTORS
330
C97
330
C9D
330
C9F
330
E1D
102
}
330
A
100
AcDbSymbolTableRecord
100
AcDbDimStyleTableRecord
  2
BIGT
 70
     0
  3

  4

  5
OPEN
  6

  7

 40
1.0
 41
2.23
 42
0.5
 43
2.5
 44
1.0
 45
0.0
 46
0.0
 47
0.0
 48
0.0
140
3.5
141
0.0
142
0.0
143
25.4
144
1.0
145
0.0
146
1.0
147
1.0
 71
     0
 72
     0
 73
     0
 74
     0
 75
     0
 76
     0
 77
     3
 78
     9
170
     0
171
     2
172
     1
173
     0
174
     0
175
     0
176
   256
177
   256
178
    40
270
     2
271
     3
272
     3
273
     2
274
     2
340
10
275
     0
280
     0
281
     0
282
     0
283
     1
284
     8
285
     0
286
     0
287
     3
288
     0
  0
ENDTAB
  0
TABLE
  2
BLOCK_RECORD
  5
1
330
0
100
AcDbSymbolTable
 70
     6
  0
BLOCK_RECORD
  5
1A
102
{ACAD_XDICTIONARY
360
D4E
102
}
330
1
100
AcDbSymbolTableRecord
100
AcDbBlockTableRecord
  2
*MODEL_SPACE
  0
BLOCK_RECORD
  5
17
102
{ACAD_XDICTIONARY
360
D4C
102
}
330
1
100
AcDbSymbolTableRecord
100
AcDbBlockTableRecord
  2
*PAPER_SPACE
  0
BLOCK_RECORD
  5
594
330
1
100
AcDbSymbolTableRecord
100
AcDbBlockTableRecord
  2
_OPEN
  0
BLOCK_RECORD
  5
CAC
330
1
100
AcDbSymbolTableRecord
100
AcDbBlockTableRecord
  2
*D1
  0
BLOCK_RECORD
  5
CC6
330
1
100
AcDbSymbolTableRecord
100
AcDbBlockTableRecord
  2
*D2
  0
BLOCK_RECORD
  5
CDE
330
1
100
AcDbSymbolTableRecord
100
AcDbBlockTableRecord
  2
*D3
  0
BLOCK_RECORD
  5
E1E
330
1
100
AcDbSymbolTableRecord
100
AcDbBlockTableRecord
  2
*D4
  0
BLOCK_RECORD
  5
E68
330
1
100
AcDbSymbolTableRecord
100
AcDbBlockTableRecord
  2
1
1001
CONTENTBLOCKICON
1071
        0
1004
2800000020000000200000000100080000000000000400000000000000000000000000000000000000000000000080000080000000808000800000008000800080800000C0C0C000C0DCC000F0CAA6000020400000206000002080000020A0000020C0000020E00000400000004020000040400000406000004080000040A0
1004
000040C0000040E00000600000006020000060400000606000006080000060A0000060C0000060E00000800000008020000080400000806000008080000080A0000080C0000080E00000A0000000A0200000A0400000A0600000A0800000A0A00000A0C00000A0E00000C0000000C0200000C0400000C0600000C0800000C0
1004
A00000C0C00000C0E00000E0000000E0200000E0400000E0600000E0800000E0A00000E0C00000E0E00040000000400020004000400040006000400080004000A0004000C0004000E00040200000402020004020400040206000402080004020A0004020C0004020E000404000004040200040404000404060004040800040
1004
40A0004040C0004040E00040600000406020004060400040606000406080004060A0004060C0004060E00040800000408020004080400040806000408080004080A0004080C0004080E00040A0000040A0200040A0400040A0600040A0800040A0A00040A0C00040A0E00040C0000040C0200040C0400040C0600040C08000
1004
40C0A00040C0C00040C0E00040E0000040E0200040E0400040E0600040E0800040E0A00040E0C00040E0E00080000000800020008000400080006000800080008000A0008000C0008000E00080200000802020008020400080206000802080008020A0008020C0008020E00080400000804020008040400080406000804080
1004
008040A0008040C0008040E00080600000806020008060400080606000806080008060A0008060C0008060E00080800000808020008080400080806000808080008080A0008080C0008080E00080A0000080A0200080A0400080A0600080A0800080A0A00080A0C00080A0E00080C0000080C0200080C0400080C0600080C0
1004
800080C0A00080C0C00080C0E00080E0000080E0200080E0400080E0600080E0800080E0A00080E0C00080E0E000C0000000C0002000C0004000C0006000C0008000C000A000C000C000C000E000C0200000C0202000C0204000C0206000C0208000C020A000C020C000C020E000C0400000C0402000C0404000C0406000C0
1004
408000C040A000C040C000C040E000C0600000C0602000C0604000C0606000C0608000C060A000C060C000C060E000C0800000C0802000C0804000C0806000C0808000C080A000C080C000C080E000C0A00000C0A02000C0A04000C0A06000C0A08000C0A0A000C0A0C000C0A0E000C0C00000C0C02000C0C04000C0C06000
1004
C0C08000C0C0A000F0FBFF00A4A0A000808080000000FF0000FF000000FFFF00FF000000FF00FF00FFFF0000FFFFFF0000000000000000000000000000000000000000000000000000000000000000000000000000000000000000000000000000000000000000000000000000000000000000000000000000000000000000
1004
00000000000000000000000000000000000000000000000000000000000000000000000000000000000000000000000000000000000000000000000000000000000000000000000000000000000000000000000000000000000000000000000000000000000000000000000000000000000000000000000000000000000000
1004
00000000000000000000000000000000000000000000000000000000000000000000000000000000000000000000000000000000000000000000000000000000000000000000000000000000000000000000000000000000000000000000000000000000000000000000000000000000000000000000000000000000000000
1004
00FEFEFEFBFEFE000000000000000000000000000000000000000000000000FEFEFEE7FEFEE7FE000000000000000000000000000000000000FEFEFEFEFEFE0000E700E7E7E7E7FEFEFEFEFEFEFEFEFEFE00000000FEFEFEFE0000000000000000E700E7E7E7E700E70000000000E7E7FE00000000FE000000000000000000
1004
0000E700E7E7E7E700E7000000E7E70000FE00000000FE0000000000000000000000E700E7E7E7E700E7000000E7000000FE000000FBFEFBFBFBFBFBFBFBFBFBFBFBE7FBE7E7E7E7FBE7FBFBFBE7E7E7E7FEFB000000FE0000000000000000000000E700E7E7E7E700E7000000000000E7E700000000FEFEFE000000000000
1004
000000E700E7E7E7E700E7000000000000E7E700000000000000FEFEFEFEFEFE000000E700E7E7E7E7FEFEFEFEFEFEFEFEFEFE00000000000000000000000000FEFEFEFEE7FEFEE7FE0000000000000000000000000000000000000000000000000000FEFEFEFBFEFE00000000000000000000000000000000000000000000
1004
00000000000000000000000000000000000000000000000000000000000000000000000000000000000000000000000000000000000000000000000000000000000000000000000000000000000000000000000000000000000000000000000000000000000000000000000000000000000000000000000000000000000000
1004
00000000000000000000000000000000000000000000000000000000000000000000000000000000000000000000000000000000000000000000000000000000000000000000000000000000000000000000000000000000000000000000000000000000000000000000000000000000000000000000000000000000000000
1004
0000000000000000000000000000000000000000000000000000000000000000000000000000000000000000000000000000000000000000
  0
ENDTAB
  0
ENDSEC
  0
SECTION
  2
BLOCKS
  0
BLOCK
  5
1B
330
1A
100
AcDbEntity
  8
0
100
AcDbBlockBegin
  2
*MODEL_SPACE
 70
     0
 10
0.0
 20
0.0
 30
0.0
  3
*MODEL_SPACE
  1

  0
ENDBLK
  5
1C
330
1A
100
AcDbEntity
  8
0
100
AcDbBlockEnd
  0
BLOCK
  5
18
330
17
100
AcDbEntity
 67
     1
  8
0
100
AcDbBlockBegin
  2
*PAPER_SPACE
 70
     0
 10
0.0
 20
0.0
 30
0.0
  3
*PAPER_SPACE
  1

  0
ENDBLK
  5
19
330
17
100
AcDbEntity
 67
     1
  8
0
100
AcDbBlockEnd
  0
BLOCK
  5
598
330
594
100
AcDbEntity
  8
0
100
AcDbBlockBegin
  2
_OPEN
 70
     0
 10
0.0
 20
0.0
 30
0.0
  3
_OPEN
  1

  0
LINE
  5
595
330
594
100
AcDbEntity
  8
0
  6
BYBLOCK
 62
     0
100
AcDbLine
 10
-1.0
 20
0.16666667
 30
0.0
 11
0.0
 21
0.0
 31
0.0
  0
LINE
  5
596
330
594
100
AcDbEntity
  8
0
  6
BYBLOCK
 62
     0
100
AcDbLine
 10
-1.0
 20
-0.16666667
 30
0.0
 11
0.0
 21
0.0
 31
0.0
  0
LINE
  5
597
330
594
100
AcDbEntity
  8
0
  6
BYBLOCK
 62
     0
100
AcDbLine
 10
0.0
 20
0.0
 30
0.0
 11
-1.0
 21
0.0
 31
0.0
  0
ENDBLK
  5
599
330
594
100
AcDbEntity
  8
0
100
AcDbBlockEnd
  0
BLOCK
  5
CB6
330
CAC
100
AcDbEntity
  8
0
100
AcDbBlockBegin
  2
*D1
 70
     1
 10
0.0
 20
0.0
 30
0.0
  3
*D1
  1

  0
LINE
  5
E48
330
CAC
100
AcDbEntity
  8
250
  6
CONTINUOUS
100
AcDbLine
 10
0.0
 20
22.725
 30
0.0
 11
0.0
 21
50.0
 31
0.0
  0
LINE
  5
E49
330
CAC
100
AcDbEntity
  8
250
  6
CONTINUOUS
100
AcDbLine
 10
85.0
 20
20.5
 30
0.0
 11
85.0
 21
50.0
 31
0.0
  0
LINE
  5
E4A
330
CAC
100
AcDbEntity
  8
250
  6
CONTINUOUS
100
AcDbLine
 10
2.23
 20
49.0
 30
0.0
 11
82.77
 21
49.0
 31
0.0
  0
INSERT
  5
E4B
330
CAC
100
AcDbEntity
  8
250
  6
CONTINUOUS
100
AcDbBlockReference
  2
_OPEN
 10
0.0
 20
49.0
 30
0.0
 41
2.23
 42
2.23
 43
2.23
 50
180.0
  0
INSERT
  5
E4C
330
CAC
100
AcDbEntity
  8
250
  6
CONTINUOUS
100
AcDbBlockReference
  2
_OPEN
 10
85.0
 20
49.0
 30
0.0
 41
2.23
 42
2.23
 43
2.23
  0
MTEXT
  5
E4D
330
CAC
100
AcDbEntity
  8
250
  6
CONTINUOUS
 62
    40
100
AcDbMText
 10
42.5
 20
51.5
 30
0.0
 40
3.0
 41
0.0
 71
     5
 72
     1
  1
\A1;85
1001
ACAD
1000
MTEXTBEGIN
1070
    73
1070
     1
1070
    44
1040
1.0
1070
    74
1070
     0
1000
MTEXTEND
1000
MTEXTBEGIN
1070
    73
1070
     1
1070
    44
1040
1.0
1070
    74
1070
     0
1000
MTEXTEND
1000
MTEXTBEGIN
1070
    73
1070
     1
1070
    44
1040
1.0
1070
    74
1070
     0
1000
MTEXTEND
  0
POINT
  5
E4E
330
CAC
100
AcDbEntity
  8
DEFPOINTS
  6
CONTINUOUS
 62
     0
100
AcDbPoint
 10
0.0
 20
22.225
 30
0.0
  0
POINT
  5
E4F
330
CAC
100
AcDbEntity
  8
DEFPOINTS
  6
CONTINUOUS
 62
     0
100
AcDbPoint
 10
85.0
 20
20.0
 30
0.0
  0
POINT
  5
E50
330
CAC
100
AcDbEntity
  8
DEFPOINTS
  6
CONTINUOUS
 62
     0
100
AcDbPoint
 10
85.0
 20
49.0
 30
0.0
  0
ENDBLK
  5
CB7
330
CAC
100
AcDbEntity
  8
0
100
AcDbBlockEnd
  0
BLOCK
  5
CD0
330
CC6
100
AcDbEntity
  8
0
100
AcDbBlockBegin
  2
*D2
 70
     1
 10
0.0
 20
0.0
 30
0.0
  3
*D2
  1

  0
LINE
  5
E0E
330
CC6
100
AcDbEntity
  8
250
  6
CONTINUOUS
100
AcDbLine
 10
85.5
 20
-20.0
 30
0.0
 11
99.0
 21
-20.0
 31
0.0
  0
LINE
  5
E0F
330
CC6
100
AcDbEntity
  8
250
  6
CONTINUOUS
100
AcDbLine
 10
85.5
 20
20.0
 30
0.0
 11
99.0
 21
20.0
 31
0.0
  0
LINE
  5
E10
330
CC6
100
AcDbEntity
  8
250
  6
CONTINUOUS
100
AcDbLine
 10
98.0
 20
-17.77
 30
0.0
 11
98.0
 21
17.77
 31
0.0
  0
INSERT
  5
E11
330
CC6
100
AcDbEntity
  8
250
  6
CONTINUOUS
100
AcDbBlockReference
  2
_OPEN
 10
98.0
 20
-20.0
 30
0.0
 41
2.23
 42
2.23
 43
2.23
 50
270.0
  0
INSERT
  5
E12
330
CC6
100
AcDbEntity
  8
250
  6
CONTINUOUS
100
AcDbBlockReference
  2
_OPEN
 10
98.0
 20
20.0
 30
0.0
 41
2.23
 42
2.23
 43
2.23
 50
90.0
  0
MTEXT
  5
E13
330
CC6
100
AcDbEntity
  8
250
  6
CONTINUOUS
 62
    40
100
AcDbMText
 10
95.5
 20
0.0
 30
0.0
 40
3.0
 41
0.0
 71
     5
 72
     1
  1
\A1;{\H3;\U+2205}40
 11
0.0
 21
1.0
 31
0.0
1001
ACAD
1000
MTEXTBEGIN
1070
    73
1070
     1
1070
    44
1040
1.0
1070
    74
1070
     0
1000
MTEXTEND
1000
MTEXTBEGIN
1070
    73
1070
     1
1070
    44
1040
1.0
1070
    74
1070
     0
1000
MTEXTEND
1000
MTEXTBEGIN
1070
    73
1070
     1
1070
    44
1040
1.0
1070
    74
1070
     0
1000
MTEXTEND
  0
POINT
  5
E14
330
CC6
100
AcDbEntity
  8
DEFPOINTS
  6
CONTINUOUS
 62
     0
100
AcDbPoint
 10
85.0
 20
-20.0
 30
0.0
  0
POINT
  5
E15
330
CC6
100
AcDbEntity
  8
DEFPOINTS
  6
CONTINUOUS
 62
     0
100
AcDbPoint
 10
85.0
 20
20.0
 30
0.0
  0
POINT
  5
E16
330
CC6
100
AcDbEntity
  8
DEFPOINTS
  6
CONTINUOUS
 62
     0
100
AcDbPoint
 10
98.0
 20
20.0
 30
0.0
  0
ENDBLK
  5
CD1
330
CC6
100
AcDbEntity
  8
0
100
AcDbBlockEnd
  0
BLOCK
  5
CE8
330
CDE
100
AcDbEntity
  8
0
100
AcDbBlockBegin
  2
*D3
 70
     1
 10
0.0
 20
0.0
 30
0.0
  3
*D3
  1

  0
LINE
  5
E5E
330
CDE
100
AcDbEntity
  8
250
  6
CONTINUOUS
100
AcDbLine
 10
42.0
 20
19.92675087
 30
0.0
 11
42.0
 21
43.0
 31
0.0
  0
LINE
  5
E5F
330
CDE
100
AcDbEntity
  8
250
  6
CONTINUOUS
100
AcDbLine
 10
85.0
 20
20.5
 30
0.0
 11
85.0
 21
43.0
 31
0.0
  0
LINE
  5
E60
330
CDE
100
AcDbEntity
  8
250
  6
CONTINUOUS
100
AcDbLine
 10
44.23
 20
42.0
 30
0.0
 11
82.77
 21
42.0
 31
0.0
  0
INSERT
  5
E61
330
CDE
100
AcDbEntity
  8
250
  6
CONTINUOUS
100
AcDbBlockReference
  2
_OPEN
 10
42.0
 20
42.0
 30
0.0
 41
2.23
 42
2.23
 43
2.23
 50
180.0
  0
INSERT
  5
E62
330
CDE
100
AcDbEntity
  8
250
  6
CONTINUOUS
100
AcDbBlockReference
  2
_OPEN
 10
85.0
 20
42.0
 30
0.0
 41
2.23
 42
2.23
 43
2.23
  0
MTEXT
  5
E63
330
CDE
100
AcDbEntity
  8
250
  6
CONTINUOUS
 62
    40
100
AcDbMText
 10
63.5
 20
44.5
 30
0.0
 40
3.0
 41
0.0
 71
     5
 72
     1
  1
\A1;43
1001
ACAD
1000
MTEXTBEGIN
1070
    73
1070
     1
1070
    44
1040
1.0
1070
    74
1070
     0
1000
MTEXTEND
1000
MTEXTBEGIN
1070
    73
1070
     1
1070
    44
1040
1.0
1070
    74
1070
     0
1000
MTEXTEND
1000
MTEXTBEGIN
1070
    73
1070
     1
1070
    44
1040
1.0
1070
    74
1070
     0
1000
MTEXTEND
  0
POINT
  5
E64
330
CDE
100
AcDbEntity
  8
DEFPOINTS
  6
CONTINUOUS
 62
     0
100
AcDbPoint
 10
42.0
 20
19.42675087
 30
0.0
  0
POINT
  5
E65
330
CDE
100
AcDbEntity
  8
DEFPOINTS
  6
CONTINUOUS
 62
     0
100
AcDbPoint
 10
85.0
 20
20.0
 30
0.0
  0
POINT
  5
E66
330
CDE
100
AcDbEntity
  8
DEFPOINTS
  6
CONTINUOUS
 62
     0
100
AcDbPoint
 10
85.0
 20
42.0
 30
0.0
  0
ENDBLK
  5
CE9
330
CDE
100
AcDbEntity
  8
0
100
AcDbBlockEnd
  0
BLOCK
  5
E28
330
E1E
100
AcDbEntity
  8
0
100
AcDbBlockBegin
  2
*D4
 70
     1
 10
0.0
 20
0.0
 30
0.0
  3
*D4
  1

  0
LINE
  5
E51
330
E1E
100
AcDbEntity
  8
250
  6
CONTINUOUS
100
AcDbLine
 10
74.0
 20
20.5
 30
0.0
 11
74.0
 21
36.0
 31
0.0
  0
LINE
  5
E52
330
E1E
100
AcDbEntity
  8
250
  6
CONTINUOUS
100
AcDbLine
 10
85.0
 20
20.5
 30
0.0
 11
85.0
 21
36.0
 31
0.0
  0
LINE
  5
E53
330
E1E
100
AcDbEntity
  8
250
  6
CONTINUOUS
100
AcDbLine
 10
76.23
 20
35.0
 30
0.0
 11
82.77
 21
35.0
 31
0.0
  0
INSERT
  5
E54
330
E1E
100
AcDbEntity
  8
250
  6
CONTINUOUS
100
AcDbBlockReference
  2
_OPEN
 10
74.0
 20
35.0
 30
0.0
 41
2.23
 42
2.23
 43
2.23
 50
180.0
  0
INSERT
  5
E55
330
E1E
100
AcDbEntity
  8
250
  6
CONTINUOUS
100
AcDbBlockReference
  2
_OPEN
 10
85.0
 20
35.0
 30
0.0
 41
2.23
 42
2.23
 43
2.23
  0
MTEXT
  5
E56
330
E1E
100
AcDbEntity
  8
250
  6
CONTINUOUS
 62
    40
100
AcDbMText
 10
79.5
 20
37.75
 30
0.0
 40
3.5
 41
0.0
 71
     5
 72
     1
  1
\A1;11
1001
ACAD
1000
MTEXTBEGIN
1070
    73
1070
     1
1070
    44
1040
1.0
1070
    74
1070
     0
1000
MTEXTEND
1000
MTEXTBEGIN
1070
    73
1070
     1
1070
    44
1040
1.0
1070
    74
1070
     0
1000
MTEXTEND
1000
MTEXTBEGIN
1070
    73
1070
     1
1070
    44
1040
1.0
1070
    74
1070
     0
1000
MTEXTEND
  0
POINT
  5
E57
330
E1E
100
AcDbEntity
  8
DEFPOINTS
  6
CONTINUOUS
 62
     0
100
AcDbPoint
 10
74.0
 20
20.0
 30
0.0
  0
POINT
  5
E58
330
E1E
100
AcDbEntity
  8
DEFPOINTS
  6
CONTINUOUS
 62
     0
100
AcDbPoint
 10
85.0
 20
20.0
 30
0.0
  0
POINT
  5
E59
330
E1E
100
AcDbEntity
  8
DEFPOINTS
  6
CONTINUOUS
 62
     0
100
AcDbPoint
 10
85.0
 20
35.0
 30
0.0
  0
ENDBLK
  5
E29
330
E1E
100
AcDbEntity
  8
0
100
AcDbBlockEnd
  0
BLOCK
  5
E69
330
E68
100
AcDbEntity
  8
0
100
AcDbBlockBegin
  2
1
 70
     0
 10
0.0
 20
0.0
 30
0.0
  3
1
  1

  0
LINE
  5
10CB
330
E68
100
AcDbEntity
  8
245
  6
CENTER2
100
AcDbLine
 10
-66.4
 20
0.0
 30
0.0
 11
86.0
 21
0.0
 31
0.0
1001
GRPNAME
1000
PASTMD06
  0
ARC
  5
10CC
330
E68
100
AcDbEntity
  8
240
  6
CONTINUOUS
100
AcDbCircle
 10
2.0
 20
-30.5
 30
0.0
 40
1.0
100
AcDbArc
 50
180.0
 51
270.0
  0
LINE
  5
10CD
330
E68
100
AcDbEntity
  8
241
  6
HIDDEN2
100
AcDbLine
 10
23.0
 20
-22.5
 30
0.0
 11
1.0
 21
-22.5
 31
0.0
  0
LINE
  5
10CE
330
E68
100
AcDbEntity
  8
241
  6
HIDDEN2
100
AcDbLine
 10
23.0
 20
22.5
 30
0.0
 11
1.0
 21
22.5
 31
0.0
  0
ARC
  5
10CF
330
E68
100
AcDbEntity
  8
240
  6
CONTINUOUS
100
AcDbCircle
 10
2.0
 20
30.5
 30
0.0
 40
1.0
100
AcDbArc
 50
90.0
 51
180.0
  0
LINE
  5
10D0
330
E68
100
AcDbEntity
  8
240
  6
CONTINUOUS
100
AcDbLine
 10
0.0
 20
22.225
 30
0.0
 11
-64.03089103
 21
12.88716173
 31
0.0
  0
LINE
  5
10D1
330
E68
100
AcDbEntity
  8
241
100
AcDbLine
 10
1.0
 20
0.0
 30
0.0
 11
1.0
 21
22.225
 31
0.0
  0
LINE
  5
10D2
330
E68
100
AcDbEntity
  8
241
  6
CONTINUOUS
100
AcDbLine
 10
0.0
 20
22.225
 30
0.0
 11
0.0
 21
0.0
 31
0.0
  0
LINE
  5
10D3
330
E68
100
AcDbEntity
  8
240
  6
CONTINUOUS
100
AcDbLine
 10
0.0
 20
-22.225
 30
0.0
 11
-64.03089103
 21
-12.88716173
 31
0.0
  0
LINE
  5
10D4
330
E68
100
AcDbEntity
  8
240
  6
CONTINUOUS
100
AcDbLine
 10
-65.4
 20
-11.30390896
 30
0.0
 11
-65.4
 21
0.0
 31
0.0
  0
ARC
  5
10D5
330
E68
100
AcDbEntity
  8
240
  6
CONTINUOUS
100
AcDbCircle
 10
-63.8
 20
-11.30390896
 30
0.0
 40
1.6
100
AcDbArc
 50
180.0
 51
261.70285503
  0
LINE
  5
10D6
330
E68
100
AcDbEntity
  8
240
  6
CONTINUOUS
100
AcDbLine
 10
-65.4
 20
11.30390896
 30
0.0
 11
-65.4
 21
0.0
 31
0.0
  0
ARC
  5
10D7
330
E68
100
AcDbEntity
  8
240
  6
CONTINUOUS
100
AcDbCircle
 10
-63.8
 20
11.30390896
 30
0.0
 40
1.6
100
AcDbArc
 50
98.29714497
 51
180.0
  0
LINE
  5
10D8
330
E68
100
AcDbEntity
  8
240
  6
CONTINUOUS
100
AcDbLine
 10
1.0
 20
-22.225
 30
0.0
 11
1.0
 21
-30.5
 31
0.0
  0
LINE
  5
10D9
330
E68
100
AcDbEntity
  8
241
100
AcDbLine
 10
1.0
 20
0.0
 30
0.0
 11
1.0
 21
-22.225
 31
0.0
  0
LINE
  5
10DA
330
E68
100
AcDbEntity
  8
241
  6
CONTINUOUS
100
AcDbLine
 10
0.0
 20
-22.225
 30
0.0
 11
0.0
 21
0.0
 31
0.0
  0
LINE
  5
10DB
330
E68
100
AcDbEntity
  8
240
100
AcDbLine
 10
0.0
 20
-22.225
 30
0.0
 11
1.0
 21
-22.225
 31
0.0
  0
LINE
  5
10DC
330
E68
100
AcDbEntity
  8
240
  6
CONTINUOUS
100
AcDbLine
 10
1.0
 20
22.225
 30
0.0
 11
1.0
 21
30.5
 31
0.0
  0
LINE
  5
10DD
330
E68
100
AcDbEntity
  8
240
100
AcDbLine
 10
0.0
 20
22.225
 30
0.0
 11
1.0
 21
22.225
 31
0.0
  0
LINE
  5
10DE
330
E68
100
AcDbEntity
  8
241
  6
CONTINUOUS
100
AcDbLine
 10
40.0
 20
0.0
 30
0.0
 11
40.0
 21
19.4
 31
0.0
1001
GRPNAME
1000
PASTMD01
  0
LWPOLYLINE
  5
10DF
330
E68
100
AcDbEntity
  8
241
  6
CONTINUOUS
100
AcDbPolyline
 90
       70
 70
     0
 43
0.0
 10
82.06141888
 20
11.78394386
 10
82.07534381
 20
11.8739654
 10
82.08546379
 20
11.96446611
 10
82.09175786
 20
12.05525841
 10
82.09421297
 20
12.14615413
 10
82.09282403
 20
12.23696488
 10
82.08759392
 20
12.32750244
 10
82.07853349
 20
12.41757917
 10
82.0656615
 20
12.50700837
 10
82.04900463
 20
12.59560469
 10
82.02859742
 20
12.68318451
 10
82.00448216
 20
12.76956631
 10
81.97670882
 20
12.85457105
 10
81.94533497
 20
12.93802255
 10
81.91042564
 20
13.01974784
 10
81.87205318
 20
13.09957756
 10
81.83029712
 20
13.17734623
 10
81.78524401
 20
13.25289268
 10
81.73698722
 20
13.32606032
 10
81.68562676
 20
13.39669752
 10
81.6312691
 20
13.46465786
 10
81.57402689
 20
13.5298005
 10
81.51401876
 20
13.59199041
 10
81.45136911
 20
13.6510987
 10
81.38620776
 20
13.70700287
 10
81.31866978
 20
13.75958705
 10
81.24889515
 20
13.80874225
 10
81.17702848
 20
13.85436659
 10
81.10321872
 20
13.8963655
 10
81.02761885
 20
13.93465196
 10
80.95038556
 20
13.96914659
 10
80.87167892
 20
13.99977791
 10
80.79166206
 20
14.02648243
 10
80.71050083
 20
14.0492048
 10
80.62836344
 20
14.06789793
 10
80.54542012
 20
14.08252308
 10
80.46184279
 20
14.09304992
 10
80.37780467
 20
14.09945665
 10
80.29347994
 20
14.10172999
 10
80.20904336
 20
14.09986522
 10
80.12466995
 20
14.09386621
 10
80.04053457
 20
14.08374539
 10
79.95681161
 20
14.06952374
 10
79.87367459
 20
14.05123074
 10
79.79129581
 20
14.02890429
 10
79.70984602
 20
14.00259068
 10
79.62949404
 20
13.97234443
 10
79.55040639
 20
13.93822825
 10
79.472747
 20
13.90031283
 10
79.39667682
 20
13.85867677
 10
79.32235351
 20
13.81340635
 10
79.24993113
 20
13.76459541
 10
79.17955977
 20
13.71234511
 10
79.11138529
 20
13.65676374
 10
79.04554897
 20
13.59796651
 10
78.98218729
 20
13.53607527
 10
78.92143155
 20
13.47121831
 10
78.86340768
 20
13.40353004
 10
78.80823595
 20
13.33315075
 10
78.7560307
 20
13.26022632
 10
78.70690013
 20
13.18490789
 10
78.66094607
 20
13.10735156
 10
78.61826377
 20
13.02771808
 10
78.57894169
 20
12.9461725
 10
78.54306132
 20
12.86288382
 10
78.51069704
 20
12.77802467
 10
78.48191592
 20
12.69177094
 10
78.45677762
 20
12.60430138
 10
78.43533423
 20
12.5157973
 10
78.4176302
 20
12.42644212
1001
GRPNAME
1000
PASTMD0K
  0
LINE
  5
10E0
330
E68
100
AcDbEntity
  8
246
100
AcDbLine
 10
85.0
 20
20.0
 30
0.0
 11
85.0
 21
-20.0
 31
0.0
1001
GRPNAME
1000
PASTMD0K
  0
LINE
  5
10E1
330
E68
100
AcDbEntity
  8
245
  6
CENTER2
100
AcDbLine
 10
16.6
 20
-31.5
 30
0.0
 11
16.6
 21
31.5
 31
0.0
  0
LINE
  5
10E2
330
E68
100
AcDbEntity
  8
241
  6
CONTINUOUS
100
AcDbLine
 10
21.6
 20
0.0
 30
0.0
 11
21.6
 21
31.5
 31
0.0
  0
LINE
  5
10E3
330
E68
100
AcDbEntity
  8
241
  6
CONTINUOUS
100
AcDbLine
 10
18.71324865
 20
26.5
 30
0.0
 11
18.71324865
 21
0.0
 31
0.0
  0
LINE
  5
10E4
330
E68
100
AcDbEntity
  8
241
  6
CONTINUOUS
100
AcDbLine
 10
14.48675135
 20
26.5
 30
0.0
 11
14.48675135
 21
0.0
 31
0.0
  0
LINE
  5
10E5
330
E68
100
AcDbEntity
  8
241
  6
CONTINUOUS
100
AcDbLine
 10
11.6
 20
31.5
 30
0.0
 11
11.6
 21
0.0
 31
0.0
  0
LINE
  5
10E6
330
E68
100
AcDbEntity
  8
241
  6
CONTINUOUS
100
AcDbLine
 10
27.0
 20
27.5
 30
0.0
 11
27.0
 21
0.0
 31
0.0
  0
LINE
  5
10E7
330
E68
100
AcDbEntity
  8
240
  6
CONTINUOUS
100
AcDbLine
 10
84.4
 20
1.80280228
 30
0.0
 11
84.4
 21
19.3
 31
0.0
1001
GRPNAME
1000
PASTMD0K
  0
LINE
  5
10E8
330
E68
100
AcDbEntity
  8
240
  6
CONTINUOUS
100
AcDbLine
 10
72.35358982
 20
-19.4
 30
0.0
 11
43.03407896
 21
-19.4
 31
0.0
1001
GRPNAME
1000
PASTMD0K
  0
ARC
  5
10E9
330
E68
100
AcDbEntity
  8
241
  6
CONTINUOUS
100
AcDbCircle
 10
63.11516729
 20
-2.3166758
 30
0.0
 40
4.715167294982752
100
AcDbArc
 50
79.99999997
 51
246.5087536
1001
GRPNAME
1000
PASTMD0K
  0
ARC
  5
10EA
330
E68
100
AcDbEntity
  8
240
  6
CONTINUOUS
100
AcDbCircle
 10
32.0
 20
-27.5
 30
0.0
 40
5.000000000000028
100
AcDbArc
 50
112.34988283
 51
179.99999999
1001
GRPNAME
1000
PASTMD01
  0
LINE
  5
10EB
330
E68
100
AcDbEntity
  8
241
  6
CONTINUOUS
100
AcDbLine
 10
14.48675135
 20
-26.5
 30
0.0
 11
14.48675135
 21
0.0
 31
0.0
  0
LINE
  5
10EC
330
E68
100
AcDbEntity
  8
241
  6
CONTINUOUS
100
AcDbLine
 10
18.71324865
 20
-26.5
 30
0.0
 11
18.71324865
 21
0.0
 31
0.0
  0
LINE
  5
10ED
330
E68
100
AcDbEntity
  8
241
  6
CONTINUOUS
100
AcDbLine
 10
21.6
 20
0.0
 30
0.0
 11
21.6
 21
-31.5
 31
0.0
  0
LINE
  5
10EE
330
E68
100
AcDbEntity
  8
241
  6
CONTINUOUS
100
AcDbLine
 10
11.6
 20
-31.5
 30
0.0
 11
11.6
 21
0.0
 31
0.0
  0
LINE
  5
10EF
330
E68
100
AcDbEntity
  8
241
  6
HIDDEN2
100
AcDbLine
 10
23.0
 20
-22.5
 30
0.0
 11
23.0
 21
-31.5
 31
0.0
  0
LINE
  5
10F0
330
E68
100
AcDbEntity
  8
241
  6
CONTINUOUS
100
AcDbLine
 10
27.0
 20
-27.5
 30
0.0
 11
27.0
 21
0.0
 31
0.0
  0
LINE
  5
10F1
330
E68
100
AcDbEntity
  8
240
  6
CONTINUOUS
100
AcDbLine
 10
18.71324865
 20
-26.5
 30
0.0
 11
14.48675135
 21
-26.5
 31
0.0
  0
LINE
  5
10F2
330
E68
100
AcDbEntity
  8
240
  6
CONTINUOUS
100
AcDbLine
 10
2.0
 20
-31.5
 30
0.0
 11
11.6
 21
-31.5
 31
0.0
  0
LINE
  5
10F3
330
E68
100
AcDbEntity
  8
240
  6
CONTINUOUS
100
AcDbLine
 10
14.48675135
 20
-26.5
 30
0.0
 11
11.6
 21
-31.5
 31
0.0
  0
LINE
  5
10F4
330
E68
100
AcDbEntity
  8
240
  6
CONTINUOUS
100
AcDbLine
 10
21.6
 20
-31.5
 30
0.0
 11
26.0
 21
-31.5
 31
0.0
  0
LINE
  5
10F5
330
E68
100
AcDbEntity
  8
240
  6
CONTINUOUS
100
AcDbLine
 10
18.71324865
 20
-26.5
 30
0.0
 11
21.6
 21
-31.5
 31
0.0
  0
LINE
  5
10F6
330
E68
100
AcDbEntity
  8
240
  6
CONTINUOUS
100
AcDbLine
 10
27.0
 20
-30.5
 30
0.0
 11
27.0
 21
-27.5
 31
0.0
  0
ARC
  5
10F7
330
E68
100
AcDbEntity
  8
240
  6
CONTINUOUS
100
AcDbCircle
 10
26.0
 20
-30.5
 30
0.0
 40
1.0
100
AcDbArc
 50
270.0
 51
0.0
  0
ARC
  5
10F8
330
E68
100
AcDbEntity
  8
240
  6
CONTINUOUS
100
AcDbCircle
 10
68.1249009
 20
-115.36348237
 30
0.0
 40
100.0
100
AcDbArc
 50
108.27844609
 51
112.34991754
1001
GRPNAME
1000
PASTMD01
  0
LINE
  5
10F9
330
E68
100
AcDbEntity
  8
241
  6
CONTINUOUS
100
AcDbLine
 10
40.0
 20
0.0
 30
0.0
 11
40.0
 21
-19.4
 31
0.0
1001
GRPNAME
1000
PASTMD01
  0
ARC
  5
10FA
330
E68
100
AcDbEntity
  8
240
  6
CONTINUOUS
100
AcDbCircle
 10
43.03407896
 20
-39.4
 30
0.0
 40
20.00000000000003
100
AcDbArc
 50
90.0
 51
108.27844557
1001
GRPNAME
1000
PASTMD01
  0
LINE
  5
10FB
330
E68
100
AcDbEntity
  8
240
  6
CONTINUOUS
100
AcDbLine
 10
84.4
 20
-19.3
 30
0.0
 11
84.4
 21
-3.81161786
 31
0.0
1001
GRPNAME
1000
PASTMD0K
  0
LINE
  5
10FC
330
E68
100
AcDbEntity
  8
241
  6
CONTINUOUS
100
AcDbLine
 10
61.2356607
 20
-6.64105525
 30
0.0
 11
84.4
 21
-16.70898033
 31
0.0
1001
GRPNAME
1000
PASTMD0K
  0
LINE
  5
10FD
330
E68
100
AcDbEntity
  8
240
  6
CONTINUOUS
100
AcDbLine
 10
72.35358982
 20
-19.4
 30
0.0
 11
73.10000003
 21
-19.6
 31
0.0
1001
GRPNAME
1000
PASTMD0K
  0
LINE
  5
10FE
330
E68
100
AcDbEntity
  8
246
100
AcDbLine
 10
85.0
 20
-20.0
 30
0.0
 11
74.0
 21
-20.0
 31
0.0
  0
LINE
  5
10FF
330
E68
100
AcDbEntity
  8
240
  6
CONTINUOUS
100
AcDbLine
 10
84.4
 20
-19.3
 30
0.0
 11
73.10000003
 21
-19.6
 31
0.0
1001
GRPNAME
1000
PASTMD0K
  0
LINE
  5
1100
330
E68
100
AcDbEntity
  8
241
  6
CONTINUOUS
100
AcDbLine
 10
73.59049419
 20
3.7088098
 30
0.0
 11
72.1051246
 21
0.66335082
 31
0.0
1001
GRPNAME
1000
PASTMD0K
  0
LINE
  5
1101
330
E68
100
AcDbEntity
  8
241
  6
CONTINUOUS
100
AcDbLine
 10
72.1051246
 20
0.66335082
 30
0.0
 11
84.4
 21
-3.81161786
 31
0.0
1001
GRPNAME
1000
PASTMD0K
  0
LINE
  5
1102
330
E68
100
AcDbEntity
  8
241
  6
CONTINUOUS
100
AcDbLine
 10
63.9339475
 20
2.32685751
 30
0.0
 11
72.20514464
 21
0.86842229
 31
0.0
1001
GRPNAME
1000
PASTMD0K
  0
LINE
  5
1103
330
E68
100
AcDbEntity
  8
241
  6
CONTINUOUS
100
AcDbLine
 10
73.59049419
 20
3.7088098
 30
0.0
 11
84.38670132
 21
1.8051472
 31
0.0
1001
GRPNAME
1000
PASTMD0K
  0
LINE
  5
1104
330
E68
100
AcDbEntity
  8
240
  6
CONTINUOUS
100
AcDbLine
 10
84.38670132
 20
1.8051472
 30
0.0
 11
85.0
 21
-4.03
 31
0.0
1001
GRPNAME
1000
PASTMD0K
  0
LINE
  5
1105
330
E68
100
AcDbEntity
  8
240
  6
CONTINUOUS
100
AcDbLine
 10
85.0
 20
-4.03
 30
0.0
 11
84.4
 21
-3.81161786
 31
0.0
1001
GRPNAME
1000
PASTMD0K
  0
LINE
  5
1106
330
E68
100
AcDbEntity
  8
240
  6
CONTINUOUS
100
AcDbLine
 10
84.4
 20
1.80280228
 30
0.0
 11
84.38670132
 21
1.8051472
 31
0.0
1001
GRPNAME
1000
PASTMD0K
  0
LWPOLYLINE
  5
1107
330
E68
100
AcDbEntity
  8
241
  6
CONTINUOUS
100
AcDbPolyline
 90
       70
 70
     0
 43
0.0
 10
78.4176302
 20
12.42644212
 10
78.39773529
 20
12.30254334
 10
78.38165753
 20
12.1782359
 10
78.36943026
 20
12.05377741
 10
78.3610788
 20
11.92942582
 10
78.35662047
 20
11.80543884
 10
78.3560645
 20
11.68207345
 10
78.35941206
 20
11.5595853
 10
78.36665619
 20
11.43822827
 10
78.37778189
 20
11.31825385
 10
78.3927661
 20
11.1999107
 10
78.41157777
 20
11.08344408
 10
78.4341779
 20
10.96909536
 10
78.46051966
 20
10.85710155
 10
78.49054846
 20
10.74769473
 10
78.52420206
 20
10.64110166
 10
78.56141072
 20
10.53754324
 10
78.60209731
 20
10.43723412
 10
78.64617752
 20
10.34038216
 10
78.69356
 20
10.2471881
 10
78.74414653
 20
10.15784509
 10
78.79783229
 20
10.07253828
 10
78.854506
 20
9.99144447
 10
78.91405022
 20
9.91473174
 10
78.97634153
 20
9.84255906
 10
79.04125084
 20
9.77507601
 10
79.10864362
 20
9.71242246
 10
79.17838021
 20
9.65472824
 10
79.25031607
 20
9.60211294
 10
79.32430213
 20
9.55468559
 10
79.40018503
 20
9.5125445
 10
79.47780752
 20
9.47577699
 10
79.55700872
 20
9.44445927
 10
79.63762449
 20
9.41865624
 10
79.71948776
 20
9.39842138
 10
79.80242885
 20
9.38379663
 10
79.88627589
 20
9.37481229
 10
79.97085509
 20
9.37148699
 10
80.05599117
 20
9.37382761
 10
80.14150768
 20
9.38182931
 10
80.22722738
 20
9.39547551
 10
80.31297264
 20
9.41473792
 10
80.39856573
 20
9.43957661
 10
80.48382927
 20
9.46994012
 10
80.56858655
 20
9.50576552
 10
80.65266191
 20
9.54697854
 10
80.73588111
 20
9.5934938
 10
80.81807167
 20
9.64521487
 10
80.89906326
 20
9.70203457
 10
80.97868801
 20
9.76383514
 10
81.05678091
 20
9.83048849
 10
81.13318012
 20
9.9018565
 10
81.20772729
 20
9.97779125
 10
81.28026792
 20
10.05813536
 10
81.35065169
 20
10.14272233
 10
81.4187327
 20
10.23137684
 10
81.48436988
 20
10.32391517
 10
81.54742718
 20
10.42014552
 10
81.60777392
 20
10.51986846
 10
81.66528504
 20
10.62287731
 10
81.71984133
 20
10.7289586
 10
81.77132974
 20
10.83789246
 10
81.81964355
 20
10.94945313
 10
81.86468263
 20
11.06340941
 10
81.90635365
 20
11.17952511
 10
81.94457023
 20
11.29755959
 10
81.97925317
 20
11.41726823
 10
82.0103306
 20
11.53840293
 10
82.03773811
 20
11.66071264
 10
82.06141888
 20
11.78394386
1001
GRPNAME
1000
PASTMD0K
  0
LINE
  5
1108
330
E68
100
AcDbEntity
  8
240
  6
CONTINUOUS
100
AcDbLine
 10
72.35358982
 20
19.4
 30
0.0
 11
43.03407896
 21
19.4
 31
0.0
1001
GRPNAME
1000
PASTMD0K
  0
ARC
  5
1109
330
E68
100
AcDbEntity
  8
240
  6
CONTINUOUS
100
AcDbCircle
 10
68.1249009
 20
115.36348237
 30
0.0
 40
100.0
100
AcDbArc
 50
247.65008221
 51
251.72155377
1001
GRPNAME
1000
PASTMD01
  0
LINE
  5
110A
330
E68
100
AcDbEntity
  8
240
  6
CONTINUOUS
100
AcDbLine
 10
18.71324865
 20
26.5
 30
0.0
 11
14.48675135
 21
26.5
 31
0.0
  0
LINE
  5
110B
330
E68
100
AcDbEntity
  8
240
  6
CONTINUOUS
100
AcDbLine
 10
2.0
 20
31.5
 30
0.0
 11
11.6
 21
31.5
 31
0.0
  0
LINE
  5
110C
330
E68
100
AcDbEntity
  8
240
  6
CONTINUOUS
100
AcDbLine
 10
11.6
 20
31.5
 30
0.0
 11
14.48675135
 21
26.5
 31
0.0
  0
ARC
  5
110D
330
E68
100
AcDbEntity
  8
240
  6
CONTINUOUS
100
AcDbCircle
 10
32.0
 20
27.5
 30
0.0
 40
5.000000000000028
100
AcDbArc
 50
180.00000001
 51
247.65011717
1001
GRPNAME
1000
PASTMD01
  0
LINE
  5
110E
330
E68
100
AcDbEntity
  8
241
  6
HIDDEN2
100
AcDbLine
 10
23.0
 20
22.5
 30
0.0
 11
23.0
 21
31.5
 31
0.0
  0
LINE
  5
110F
330
E68
100
AcDbEntity
  8
240
  6
CONTINUOUS
100
AcDbLine
 10
21.6
 20
31.5
 30
0.0
 11
26.0
 21
31.5
 31
0.0
  0
LINE
  5
1110
330
E68
100
AcDbEntity
  8
240
  6
CONTINUOUS
100
AcDbLine
 10
21.6
 20
31.5
 30
0.0
 11
18.71324865
 21
26.5
 31
0.0
  0
LINE
  5
1111
330
E68
100
AcDbEntity
  8
240
  6
CONTINUOUS
100
AcDbLine
 10
27.0
 20
30.5
 30
0.0
 11
27.0
 21
27.5
 31
0.0
  0
ARC
  5
1112
330
E68
100
AcDbEntity
  8
240
  6
CONTINUOUS
100
AcDbCircle
 10
26.0
 20
30.5
 30
0.0
 40
1.0
100
AcDbArc
 50
0.0
 51
90.0
  0
ARC
  5
1113
330
E68
100
AcDbEntity
  8
240
  6
CONTINUOUS
100
AcDbCircle
 10
43.03407896
 20
39.4
 30
0.0
 40
20.00000000000003
100
AcDbArc
 50
251.72155378
 51
269.99999997
1001
GRPNAME
1000
PASTMD01
  0
LINE
  5
1114
330
E68
100
AcDbEntity
  8
240
  6
CONTINUOUS
100
AcDbLine
 10
72.35358982
 20
19.4
 30
0.0
 11
73.10000003
 21
19.6
 31
0.0
1001
GRPNAME
1000
PASTMD0K
  0
LINE
  5
1115
330
E68
100
AcDbEntity
  8
246
100
AcDbLine
 10
85.0
 20
20.0
 30
0.0
 11
74.0
 21
20.0
 31
0.0
  0
LINE
  5
1116
330
E68
100
AcDbEntity
  8
240
  6
CONTINUOUS
100
AcDbLine
 10
84.4
 20
19.3
 30
0.0
 11
73.10000003
 21
19.6
 31
0.0
1001
GRPNAME
1000
PASTMD0K
  0
ENDBLK
  5
E6A
330
E68
100
AcDbEntity
  8
0
100
AcDbBlockEnd
  0
ENDSEC
  0
SECTION
  2
ENTITIES
  0
DIMENSION
  5
C97
330
1A
100
AcDbEntity
  8
250
  6
CONTINUOUS
100
AcDbDimension
  2
*D1
 10
85.0
 20
49.0
 30
0.0
 11
42.5
 21
51.5
 31
0.0
 70
    32
  3
BIGT
100
AcDbAlignedDimension
 13
0.0
 23
22.225
 33
0.0
 14
85.0
 24
20.0
 34
0.0
100
AcDbRotatedDimension
1001
ACAD
1000
DSTYLE
1002
{
1070
    78
1070
     8
1070
   140
1040
3.0
1002
}
  0
TEXT
  5
C9B
330
1A
100
AcDbEntity
  8
241
100
AcDbText
 10
-65.4
 20
63.0
 30
0.0
 40
5.0
  1
BBT40-FCM40114-85
  7
YOKO
 11
-65.4
 21
63.0
 31
0.0
100
AcDbText
 73
     1
  0
DIMENSION
  5
C9D
330
1A
100
AcDbEntity
  8
250
  6
CONTINUOUS
100
AcDbDimension
  2
*D2
 10
98.0
 20
20.0
 30
0.0
 11
98.0
 21
0.0
 31
0.0
 70
   160
  1
{\H3;\U+2205}<>
  3
BIGT
100
AcDbAlignedDimension
 13
85.0
 23
-20.0
 33
0.0
 14
85.0
 24
20.0
 34
0.0
 50
90.0
100
AcDbRotatedDimension
1001
ACAD
1000
DSTYLE
1002
{
1070
    78
1070
     8
1070
   140
1040
3.0
1002
}
  0
DIMENSION
  5
C9F
330
1A
100
AcDbEntity
  8
250
  6
CONTINUOUS
100
AcDbDimension
  2
*D3
 10
85.0
 20
42.0
 30
0.0
 11
63.5
 21
44.5
 31
0.0
 70
    32
  3
BIGT
100
AcDbAlignedDimension
 13
42.0
 23
19.42675087
 33
0.0
 14
85.0
 24
20.0
 34
0.0
100
AcDbRotatedDimension
1001
ACAD
1000
DSTYLE
1002
{
1070
    78
1070
     8
1070
   140
1040
3.0
1002
}
  0
DIMENSION
  5
E1D
330
1A
100
AcDbEntity
  8
250
  6
CONTINUOUS
100
AcDbDimension
  2
*D4
 10
85.0
 20
35.0
 30
0.0
 11
79.5
 21
37.75
 31
0.0
 70
    32
  3
BIGT
100
AcDbAlignedDimension
 13
74.0
 23
20.0
 33
0.0
 14
85.0
 24
20.0
 34
0.0
100
AcDbRotatedDimension
  0
LEADER
  5
FB6
330
1A
100
AcDbEntity
  8
250
  6
CONTINUOUS
100
AcDbLeader
  3
BIGT
 76
     2
 10
-26.64442081
 20
-18.3393553
 30
0.0
 10
-32.4583971
 20
-28.40945762
 30
0.0
1001
ACAD
1000
DSTYLE
1002
{
1070
     5
1000
OPEN
1070
   342
1005
594
1070
   343
1005
594
1002
}
  0
MTEXT
  5
FB7
330
1A
100
AcDbEntity
  8
250
  6
CONTINUOUS
 62
    40
100
AcDbMText
 10
-47.39173044
 20
-27.40945762
 30
0.0
 40
2.8
 41
0.0
 71
     7
 72
     1
  1
BBT40
  7
YOKO
1001
ITEMNAME
1000
LNSP3
1001
ACAD
1000
MTEXTBEGIN
1070
    73
1070
     1
1070
    44
1040
1.0
1070
    74
1070
     0
1000
MTEXTEND
1000
MTEXTBEGIN
1070
    73
1070
     1
1070
    44
1040
1.0
1070
    74
1070
     0
1000
MTEXTEND
1000
MTEXTBEGIN
1070
    73
1070
     1
1070
    44
1040
1.0
1070
    74
1070
     0
1000
MTEXTEND
  0
LINE
  5
FBA
330
1A
100
AcDbEntity
  8
250
  6
CONTINUOUS
100
AcDbLine
 10
-32.4583971
 20
-28.40945762
 30
0.0
 11
-50.19173044
 21
-28.40945762
 31
0.0
1001
ITEMNAME
1000
LNSP2
  0
INSERT
  5
1117
330
1A
100
AcDbEntity
  8
241
100
AcDbBlockReference
  2
1
 10
0.0
 20
0.0
 30
0.0
  0
VIEWPORT
  5
22
330
17
100
AcDbEntity
 67
     1
  8
0
100
AcDbViewport
 10
261.51769912
 20
148.5
 30
0.0
 40
523.03539823
 41
297.0
 68
     1
 69
     1
1001
ACAD
1000
MVIEW
1002
{
1070
    16
1010
0.0
1020
0.0
1030
0.0
1010
0.0
1020
0.0
1030
1.0
1040
0.0
1040
297.0
1040
261.51769912
1040
148.5
1040
50.0
1040
0.0
1040
0.0
1070
     0
1070
   100
1070
     1
1070
     1
1070
     0
1070
     0
1070
     0
1070
     0
1040
0.0
1040
0.0
1040
0.0
1040
1.0
1040
1.0
1040
10.0
1040
10.0
1070
     0
1002
{
1002
}
1002
}
  0
ENDSEC
  0
SECTION
  2
OBJECTS
  0
DICTIONARY
  5
C
330
0
100
AcDbDictionary
  3
ACAD_GROUP
350
D
  3
ACAD_LAYOUT
350
565
  3
ACAD_MLINESTYLE
350
E
  3
ACAD_PLOTSETTINGS
350
566
  3
ACAD_PLOTSTYLENAME
350
563
  3
ACDBHEADERROUNDTRIPXREC
350
1140
  3
ACDBVARIABLEDICTIONARY
350
D23
  3
GRADE_DWG
350
540
  0
DICTIONARY
  5
D4E
330
1A
100
AcDbDictionary
280
     1
  3
ACAD_LAYOUTSELFREF
360
1162
  0
DICTIONARY
  5
D4C
330
17
100
AcDbDictionary
280
     1
  3
ACAD_LAYOUTSELFREF
360
1161
  0
DICTIONARY
  5
D
102
{ACAD_REACTORS
330
C
102
}
330
C
100
AcDbDictionary
  3
ASTMD01-1
350
915
  3
ASTMD06-1
350
913
  3
ASTMD0K-1
350
919
  3
DREC-1
350
5FC
  3
DREC-2
350
654
  3
DREC-3
350
673
  3
LNSP-1
350
A3F
  3
M100001-1
350
91D
  3
M100002-1
350
91B
  3
M100009-1
350
917
  0
DICTIONARY
  5
565
102
{ACAD_REACTORS
330
C
102
}
330
C
100
AcDbDictionary
  0
DICTIONARY
  5
E
102
{ACAD_REACTORS
330
C
102
}
330
C
100
AcDbDictionary
  3
STANDARD
350
13
  0
DICTIONARY
  5
566
102
{ACAD_REACTORS
330
C
102
}
330
C
100
AcDbDictionary
  0
ACDBDICTIONARYWDFLT
  5
563
102
{ACAD_REACTORS
330
C
102
}
330
C
100
AcDbDictionary
281
     1
  3
Normal
350
564
100
AcDbDictionaryWithDefault
340
564
  0
DICTIONARY
  5
1140
102
{ACAD_REACTORS
330
C
102
}
330
C
100
AcDbDictionary
  3
CEPSNTYPE
350
114A
  3
DIMSTYLEDATA
350
114E
  3
FINGERPRINTGUID
350
114B
  3
HYPERLINKBASE
350
1143
  3
INSUNITS
350
1149
  3
LAYOUTDICT
350
1145
  3
LWETCUNION
350
1148
  3
PLOTSETDICT
350
1146
  3
PLOTSTYLNAMDICT
350
1147
  3
PSVPSCALE
350
114D
  3
PUCSBASE
350
1151
  3
PUCSORGBACK
350
1157
  3
PUCSORGBOTTOM
350
1153
  3
PUCSORGFRONT
350
1156
  3
PUCSORGLEFT
350
1154
  3
PUCSORGRIGHT
350
1155
  3
PUCSORGTOP
350
1152
  3
PUCSORTHOREF
350
114F
  3
PUCSORTHOVIEW
350
1150
  3
STYLESHEET
350
1144
  3
TSTACKALIGN
350
1141
  3
TSTACKSIZE
350
1142
  3
UCSBASE
350
115A
  3
UCSORGBACK
350
1160
  3
UCSORGBOTTOM
350
115C
  3
UCSORGFRONT
350
115F
  3
UCSORGLEFT
350
115D
  3
UCSORGRIGHT
350
115E
  3
UCSORGTOP
350
115B
  3
UCSORTHOREF
350
1158
  3
UCSORTHOVIEW
350
1159
  3
VERSIONGUID
350
114C
  0
DICTIONARY
  5
D23
102
{ACAD_REACTORS
330
C
102
}
330
C
100
AcDbDictionary
  3
DIMASSOC
350
D24
  0
DICTIONARY
  5
540
102
{ACAD_REACTORS
330
C
102
}
330
C
100
AcDbDictionary
  3
VERSION
350
560
  0
XRECORD
  5
1162
102
{ACAD_REACTORS
330
D4E
102
}
330
D4E
100
AcDbXrecord
340
1A
  0
XRECORD
  5
1161
102
{ACAD_REACTORS
330
D4C
102
}
330
D4C
100
AcDbXrecord
340
17
  0
GROUP
  5
915
102
{ACAD_REACTORS
330
D
102
}
330
D
100
AcDbGroup
300

 70
     0
 71
     1
1001
GRPNAME
1000
PASTMD01
  0
GROUP
  5
913
102
{ACAD_REACTORS
330
D
102
}
330
D
100
AcDbGroup
300

 70
     0
 71
     1
1001
GRPNAME
1000
PASTMD06
  0
GROUP
  5
919
102
{ACAD_REACTORS
330
D
102
}
330
D
100
AcDbGroup
300

 70
     0
 71
     1
1001
GRPNAME
1000
PASTMD0K
  0
GROUP
  5
5FC
102
{ACAD_REACTORS
330
D
102
}
330
D
100
AcDbGroup
300

 70
     0
 71
     1
1001
GRPNAME
1000
DREC-
1001
GPARA
1000
xsiz
1000
44.182
1000
ysiz
1000
40.677
1000
angl
1000
0
1000
ctyp
1000
0
1000
csiz
1000
5
1000
lfnt
1000
cont
1000
hcnt
1000
hoff
1000
vcnt
1000
voff
1000
opnt
1000
4
1000
dxpt
1000
0
1000
dypt
1000
0
  0
GROUP
  5
654
102
{ACAD_REACTORS
330
D
102
}
330
D
100
AcDbGroup
300

 70
     0
 71
     1
1001
GRPNAME
1000
DREC-
1001
GPARA
1000
xsiz
1000
54.592
1000
ysiz
1000
53.036
1000
angl
1000
0
1000
ctyp
1000
0
1000
csiz
1000
5
1000
lfnt
1000
cont
1000
hcnt
1000
hoff
1000
vcnt
1000
voff
1000
opnt
1000
4
1000
dxpt
1000
0
1000
dypt
1000
0
  0
GROUP
  5
673
102
{ACAD_REACTORS
330
D
102
}
330
D
100
AcDbGroup
300

 70
     0
 71
     1
1001
GRPNAME
1000
DREC-
1001
GPARA
1000
xsiz
1000
30.363
1000
ysiz
1000
36.175
1000
angl
1000
0
1000
ctyp
1000
0
1000
csiz
1000
5
1000
lfnt
1000
cont
1000
hcnt
1000
hoff
1000
vcnt
1000
voff
1000
opnt
1000
4
1000
dxpt
1000
0
1000
dypt
1000
0
  0
GROUP
  5
A3F
102
{ACAD_REACTORS
330
D
102
}
330
D
100
AcDbGroup
300

 70
     0
 71
     1
1001
GRPNAME
1000
LNSP
  0
GROUP
  5
91D
102
{ACAD_REACTORS
330
D
102
}
330
D
100
AcDbGroup
300

 70
     0
 71
     1
1001
GRPNAME
1000
DM100001
  0
GROUP
  5
91B
102
{ACAD_REACTORS
330
D
102
}
330
D
100
AcDbGroup
300

 70
     0
 71
     1
1001
GRPNAME
1000
DM100002
  0
GROUP
  5
917
102
{ACAD_REACTORS
330
D
102
}
330
D
100
AcDbGroup
300

 70
     0
 71
     1
1001
GRPNAME
1000
DM100009
  0
MLINESTYLE
  5
13
102
{ACAD_REACTORS
330
E
102
}
330
E
100
AcDbMlineStyle
  2
STANDARD
 70
     0
  3

 62
     0
 51
90.0
 52
90.0
 71
     2
 49
0.5
 62
   256
  6
BYLAYER
 49
-0.5
 62
   256
  6
BYLAYER
  0
ACDBPLACEHOLDER
  5
564
102
{ACAD_REACTORS
330
563
102
}
330
563
100
AcDbPlaceHolder
280
     0
  0
XRECORD
  5
114A
102
{ACAD_REACTORS
330
1140
102
}
330
1140
100
AcDbXrecord
 90
        0
  0
XRECORD
  5
114E
102
{ACAD_REACTORS
330
1140
102
}
330
1140
100
AcDbXrecord
1000
DSTYLE
1002
{
1070
   341
340
594
1070
   342
340
594
1002
}
  0
XRECORD
  5
114B
102
{ACAD_REACTORS
330
1140
102
}
330
1140
100
AcDbXrecord
  1
{51294030-9CB4-11D3-8E18-00A0C925D94D}
  0
XRECORD
  5
1143
102
{ACAD_REACTORS
330
1140
102
}
330
1140
100
AcDbXrecord
  1

  0
XRECORD
  5
1149
102
{ACAD_REACTORS
330
1140
102
}
330
1140
100
AcDbXrecord
 90
        0
  0
XRECORD
  5
1145
102
{ACAD_REACTORS
330
1140
102
}
330
1140
100
AcDbXrecord
340
565
  0
XRECORD
  5
1148
102
{ACAD_REACTORS
330
1140
102
}
330
1140
100
AcDbXrecord
 90
    10781
  0
XRECORD
  5
1146
102
{ACAD_REACTORS
330
1140
102
}
330
1140
100
AcDbXrecord
340
566
  0
XRECORD
  5
1147
102
{ACAD_REACTORS
330
1140
102
}
330
1140
100
AcDbXrecord
340
563
  0
XRECORD
  5
114D
102
{ACAD_REACTORS
330
1140
102
}
330
1140
100
AcDbXrecord
 40
0.0
  0
XRECORD
  5
1151
102
{ACAD_REACTORS
330
1140
102
}
330
1140
100
AcDbXrecord
340
0
  0
XRECORD
  5
1157
102
{ACAD_REACTORS
330
1140
102
}
330
1140
100
AcDbXrecord
 10
0.0
 20
0.0
 30
0.0
  0
XRECORD
  5
1153
102
{ACAD_REACTORS
330
1140
102
}
330
1140
100
AcDbXrecord
 10
0.0
 20
0.0
 30
0.0
  0
XRECORD
  5
1156
102
{ACAD_REACTORS
330
1140
102
}
330
1140
100
AcDbXrecord
 10
0.0
 20
0.0
 30
0.0
  0
XRECORD
  5
1154
102
{ACAD_REACTORS
330
1140
102
}
330
1140
100
AcDbXrecord
 10
0.0
 20
0.0
 30
0.0
  0
XRECORD
  5
1155
102
{ACAD_REACTORS
330
1140
102
}
330
1140
100
AcDbXrecord
 10
0.0
 20
0.0
 30
0.0
  0
XRECORD
  5
1152
102
{ACAD_REACTORS
330
1140
102
}
330
1140
100
AcDbXrecord
 10
0.0
 20
0.0
 30
0.0
  0
XRECORD
  5
114F
102
{ACAD_REACTORS
330
1140
102
}
330
1140
100
AcDbXrecord
340
0
  0
XRECORD
  5
1150
102
{ACAD_REACTORS
330
1140
102
}
330
1140
100
AcDbXrecord
 70
     0
  0
XRECORD
  5
1144
102
{ACAD_REACTORS
330
1140
102
}
330
1140
100
AcDbXrecord
  1
big.ctb
  0
XRECORD
  5
1141
102
{ACAD_REACTORS
330
1140
102
}
330
1140
100
AcDbXrecord
 90
        1
  0
XRECORD
  5
1142
102
{ACAD_REACTORS
330
1140
102
}
330
1140
100
AcDbXrecord
 90
       70
  0
XRECORD
  5
115A
102
{ACAD_REACTORS
330
1140
102
}
330
1140
100
AcDbXrecord
340
0
  0
XRECORD
  5
1160
102
{ACAD_REACTORS
330
1140
102
}
330
1140
100
AcDbXrecord
 10
0.0
 20
0.0
 30
0.0
  0
XRECORD
  5
115C
102
{ACAD_REACTORS
330
1140
102
}
330
1140
100
AcDbXrecord
 10
0.0
 20
0.0
 30
0.0
  0
XRECORD
  5
115F
102
{ACAD_REACTORS
330
1140
102
}
330
1140
100
AcDbXrecord
 10
0.0
 20
0.0
 30
0.0
  0
XRECORD
  5
115D
102
{ACAD_REACTORS
330
1140
102
}
330
1140
100
AcDbXrecord
 10
0.0
 20
0.0
 30
0.0
  0
XRECORD
  5
115E
102
{ACAD_REACTORS
330
1140
102
}
330
1140
100
AcDbXrecord
 10
0.0
 20
0.0
 30
0.0
  0
XRECORD
  5
115B
102
{ACAD_REACTORS
330
1140
102
}
330
1140
100
AcDbXrecord
 10
0.0
 20
0.0
 30
0.0
  0
XRECORD
  5
1158
102
{ACAD_REACTORS
330
1140
102
}
330
1140
100
AcDbXrecord
340
0
  0
XRECORD
  5
1159
102
{ACAD_REACTORS
330
1140
102
}
330
1140
100
AcDbXrecord
 70
     0
  0
XRECORD
  5
114C
102
{ACAD_REACTORS
330
1140
102
}
330
1140
100
AcDbXrecord
  1
{A752829C-BAEE-428F-809A-5E5C6C5F2916}
  0
DICTIONARYVAR
  5
D24
102
{ACAD_REACTORS
330
D23
102
}
330
D23
100
DictionaryVariables
280
     0
  1
1
  0
XRECORD
  5
560
102
{ACAD_REACTORS
330
540
102
}
330
540
100
AcDbXrecord
  1
2.0.0
  0
ENDSEC
  0
EOF
