  0
SECTION
  2
HEADER
  9
$ACADVER
  1
AC1014
  9
$ACADMAINTVER
 70
     9
  9
$DWGCODEPAGE
  3
ANSI_932
  9
$INSBASE
 10
0.0
 20
0.0
 30
0.0
  9
$EXTMIN
 10
-64.50497548
 20
-31.71448253
 30
-0.00152582
  9
$EXTMAX
 10
134.01441915
 20
68.01330306
 30
0.00000003
  9
$LIMMIN
 10
0.0
 20
0.0
  9
$LIMMAX
 10
297.0
 20
210.0
  9
$ORTHOMODE
 70
     0
  9
$REGENMODE
 70
     1
  9
$FILLMODE
 70
     1
  9
$QTEXTMODE
 70
     0
  9
$MIRRTEXT
 70
     1
  9
$DRAGMODE
 70
     2
  9
$LTSCALE
 40
10.0
  9
$OSMODE
 70
   549
  9
$ATTMODE
 70
     1
  9
$TEXTSIZE
 40
3.0
  9
$TRACEWID
 40
1.0
  9
$TEXTSTYLE
  7
YOKO
  9
$CLAYER
  8
240
  9
$CELTYPE
  6
BYLAYER
  9
$CECOLOR
 62
   256
  9
$CELTSCALE
 40
1.0
  9
$DELOBJ
 70
     1
  9
$DISPSILH
 70
     0
  9
$DIMSCALE
 40
1.0
  9
$DIMASZ
 40
2.23
  9
$DIMEXO
 40
0.5
  9
$DIMDLI
 40
2.5
  9
$DIMRND
 40
0.0
  9
$DIMDLE
 40
0.0
  9
$DIMEXE
 40
1.0
  9
$DIMTP
 40
0.0
  9
$DIMTM
 40
0.0
  9
$DIMTXT
 40
3.5
  9
$DIMCEN
 40
0.0
  9
$DIMTSZ
 40
0.0
  9
$DIMTOL
 70
     0
  9
$DIMLIM
 70
     0
  9
$DIMTIH
 70
     0
  9
$DIMTOH
 70
     0
  9
$DIMSE1
 70
     0
  9
$DIMSE2
 70
     0
  9
$DIMTAD
 70
     3
  9
$DIMZIN
 70
     9
  9
$DIMBLK
  1
OPEN
  9
$DIMASO
 70
     1
  9
$DIMSHO
 70
     1
  9
$DIMPOST
  1

  9
$DIMAPOST
  1

  9
$DIMALT
 70
     0
  9
$DIMALTD
 70
     2
  9
$DIMALTF
 40
25.4
  9
$DIMLFAC
 40
1.0
  9
$DIMTOFL
 70
     1
  9
$DIMTVP
 40
0.0
  9
$DIMTIX
 70
     0
  9
$DIMSOXD
 70
     0
  9
$DIMSAH
 70
     0
  9
$DIMBLK1
  1

  9
$DIMBLK2
  1

  9
$DIMSTYLE
  2
BIGT
  9
$DIMCLRD
 70
   256
  9
$DIMCLRE
 70
   256
  9
$DIMCLRT
 70
    40
  9
$DIMTFAC
 40
1.0
  9
$DIMGAP
 40
1.0
  9
$DIMJUST
 70
     0
  9
$DIMSD1
 70
     0
  9
$DIMSD2
 70
     0
  9
$DIMTOLJ
 70
     1
  9
$DIMTZIN
 70
     8
  9
$DIMALTZ
 70
     0
  9
$DIMALTTZ
 70
     0
  9
$DIMFIT
 70
     3
  9
$DIMUPT
 70
     0
  9
$DIMUNIT
 70
     2
  9
$DIMDEC
 70
     3
  9
$DIMTDEC
 70
     3
  9
$DIMALTU
 70
     2
  9
$DIMALTTD
 70
     2
  9
$DIMTXSTY
  7
STANDARD
  9
$DIMAUNIT
 70
     0
  9
$LUNITS
 70
     2
  9
$LUPREC
 70
     3
  9
$SKETCHINC
 40
1.0
  9
$FILLETRAD
 40
1.6
  9
$AUNITS
 70
     0
  9
$AUPREC
 70
     3
  9
$MENU
  1
.
  9
$ELEVATION
 40
0.0
  9
$PELEVATION
 40
0.0
  9
$THICKNESS
 40
0.0
  9
$LIMCHECK
 70
     0
  9
$BLIPMODE
 70
     0
  9
$CHAMFERA
 40
10.0
  9
$CHAMFERB
 40
10.0
  9
$CHAMFERC
 40
0.0
  9
$CHAMFERD
 40
0.0
  9
$SKPOLY
 70
     0
  9
$TDCREATE
 40
2452356.692130891
  9
$TDUPDATE
 40
2455377.653674942
  9
$TDINDWG
 40
0.1294164236
  9
$TDUSRTIMER
 40
0.1294164236
  9
$USRTIMER
 70
     1
  9
$ANGBASE
 50
0.0
  9
$ANGDIR
 70
     0
  9
$PDMODE
 70
     1
  9
$PDSIZE
 40
-5.0
  9
$PLINEWID
 40
0.0
  9
$COORDS
 70
     0
  9
$SPLFRAME
 70
     0
  9
$SPLINETYPE
 70
     6
  9
$SPLINESEGS
 70
     8
  9
$ATTDIA
 70
     0
  9
$ATTREQ
 70
     1
  9
$HANDLING
 70
-16383
  9
$HANDSEED
  5
1459
  9
$SURFTAB1
 70
     6
  9
$SURFTAB2
 70
     6
  9
$SURFTYPE
 70
     6
  9
$SURFU
 70
     6
  9
$SURFV
 70
     6
  9
$UCSNAME
  2

  9
$UCSORG
 10
0.0
 20
0.0
 30
0.0
  9
$UCSXDIR
 10
1.0
 20
0.0
 30
0.0
  9
$UCSYDIR
 10
0.0
 20
1.0
 30
0.0
  9
$PUCSNAME
  2

  9
$PUCSORG
 10
0.0
 20
0.0
 30
0.0
  9
$PUCSXDIR
 10
1.0
 20
0.0
 30
0.0
  9
$PUCSYDIR
 10
0.0
 20
1.0
 30
0.0
  9
$USERI1
 70
     1
  9
$USERI2
 70
     0
  9
$USERI3
 70
     0
  9
$USERI4
 70
     0
  9
$USERI5
 70
     0
  9
$USERR1
 40
0.0
  9
$USERR2
 40
0.0
  9
$USERR3
 40
0.0
  9
$USERR4
 40
0.0
  9
$USERR5
 40
0.0
  9
$WORLDVIEW
 70
     1
  9
$SHADEDGE
 70
     3
  9
$SHADEDIF
 70
    70
  9
$TILEMODE
 70
     1
  9
$MAXACTVP
 70
    16
  9
$PINSBASE
 10
0.0
 20
0.0
 30
0.0
  9
$PLIMCHECK
 70
     0
  9
$PEXTMIN
 10
1.00000000E+20
 20
1.00000000E+20
 30
1.00000000E+20
  9
$PEXTMAX
 10
-1.00000000E+20
 20
-1.00000000E+20
 30
-1.00000000E+20
  9
$PLIMMIN
 10
0.0
 20
0.0
  9
$PLIMMAX
 10
420.0
 20
297.0
  9
$UNITMODE
 70
     0
  9
$VISRETAIN
 70
     0
  9
$PLINEGEN
 70
     0
  9
$PSLTSCALE
 70
     1
  9
$TREEDEPTH
 70
  3020
  9
$PICKSTYLE
 70
     0
  9
$CMLSTYLE
  2
STANDARD
  9
$CMLJUST
 70
     0
  9
$CMLSCALE
 40
1.0
  9
$PROXYGRAPHICS
 70
     1
  9
$MEASUREMENT
 70
     1
  0
ENDSEC
  0
SECTION
  2
CLASSES
  0
CLASS
  1
XRECORD
  2
AcDbXrecord
  3
AutoCAD 2000
 90
        0
280
     0
281
     0
  0
CLASS
  1
ACDBDICTIONARYWDFLT
  2
AcDbDictionaryWithDefault
  3
AutoCAD 2000
 90
        0
280
     0
281
     0
  0
CLASS
  1
ACDBPLACEHOLDER
  2
AcDbPlaceHolder
  3
AutoCAD 2000
 90
        0
280
     0
281
     0
  0
CLASS
  1
LAYOUT
  2
AcDbLayout
  3
AutoCAD 2000
 90
        0
280
     0
281
     0
  0
CLASS
  1
DICTIONARYVAR
  2
AcDbDictionaryVar
  3
AutoCAD 2000
 90
        0
280
     0
281
     0
  0
CLASS
  1
LONG_TRANSACTION
  2
AcDbLongTransaction
  3
AutoCAD 2000
 90
        0
280
     0
281
     0
  0
CLASS
  1
LWPOLYLINE
  2
AcDbPolyline
  3
AutoCAD 2000
 90
        0
280
     0
281
     1
  0
CLASS
  1
HATCH
  2
AcDbHatch
  3
AutoCAD 2000
 90
        0
280
     0
281
     1
  0
CLASS
  1
XRECORD
  2
AcDbXrecord
  3
AutoCAD 2000
 90
        0
280
     0
281
     0
  0
CLASS
  1
LONG_TRANSACTION
  2
AcDbLongTransaction
  3
AutoCAD 2000
 90
        0
280
     0
281
     0
  0
CLASS
  1
LWPOLYLINE
  2
AcDbPolyline
  3
AutoCAD 2000
 90
        0
280
     0
281
     1
  0
CLASS
  1
HATCH
  2
AcDbHatch
  3
AutoCAD 2000
 90
        0
280
     0
281
     1
  0
CLASS
  1
XRECORD
  2
AcDbXrecord
  3
AutoCAD 2000
 90
        0
280
     0
281
     0
  0
CLASS
  1
LONG_TRANSACTION
  2
AcDbLongTransaction
  3
AutoCAD 2000
 90
        0
280
     0
281
     0
  0
CLASS
  1
LWPOLYLINE
  2
AcDbPolyline
  3
AutoCAD 2000
 90
        0
280
     0
281
     1
  0
CLASS
  1
HATCH
  2
AcDbHatch
  3
AutoCAD 2000
 90
        0
280
     0
281
     1
  0
CLASS
  1
XRECORD
  2
AcDbXrecord
  3
AutoCAD 2000
 90
        0
280
     0
281
     0
  0
CLASS
  1
LONG_TRANSACTION
  2
AcDbLongTransaction
  3
AutoCAD 2000
 90
        0
280
     0
281
     0
  0
CLASS
  1
LWPOLYLINE
  2
AcDbPolyline
  3
AutoCAD 2000
 90
        0
280
     0
281
     1
  0
CLASS
  1
HATCH
  2
AcDbHatch
  3
AutoCAD 2000
 90
        0
280
     0
281
     1
  0
CLASS
  1
XRECORD
  2
AcDbXrecord
  3
AutoCAD 2000
 90
        0
280
     0
281
     0
  0
ENDSEC
  0
SECTION
  2
TABLES
  0
TABLE
  2
VPORT
  5
8
330
0
100
AcDbSymbolTable
 70
     4
  0
VPORT
  5
1434
330
8
100
AcDbSymbolTableRecord
100
AcDbViewportTableRecord
  2
*ACTIVE
 70
     0
 10
0.0
 20
0.0
 11
1.0
 21
1.0
 12
34.75472184
 22
18.14941026
 13
0.0
 23
0.0
 14
7.0
 24
7.0
 15
7.0
 25
7.0
 16
0.0
 26
0.0
 36
1.0
 17
0.0
 27
0.0
 37
0.0
 40
137.07652316
 41
1.45595855
 42
50.0
 43
0.0
 44
0.0
 50
0.0
 51
0.0
 71
     0
 72
  2000
 73
     1
 74
     0
 75
     0
 76
     0
 77
     0
 78
     0
  0
ENDTAB
  0
TABLE
  2
LTYPE
  5
5
330
0
100
AcDbSymbolTable
 70
     4
  0
LTYPE
  5
14
330
5
100
AcDbSymbolTableRecord
100
AcDbLinetypeTableRecord
  2
BYBLOCK
 70
     0
  3

 72
    65
 73
     0
 40
0.0
  0
LTYPE
  5
15
330
5
100
AcDbSymbolTableRecord
100
AcDbLinetypeTableRecord
  2
BYLAYER
 70
     0
  3

 72
    65
 73
     0
 40
0.0
  0
LTYPE
  5
16
330
5
100
AcDbSymbolTableRecord
100
AcDbLinetypeTableRecord
  2
CONTINUOUS
 70
     0
  3
Solid line
 72
    65
 73
     0
 40
0.0
  0
LTYPE
  5
258
330
5
100
AcDbSymbolTableRecord
100
AcDbLinetypeTableRecord
  2
CENTER2
 70
     0
  3
___ _ ___ _ ___ _ ___ _ ___ _ ___ _ ___ _ ___ _
 72
    65
 73
     4
 40
1.125
 49
0.75
 74
     0
 49
-0.125
 74
     0
 49
0.125
 74
     0
 49
-0.125
 74
     0
  0
LTYPE
  5
25C
330
5
100
AcDbSymbolTableRecord
100
AcDbLinetypeTableRecord
  2
HIDDEN2
 70
     0
  3
_ _ _ _ _ _ _ _ _ _ _ _ _ _ _ _ _ _ _ _ _ _ _ _
 72
    65
 73
     2
 40
0.1875
 49
0.125
 74
     0
 49
-0.0625
 74
     0
  0
LTYPE
  5
25D
330
5
100
AcDbSymbolTableRecord
100
AcDbLinetypeTableRecord
  2
PHANTOM2
 70
     0
  3
___ _ _ ___ _ _ ___ _ _ ___ _ _ ___ _ _ ___ _ _
 72
    65
 73
     6
 40
1.25
 49
0.625
 74
     0
 49
-0.125
 74
     0
 49
0.125
 74
     0
 49
-0.125
 74
     0
 49
0.125
 74
     0
 49
-0.125
 74
     0
  0
ENDTAB
  0
TABLE
  2
LAYER
  5
2
330
0
100
AcDbSymbolTable
 70
     8
  0
LAYER
  5
F
330
2
100
AcDbSymbolTableRecord
100
AcDbLayerTableRecord
  2
0
 70
     0
 62
     7
  6
CONTINUOUS
  0
LAYER
  5
1AA
330
2
100
AcDbSymbolTableRecord
100
AcDbLayerTableRecord
  2
240
 70
     0
 62
     4
  6
CONTINUOUS
  0
LAYER
  5
1AB
330
2
100
AcDbSymbolTableRecord
100
AcDbLayerTableRecord
  2
241
 70
     0
 62
   211
  6
CONTINUOUS
  0
LAYER
  5
1AF
330
2
100
AcDbSymbolTableRecord
100
AcDbLayerTableRecord
  2
245
 70
     0
 62
     2
  6
CENTER2
  0
LAYER
  5
21A
330
2
100
AcDbSymbolTableRecord
100
AcDbLayerTableRecord
  2
246
 70
     0
 62
     3
  6
PHANTOM2
  0
LAYER
  5
21E
330
2
100
AcDbSymbolTableRecord
100
AcDbLayerTableRecord
  2
250
 70
     0
 62
     3
  6
CONTINUOUS
  0
LAYER
  5
5C4
330
2
100
AcDbSymbolTableRecord
100
AcDbLayerTableRecord
  2
DEFPOINTS
 70
     0
 62
     7
  6
CONTINUOUS
  0
ENDTAB
  0
TABLE
  2
STYLE
  5
3
330
0
100
AcDbSymbolTable
 70
     2
  0
STYLE
  5
10
330
3
100
AcDbSymbolTableRecord
100
AcDbTextStyleTableRecord
  2
STANDARD
 70
     0
 40
0.0
 41
1.0
 50
0.0
 71
     0
 42
3.0
  3
romans.shx
  4
BIGFONT.SHX
  0
STYLE
  5
339
330
3
100
AcDbSymbolTableRecord
100
AcDbTextStyleTableRecord
  2
YOKO
 70
     0
 40
0.0
 41
1.0
 50
0.0
 71
     0
 42
3.0
  3
romans.shx
  4
extfont.shx
  0
ENDTAB
  0
TABLE
  2
VIEW
  5
6
330
0
100
AcDbSymbolTable
 70
     1
  0
VIEW
  5
1432
330
6
100
AcDbSymbolTableRecord
100
AcDbViewTableRecord
  2
OLE1
 70
     0
 40
137.07652316
 10
34.75472184
 20
18.14941026
 41
199.57773579
 11
0.0
 21
0.0
 31
1.0
 12
0.0
 22
0.0
 32
0.0
 42
50.0
 43
0.0
 44
0.0
 50
0.0
 71
     0
  0
ENDTAB
  0
TABLE
  2
UCS
  5
7
330
0
100
AcDbSymbolTable
 70
     0
  0
ENDTAB
  0
TABLE
  2
APPID
  5
9
330
0
100
AcDbSymbolTable
 70
    10
  0
APPID
  5
11
330
9
100
AcDbSymbolTableRecord
100
AcDbRegAppTableRecord
  2
ACAD
 70
     0
  0
APPID
  5
1B1
330
9
100
AcDbSymbolTableRecord
100
AcDbRegAppTableRecord
  2
GLOBAL
 70
     0
  0
APPID
  5
2A4
330
9
100
AcDbSymbolTableRecord
100
AcDbRegAppTableRecord
  2
DETAIL
 70
     0
  0
APPID
  5
5FD
330
9
100
AcDbSymbolTableRecord
100
AcDbRegAppTableRecord
  2
GRPNAME
 70
     0
  0
APPID
  5
5FE
330
9
100
AcDbSymbolTableRecord
100
AcDbRegAppTableRecord
  2
GPARA
 70
     0
  0
APPID
  5
6A8
330
9
100
AcDbSymbolTableRecord
100
AcDbRegAppTableRecord
  2
ITEMNAME
 70
     0
  0
APPID
  5
964
330
9
100
AcDbSymbolTableRecord
100
AcDbRegAppTableRecord
  2
HATCH_TYPE
 70
     0
  0
APPID
  5
965
330
9
100
AcDbSymbolTableRecord
100
AcDbRegAppTableRecord
  2
HATCH_DISPLAY
 70
     0
  0
APPID
  5
966
330
9
100
AcDbSymbolTableRecord
100
AcDbRegAppTableRecord
  2
HATCH_DISTANCE
 70
     0
  0
APPID
  5
11FB
330
9
100
AcDbSymbolTableRecord
100
AcDbRegAppTableRecord
  2
CONTENTBLOCKICON
 70
     0
  0
ENDTAB
  0
TABLE
  2
DIMSTYLE
  5
A
330
0
100
AcDbSymbolTable
 70
     1
  0
DIMSTYLE
105
59A
102
{ACAD_REACTORS
330
F90
330
F96
330
F98
330
110D
102
}
330
A
100
AcDbSymbolTableRecord
100
AcDbDimStyleTableRecord
  2
BIGT
 70
     0
  3

  4

  5
OPEN
  6

  7

 40
1.0
 41
2.23
 42
0.5
 43
2.5
 44
1.0
 45
0.0
 46
0.0
 47
0.0
 48
0.0
140
3.5
141
0.0
142
0.0
143
25.4
144
1.0
145
0.0
146
1.0
147
1.0
 71
     0
 72
     0
 73
     0
 74
     0
 75
     0
 76
     0
 77
     3
 78
     9
170
     0
171
     2
172
     1
173
     0
174
     0
175
     0
176
   256
177
   256
178
    40
270
     2
271
     3
272
     3
273
     2
274
     2
340
10
275
     0
280
     0
281
     0
282
     0
283
     1
284
     8
285
     0
286
     0
287
     3
288
     0
  0
ENDTAB
  0
TABLE
  2
BLOCK_RECORD
  5
1
330
0
100
AcDbSymbolTable
 70
     6
  0
BLOCK_RECORD
  5
1A
102
{ACAD_XDICTIONARY
360
1047
102
}
330
1
100
AcDbSymbolTableRecord
100
AcDbBlockTableRecord
  2
*MODEL_SPACE
  0
BLOCK_RECORD
  5
17
102
{ACAD_XDICTIONARY
360
1045
102
}
330
1
100
AcDbSymbolTableRecord
100
AcDbBlockTableRecord
  2
*PAPER_SPACE
  0
BLOCK_RECORD
  5
594
330
1
100
AcDbSymbolTableRecord
100
AcDbBlockTableRecord
  2
_OPEN
  0
BLOCK_RECORD
  5
FA5
330
1
100
AcDbSymbolTableRecord
100
AcDbBlockTableRecord
  2
*D1
  0
BLOCK_RECORD
  5
FBF
330
1
100
AcDbSymbolTableRecord
100
AcDbBlockTableRecord
  2
*D2
  0
BLOCK_RECORD
  5
FD7
330
1
100
AcDbSymbolTableRecord
100
AcDbBlockTableRecord
  2
*D3
  0
BLOCK_RECORD
  5
110E
330
1
100
AcDbSymbolTableRecord
100
AcDbBlockTableRecord
  2
*D4
  0
BLOCK_RECORD
  5
1152
330
1
100
AcDbSymbolTableRecord
100
AcDbBlockTableRecord
  2
1
1001
CONTENTBLOCKICON
1071
        0
1004
2800000020000000200000000100080000000000000400000000000000000000000000000000000000000000000080000080000000808000800000008000800080800000C0C0C000C0DCC000F0CAA6000020400000206000002080000020A0000020C0000020E00000400000004020000040400000406000004080000040A0
1004
000040C0000040E00000600000006020000060400000606000006080000060A0000060C0000060E00000800000008020000080400000806000008080000080A0000080C0000080E00000A0000000A0200000A0400000A0600000A0800000A0A00000A0C00000A0E00000C0000000C0200000C0400000C0600000C0800000C0
1004
A00000C0C00000C0E00000E0000000E0200000E0400000E0600000E0800000E0A00000E0C00000E0E00040000000400020004000400040006000400080004000A0004000C0004000E00040200000402020004020400040206000402080004020A0004020C0004020E000404000004040200040404000404060004040800040
1004
40A0004040C0004040E00040600000406020004060400040606000406080004060A0004060C0004060E00040800000408020004080400040806000408080004080A0004080C0004080E00040A0000040A0200040A0400040A0600040A0800040A0A00040A0C00040A0E00040C0000040C0200040C0400040C0600040C08000
1004
40C0A00040C0C00040C0E00040E0000040E0200040E0400040E0600040E0800040E0A00040E0C00040E0E00080000000800020008000400080006000800080008000A0008000C0008000E00080200000802020008020400080206000802080008020A0008020C0008020E00080400000804020008040400080406000804080
1004
008040A0008040C0008040E00080600000806020008060400080606000806080008060A0008060C0008060E00080800000808020008080400080806000808080008080A0008080C0008080E00080A0000080A0200080A0400080A0600080A0800080A0A00080A0C00080A0E00080C0000080C0200080C0400080C0600080C0
1004
800080C0A00080C0C00080C0E00080E0000080E0200080E0400080E0600080E0800080E0A00080E0C00080E0E000C0000000C0002000C0004000C0006000C0008000C000A000C000C000C000E000C0200000C0202000C0204000C0206000C0208000C020A000C020C000C020E000C0400000C0402000C0404000C0406000C0
1004
408000C040A000C040C000C040E000C0600000C0602000C0604000C0606000C0608000C060A000C060C000C060E000C0800000C0802000C0804000C0806000C0808000C080A000C080C000C080E000C0A00000C0A02000C0A04000C0A06000C0A08000C0A0A000C0A0C000C0A0E000C0C00000C0C02000C0C04000C0C06000
1004
C0C08000C0C0A000F0FBFF00A4A0A000808080000000FF0000FF000000FFFF00FF000000FF00FF00FFFF0000FFFFFF0000000000000000000000000000000000000000000000000000000000000000000000000000000000000000000000000000000000000000000000000000000000000000000000000000000000000000
1004
00000000000000000000000000000000000000000000000000000000000000000000000000000000000000000000000000000000000000000000000000000000000000000000000000000000000000000000000000000000000000000000000000000000000000000000000000000000000000000000000000000000000000
1004
00000000000000000000000000000000000000000000000000000000000000000000000000000000000000000000000000000000000000000000000000000000000000000000000000000000000000000000000000000000000000000000000000000000000000000000000000000000000000000000000000000000000000
1004
00000000000000000000000000000000000000000000000000000000000000FEFEFBFE00000000000000000000000000000000000000000000000000FEFEFEFEE7FEE7FEFE00000000000000000000FAFA00000000000000FEFEFEFE0000E7E7E7E7E70000FEFEFEFEFEFEFEFEFEFEFEFE00000000FEFEFE000000000000E7
1004
E7E7E7E700000000E7000000000000E7E7FE00000000FE0000000000000000E7E7E7E7E700000000E700000000E7E70000FE000000FBFEFBFBFBFBFBFBFBFBE7E7E7E7E7FBFBFBFBE7FBFBFBFBFBE7E7E7FEFB000000FEFEFE000000000000E7E7E7E7E700000000E700000000000000E7FE00000000000000FEFEFEFE0000
1004
E7E7E7E7E70000FEFEFEFEFEFEFEFEFEFEFEFE0000000000000000000000FEFEFEFEE7FEE7FEFE00000000000000000000FAFA0000000000000000000000000000FEFEFBFE00000000000000000000000000000000000000000000000000000000000000000000000000000000000000000000000000000000000000000000
1004
00000000000000000000000000000000000000000000000000000000000000000000000000000000000000000000000000000000000000000000000000000000000000000000000000000000000000000000000000000000000000000000000000000000000000000000000000000000000000000000000000000000000000
1004
00000000000000000000000000000000000000000000000000000000000000000000000000000000000000000000000000000000000000000000000000000000000000000000000000000000000000000000000000000000000000000000000000000000000000000000000000000000000000000000000000000000000000
1004
0000000000000000000000000000000000000000000000000000000000000000000000000000000000000000000000000000000000000000
  0
ENDTAB
  0
ENDSEC
  0
SECTION
  2
BLOCKS
  0
BLOCK
  5
1B
330
1A
100
AcDbEntity
  8
0
100
AcDbBlockBegin
  2
*MODEL_SPACE
 70
     0
 10
0.0
 20
0.0
 30
0.0
  3
*MODEL_SPACE
  1

  0
ENDBLK
  5
1C
330
1A
100
AcDbEntity
  8
0
100
AcDbBlockEnd
  0
BLOCK
  5
18
330
17
100
AcDbEntity
 67
     1
  8
0
100
AcDbBlockBegin
  2
*PAPER_SPACE
 70
     0
 10
0.0
 20
0.0
 30
0.0
  3
*PAPER_SPACE
  1

  0
ENDBLK
  5
19
330
17
100
AcDbEntity
 67
     1
  8
0
100
AcDbBlockEnd
  0
BLOCK
  5
598
330
594
100
AcDbEntity
  8
0
100
AcDbBlockBegin
  2
_OPEN
 70
     0
 10
0.0
 20
0.0
 30
0.0
  3
_OPEN
  1

  0
LINE
  5
595
330
594
100
AcDbEntity
  8
0
  6
BYBLOCK
 62
     0
100
AcDbLine
 10
-1.0
 20
0.16666667
 30
0.0
 11
0.0
 21
0.0
 31
0.0
  0
LINE
  5
596
330
594
100
AcDbEntity
  8
0
  6
BYBLOCK
 62
     0
100
AcDbLine
 10
-1.0
 20
-0.16666667
 30
0.0
 11
0.0
 21
0.0
 31
0.0
  0
LINE
  5
597
330
594
100
AcDbEntity
  8
0
  6
BYBLOCK
 62
     0
100
AcDbLine
 10
0.0
 20
0.0
 30
0.0
 11
-1.0
 21
0.0
 31
0.0
  0
ENDBLK
  5
599
330
594
100
AcDbEntity
  8
0
100
AcDbBlockEnd
  0
BLOCK
  5
FAF
330
FA5
100
AcDbEntity
  8
0
100
AcDbBlockBegin
  2
*D1
 70
     1
 10
0.0
 20
0.0
 30
0.0
  3
*D1
  1

  0
LINE
  5
112C
330
FA5
100
AcDbEntity
  8
250
  6
CONTINUOUS
100
AcDbLine
 10
1.9060556
 20
22.725
 30
0.0
 11
1.9060556
 21
50.0
 31
0.0
  0
LINE
  5
112D
330
FA5
100
AcDbEntity
  8
250
  6
CONTINUOUS
100
AcDbLine
 10
121.9060556
 20
20.5
 30
0.0
 11
121.9060556
 21
50.0
 31
0.0
  0
LINE
  5
112E
330
FA5
100
AcDbEntity
  8
250
  6
CONTINUOUS
100
AcDbLine
 10
4.1360556
 20
49.0
 30
0.0
 11
119.6760556
 21
49.0
 31
0.0
  0
INSERT
  5
112F
330
FA5
100
AcDbEntity
  8
250
  6
CONTINUOUS
100
AcDbBlockReference
  2
_OPEN
 10
1.9060556
 20
49.0
 30
0.0
 41
2.23
 42
2.23
 43
2.23
 50
180.0
  0
INSERT
  5
1130
330
FA5
100
AcDbEntity
  8
250
  6
CONTINUOUS
100
AcDbBlockReference
  2
_OPEN
 10
121.9060556
 20
49.0
 30
0.0
 41
2.23
 42
2.23
 43
2.23
  0
MTEXT
  5
1131
330
FA5
100
AcDbEntity
  8
250
  6
CONTINUOUS
 62
    40
100
AcDbMText
 10
61.9060556
 20
51.5
 30
0.0
 40
3.0
 41
0.0
 71
     5
 72
     1
  1
\A1;120
1001
ACAD
1000
MTEXTBEGIN
1070
    73
1070
     1
1070
    44
1040
1.0
1070
    74
1070
     0
1000
MTEXTEND
1000
MTEXTBEGIN
1070
    73
1070
     1
1070
    44
1040
1.0
1070
    74
1070
     0
1000
MTEXTEND
1000
MTEXTBEGIN
1070
    73
1070
     1
1070
    44
1040
1.0
1070
    74
1070
     0
1000
MTEXTEND
  0
POINT
  5
1132
330
FA5
100
AcDbEntity
  8
DEFPOINTS
  6
CONTINUOUS
 62
     0
100
AcDbPoint
 10
1.9060556
 20
22.225
 30
0.0
  0
POINT
  5
1133
330
FA5
100
AcDbEntity
  8
DEFPOINTS
  6
CONTINUOUS
 62
     0
100
AcDbPoint
 10
121.9060556
 20
20.0
 30
0.0
  0
POINT
  5
1134
330
FA5
100
AcDbEntity
  8
DEFPOINTS
  6
CONTINUOUS
 62
     0
100
AcDbPoint
 10
121.9060556
 20
49.0
 30
0.0
  0
ENDBLK
  5
FB0
330
FA5
100
AcDbEntity
  8
0
100
AcDbBlockEnd
  0
BLOCK
  5
FC9
330
FBF
100
AcDbEntity
  8
0
100
AcDbBlockBegin
  2
*D2
 70
     1
 10
0.0
 20
0.0
 30
0.0
  3
*D2
  1

  0
LINE
  5
12E9
330
FBF
100
AcDbEntity
  8
250
  6
CONTINUOUS
100
AcDbLine
 10
122.4060556
 20
-20.0
 30
0.0
 11
134.0
 21
-20.0
 31
0.0
  0
LINE
  5
12EA
330
FBF
100
AcDbEntity
  8
250
  6
CONTINUOUS
100
AcDbLine
 10
122.4060556
 20
20.0
 30
0.0
 11
134.0
 21
20.0
 31
0.0
  0
LINE
  5
12EB
330
FBF
100
AcDbEntity
  8
250
  6
CONTINUOUS
100
AcDbLine
 10
133.0
 20
-17.77
 30
0.0
 11
133.0
 21
17.77
 31
0.0
  0
INSERT
  5
12EC
330
FBF
100
AcDbEntity
  8
250
  6
CONTINUOUS
100
AcDbBlockReference
  2
_OPEN
 10
133.0
 20
-20.0
 30
0.0
 41
2.23
 42
2.23
 43
2.23
 50
270.0
  0
INSERT
  5
12ED
330
FBF
100
AcDbEntity
  8
250
  6
CONTINUOUS
100
AcDbBlockReference
  2
_OPEN
 10
133.0
 20
20.0
 30
0.0
 41
2.23
 42
2.23
 43
2.23
 50
90.0
  0
MTEXT
  5
12EE
330
FBF
100
AcDbEntity
  8
250
  6
CONTINUOUS
 62
    40
100
AcDbMText
 10
130.5
 20
0.0
 30
0.0
 40
3.0
 41
0.0
 71
     5
 72
     1
  1
\A1;{\H3;\U+2205}40
 11
0.0
 21
1.0
 31
0.0
1001
ACAD
1000
MTEXTBEGIN
1070
    73
1070
     1
1070
    44
1040
1.0
1070
    74
1070
     0
1000
MTEXTEND
1000
MTEXTBEGIN
1070
    73
1070
     1
1070
    44
1040
1.0
1070
    74
1070
     0
1000
MTEXTEND
  0
POINT
  5
12EF
330
FBF
100
AcDbEntity
  8
DEFPOINTS
  6
CONTINUOUS
 62
     0
100
AcDbPoint
 10
121.9060556
 20
-20.0
 30
0.0
  0
POINT
  5
12F0
330
FBF
100
AcDbEntity
  8
DEFPOINTS
  6
CONTINUOUS
 62
     0
100
AcDbPoint
 10
121.9060556
 20
20.0
 30
0.0
  0
POINT
  5
12F1
330
FBF
100
AcDbEntity
  8
DEFPOINTS
  6
CONTINUOUS
 62
     0
100
AcDbPoint
 10
133.0
 20
20.0
 30
0.0
  0
ENDBLK
  5
FCA
330
FBF
100
AcDbEntity
  8
0
100
AcDbBlockEnd
  0
BLOCK
  5
FE1
330
FD7
100
AcDbEntity
  8
0
100
AcDbBlockBegin
  2
*D3
 70
     1
 10
0.0
 20
0.0
 30
0.0
  3
*D3
  1

  0
LINE
  5
1123
330
FD7
100
AcDbEntity
  8
250
  6
CONTINUOUS
100
AcDbLine
 10
56.9060556
 20
19.93329732
 30
0.0
 11
56.9060556
 21
43.0
 31
0.0
  0
LINE
  5
1124
330
FD7
100
AcDbEntity
  8
250
  6
CONTINUOUS
100
AcDbLine
 10
121.9060556
 20
20.5
 30
0.0
 11
121.9060556
 21
43.0
 31
0.0
  0
LINE
  5
1125
330
FD7
100
AcDbEntity
  8
250
  6
CONTINUOUS
100
AcDbLine
 10
59.1360556
 20
42.0
 30
0.0
 11
119.6760556
 21
42.0
 31
0.0
  0
INSERT
  5
1126
330
FD7
100
AcDbEntity
  8
250
  6
CONTINUOUS
100
AcDbBlockReference
  2
_OPEN
 10
56.9060556
 20
42.0
 30
0.0
 41
2.23
 42
2.23
 43
2.23
 50
180.0
  0
INSERT
  5
1127
330
FD7
100
AcDbEntity
  8
250
  6
CONTINUOUS
100
AcDbBlockReference
  2
_OPEN
 10
121.9060556
 20
42.0
 30
0.0
 41
2.23
 42
2.23
 43
2.23
  0
MTEXT
  5
1128
330
FD7
100
AcDbEntity
  8
250
  6
CONTINUOUS
 62
    40
100
AcDbMText
 10
89.4060556
 20
44.5
 30
0.0
 40
3.0
 41
0.0
 71
     5
 72
     1
  1
\A1;65
1001
ACAD
1000
MTEXTBEGIN
1070
    73
1070
     1
1070
    44
1040
1.0
1070
    74
1070
     0
1000
MTEXTEND
1000
MTEXTBEGIN
1070
    73
1070
     1
1070
    44
1040
1.0
1070
    74
1070
     0
1000
MTEXTEND
1000
MTEXTBEGIN
1070
    73
1070
     1
1070
    44
1040
1.0
1070
    74
1070
     0
1000
MTEXTEND
  0
POINT
  5
1129
330
FD7
100
AcDbEntity
  8
DEFPOINTS
  6
CONTINUOUS
 62
     0
100
AcDbPoint
 10
56.9060556
 20
19.43329732
 30
0.0
  0
POINT
  5
112A
330
FD7
100
AcDbEntity
  8
DEFPOINTS
  6
CONTINUOUS
 62
     0
100
AcDbPoint
 10
121.9060556
 20
20.0
 30
0.0
  0
POINT
  5
112B
330
FD7
100
AcDbEntity
  8
DEFPOINTS
  6
CONTINUOUS
 62
     0
100
AcDbPoint
 10
121.9060556
 20
42.0
 30
0.0
  0
ENDBLK
  5
FE2
330
FD7
100
AcDbEntity
  8
0
100
AcDbBlockEnd
  0
BLOCK
  5
1118
330
110E
100
AcDbEntity
  8
0
100
AcDbBlockBegin
  2
*D4
 70
     1
 10
0.0
 20
0.0
 30
0.0
  3
*D4
  1

  0
LINE
  5
110F
330
110E
100
AcDbEntity
  8
250
  6
CONTINUOUS
100
AcDbLine
 10
110.9060556
 20
20.5
 30
0.0
 11
110.9060556
 21
36.0
 31
0.0
  0
LINE
  5
1110
330
110E
100
AcDbEntity
  8
250
  6
CONTINUOUS
100
AcDbLine
 10
121.9060556
 20
20.5
 30
0.0
 11
121.9060556
 21
36.0
 31
0.0
  0
LINE
  5
1111
330
110E
100
AcDbEntity
  8
250
  6
CONTINUOUS
100
AcDbLine
 10
113.1360556
 20
35.0
 30
0.0
 11
119.6760556
 21
35.0
 31
0.0
  0
INSERT
  5
1112
330
110E
100
AcDbEntity
  8
250
  6
CONTINUOUS
100
AcDbBlockReference
  2
_OPEN
 10
110.9060556
 20
35.0
 30
0.0
 41
2.23
 42
2.23
 43
2.23
 50
180.0
  0
INSERT
  5
1113
330
110E
100
AcDbEntity
  8
250
  6
CONTINUOUS
100
AcDbBlockReference
  2
_OPEN
 10
121.9060556
 20
35.0
 30
0.0
 41
2.23
 42
2.23
 43
2.23
  0
MTEXT
  5
1114
330
110E
100
AcDbEntity
  8
250
  6
CONTINUOUS
 62
    40
100
AcDbMText
 10
116.4060556
 20
37.75
 30
0.0
 40
3.5
 41
0.0
 71
     5
 72
     1
  1
\A1;11
1001
ACAD
1000
MTEXTBEGIN
1070
    73
1070
     1
1070
    44
1040
1.0
1070
    74
1070
     0
1000
MTEXTEND
1000
MTEXTBEGIN
1070
    73
1070
     1
1070
    44
1040
1.0
1070
    74
1070
     0
1000
MTEXTEND
1000
MTEXTBEGIN
1070
    73
1070
     1
1070
    44
1040
1.0
1070
    74
1070
     0
1000
MTEXTEND
  0
POINT
  5
1115
330
110E
100
AcDbEntity
  8
DEFPOINTS
  6
CONTINUOUS
 62
     0
100
AcDbPoint
 10
110.9060556
 20
20.0
 30
0.0
  0
POINT
  5
1116
330
110E
100
AcDbEntity
  8
DEFPOINTS
  6
CONTINUOUS
 62
     0
100
AcDbPoint
 10
121.9060556
 20
20.0
 30
0.0
  0
POINT
  5
1117
330
110E
100
AcDbEntity
  8
DEFPOINTS
  6
CONTINUOUS
 62
     0
100
AcDbPoint
 10
121.9060556
 20
35.0
 30
0.0
  0
ENDBLK
  5
1119
330
110E
100
AcDbEntity
  8
0
100
AcDbBlockEnd
  0
BLOCK
  5
1153
330
1152
100
AcDbEntity
  8
0
100
AcDbBlockBegin
  2
1
 70
     0
 10
0.0
 20
0.0
 30
0.0
  3
1
  1

  0
LINE
  5
13C0
330
1152
100
AcDbEntity
  8
246
100
AcDbLine
 10
121.9060556
 20
20.0
 30
0.0
 11
110.9060556
 21
20.0
 31
0.0
  0
LINE
  5
13C1
330
1152
100
AcDbEntity
  8
246
100
AcDbLine
 10
121.9060556
 20
-20.0
 30
0.0
 11
110.9060556
 21
-20.0
 31
0.0
  0
LWPOLYLINE
  5
13C2
330
1152
100
AcDbEntity
  8
241
  6
CONTINUOUS
100
AcDbPolyline
 90
       70
 70
     0
 43
0.0
 10
115.3236858
 20
12.42644212
 10
115.30379089
 20
12.30254334
 10
115.28771314
 20
12.1782359
 10
115.27548586
 20
12.05377741
 10
115.2671344
 20
11.92942582
 10
115.26267607
 20
11.80543884
 10
115.2621201
 20
11.68207345
 10
115.26546766
 20
11.5595853
 10
115.27271179
 20
11.43822827
 10
115.28383749
 20
11.31825385
 10
115.2988217
 20
11.1999107
 10
115.31763337
 20
11.08344408
 10
115.3402335
 20
10.96909536
 10
115.36657527
 20
10.85710155
 10
115.39660407
 20
10.74769473
 10
115.43025767
 20
10.64110166
 10
115.46746632
 20
10.53754324
 10
115.50815291
 20
10.43723412
 10
115.55223313
 20
10.34038216
 10
115.5996156
 20
10.2471881
 10
115.65020213
 20
10.15784509
 10
115.70388789
 20
10.07253828
 10
115.7605616
 20
9.99144447
 10
115.82010582
 20
9.91473174
 10
115.88239713
 20
9.84255906
 10
115.94730644
 20
9.77507601
 10
116.01469923
 20
9.71242246
 10
116.08443581
 20
9.65472824
 10
116.15637168
 20
9.60211294
 10
116.23035773
 20
9.55468559
 10
116.30624063
 20
9.5125445
 10
116.38386312
 20
9.47577699
 10
116.46306432
 20
9.44445927
 10
116.54368009
 20
9.41865624
 10
116.62554336
 20
9.39842138
 10
116.70848446
 20
9.38379663
 10
116.79233149
 20
9.37481229
 10
116.87691069
 20
9.37148699
 10
116.96204677
 20
9.37382761
 10
117.04756328
 20
9.38182931
 10
117.13328299
 20
9.39547551
 10
117.21902824
 20
9.41473792
 10
117.30462133
 20
9.43957661
 10
117.38988487
 20
9.46994012
 10
117.47464215
 20
9.50576552
 10
117.55871751
 20
9.54697854
 10
117.64193671
 20
9.5934938
 10
117.72412727
 20
9.64521487
 10
117.80511886
 20
9.70203457
 10
117.88474361
 20
9.76383514
 10
117.96283652
 20
9.83048849
 10
118.03923572
 20
9.9018565
 10
118.11378289
 20
9.97779125
 10
118.18632353
 20
10.05813536
 10
118.25670729
 20
10.14272233
 10
118.32478831
 20
10.23137684
 10
118.39042548
 20
10.32391517
 10
118.45348278
 20
10.42014552
 10
118.51382952
 20
10.51986846
 10
118.57134064
 20
10.62287731
 10
118.62589693
 20
10.7289586
 10
118.67738534
 20
10.83789246
 10
118.72569915
 20
10.94945313
 10
118.77073823
 20
11.06340941
 10
118.81240925
 20
11.17952511
 10
118.85062583
 20
11.29755959
 10
118.88530877
 20
11.41726823
 10
118.9163862
 20
11.53840293
 10
118.94379371
 20
11.66071264
 10
118.96747449
 20
11.78394386
1001
GRPNAME
1000
PASTMD0K
  0
LWPOLYLINE
  5
13C3
330
1152
100
AcDbEntity
  8
241
  6
CONTINUOUS
100
AcDbPolyline
 90
       70
 70
     0
 43
0.0
 10
118.96747449
 20
11.78394386
 10
118.98139941
 20
11.8739654
 10
118.99151939
 20
11.96446611
 10
118.99781346
 20
12.05525841
 10
119.00026857
 20
12.14615413
 10
118.99887964
 20
12.23696488
 10
118.99364953
 20
12.32750244
 10
118.98458909
 20
12.41757917
 10
118.9717171
 20
12.50700837
 10
118.95506024
 20
12.59560469
 10
118.93465302
 20
12.68318451
 10
118.91053776
 20
12.76956631
 10
118.88276442
 20
12.85457105
 10
118.85139057
 20
12.93802255
 10
118.81648124
 20
13.01974784
 10
118.77810878
 20
13.09957756
 10
118.73635273
 20
13.17734623
 10
118.69129961
 20
13.25289268
 10
118.64304282
 20
13.32606032
 10
118.59168237
 20
13.39669752
 10
118.5373247
 20
13.46465786
 10
118.48008249
 20
13.5298005
 10
118.42007437
 20
13.59199041
 10
118.35742471
 20
13.6510987
 10
118.29226336
 20
13.70700287
 10
118.22472539
 20
13.75958705
 10
118.15495075
 20
13.80874225
 10
118.08308408
 20
13.85436659
 10
118.00927432
 20
13.8963655
 10
117.93367445
 20
13.93465196
 10
117.85644116
 20
13.96914659
 10
117.77773452
 20
13.99977791
 10
117.69771767
 20
14.02648243
 10
117.61655643
 20
14.0492048
 10
117.53441904
 20
14.06789793
 10
117.45147572
 20
14.08252308
 10
117.3678984
 20
14.09304992
 10
117.28386027
 20
14.09945665
 10
117.19953554
 20
14.10172999
 10
117.11509897
 20
14.09986522
 10
117.03072555
 20
14.09386621
 10
116.94659018
 20
14.08374539
 10
116.86286721
 20
14.06952374
 10
116.77973019
 20
14.05123074
 10
116.69735141
 20
14.02890429
 10
116.61590163
 20
14.00259068
 10
116.53554964
 20
13.97234443
 10
116.45646199
 20
13.93822825
 10
116.3788026
 20
13.90031283
 10
116.30273242
 20
13.85867677
 10
116.22840912
 20
13.81340635
 10
116.15598673
 20
13.76459541
 10
116.08561537
 20
13.71234511
 10
116.01744089
 20
13.65676374
 10
115.95160457
 20
13.59796651
 10
115.88824289
 20
13.53607527
 10
115.82748715
 20
13.47121831
 10
115.76946328
 20
13.40353004
 10
115.71429155
 20
13.33315075
 10
115.6620863
 20
13.26022632
 10
115.61295573
 20
13.18490789
 10
115.56700167
 20
13.10735156
 10
115.52431937
 20
13.02771808
 10
115.48499729
 20
12.9461725
 10
115.44911692
 20
12.86288382
 10
115.41675264
 20
12.77802467
 10
115.38797152
 20
12.69177094
 10
115.36283322
 20
12.60430138
 10
115.34138983
 20
12.5157973
 10
115.3236858
 20
12.42644212
1001
GRPNAME
1000
PASTMD0K
  0
LINE
  5
13C4
330
1152
100
AcDbEntity
  8
245
  6
CENTER2
100
AcDbLine
 10
-64.4939444
 20
0.0
 30
0.0
 11
122.9060556
 21
0.0
 31
0.0
1001
GRPNAME
1000
PASTMD06
  0
LINE
  5
13C5
330
1152
100
AcDbEntity
  8
241
  6
CONTINUOUS
100
AcDbLine
 10
98.14171631
 20
-6.64105525
 30
0.0
 11
121.3060556
 21
-16.70898033
 31
0.0
1001
GRPNAME
1000
PASTMD0K
  0
LINE
  5
13C6
330
1152
100
AcDbEntity
  8
240
  6
CONTINUOUS
100
AcDbLine
 10
121.3060556
 20
-19.3
 30
0.0
 11
110.00605563
 21
-19.6
 31
0.0
1001
GRPNAME
1000
PASTMD0K
  0
LINE
  5
13C7
330
1152
100
AcDbEntity
  8
240
  6
CONTINUOUS
100
AcDbLine
 10
121.3060556
 20
19.3
 30
0.0
 11
110.00605563
 21
19.6
 31
0.0
1001
GRPNAME
1000
PASTMD0K
  0
LINE
  5
13C8
330
1152
100
AcDbEntity
  8
241
  6
CONTINUOUS
100
AcDbLine
 10
110.49654979
 20
3.7088098
 30
0.0
 11
121.29275692
 21
1.8051472
 31
0.0
1001
GRPNAME
1000
PASTMD0K
  0
LINE
  5
13C9
330
1152
100
AcDbEntity
  8
241
  6
CONTINUOUS
100
AcDbLine
 10
109.0111802
 20
0.66335082
 30
0.0
 11
121.3060556
 21
-3.81161786
 31
0.0
1001
GRPNAME
1000
PASTMD0K
  0
ARC
  5
13CA
330
1152
100
AcDbEntity
  8
240
  6
CONTINUOUS
100
AcDbCircle
 10
3.9060556
 20
-30.5
 30
0.0
 40
1.0
100
AcDbArc
 50
180.0
 51
270.0
  0
LINE
  5
13CB
330
1152
100
AcDbEntity
  8
241
  6
HIDDEN2
100
AcDbLine
 10
24.9060556
 20
-22.5
 30
0.0
 11
2.9060556
 21
-22.5
 31
0.0
  0
LINE
  5
13CC
330
1152
100
AcDbEntity
  8
241
  6
HIDDEN2
100
AcDbLine
 10
24.9060556
 20
22.5
 30
0.0
 11
2.9060556
 21
22.5
 31
0.0
  0
ARC
  5
13CD
330
1152
100
AcDbEntity
  8
240
  6
CONTINUOUS
100
AcDbCircle
 10
3.9060556
 20
30.5
 30
0.0
 40
1.0
100
AcDbArc
 50
90.0
 51
180.0
  0
LINE
  5
13CE
330
1152
100
AcDbEntity
  8
240
  6
CONTINUOUS
100
AcDbLine
 10
1.9060556
 20
22.225
 30
0.0
 11
-62.12483543
 21
12.88716173
 31
0.0
  0
LINE
  5
13CF
330
1152
100
AcDbEntity
  8
241
100
AcDbLine
 10
2.9060556
 20
0.0
 30
0.0
 11
2.9060556
 21
22.225
 31
0.0
  0
LINE
  5
13D0
330
1152
100
AcDbEntity
  8
241
  6
CONTINUOUS
100
AcDbLine
 10
1.9060556
 20
22.225
 30
0.0
 11
1.9060556
 21
0.0
 31
0.0
  0
LINE
  5
13D1
330
1152
100
AcDbEntity
  8
240
  6
CONTINUOUS
100
AcDbLine
 10
1.9060556
 20
-22.225
 30
0.0
 11
-62.12483543
 21
-12.88716173
 31
0.0
  0
LINE
  5
13D2
330
1152
100
AcDbEntity
  8
240
  6
CONTINUOUS
100
AcDbLine
 10
-63.4939444
 20
-11.30390896
 30
0.0
 11
-63.4939444
 21
0.0
 31
0.0
  0
ARC
  5
13D3
330
1152
100
AcDbEntity
  8
240
  6
CONTINUOUS
100
AcDbCircle
 10
-61.8939444
 20
-11.30390896
 30
0.0
 40
1.6
100
AcDbArc
 50
180.0
 51
261.70285503
  0
LINE
  5
13D4
330
1152
100
AcDbEntity
  8
240
  6
CONTINUOUS
100
AcDbLine
 10
-63.4939444
 20
11.30390896
 30
0.0
 11
-63.4939444
 21
0.0
 31
0.0
  0
ARC
  5
13D5
330
1152
100
AcDbEntity
  8
240
  6
CONTINUOUS
100
AcDbCircle
 10
-61.8939444
 20
11.30390896
 30
0.0
 40
1.6
100
AcDbArc
 50
98.29714497
 51
180.0
  0
LINE
  5
13D6
330
1152
100
AcDbEntity
  8
240
  6
CONTINUOUS
100
AcDbLine
 10
2.9060556
 20
-22.225
 30
0.0
 11
2.9060556
 21
-30.5
 31
0.0
  0
LINE
  5
13D7
330
1152
100
AcDbEntity
  8
241
100
AcDbLine
 10
2.9060556
 20
0.0
 30
0.0
 11
2.9060556
 21
-22.225
 31
0.0
  0
LINE
  5
13D8
330
1152
100
AcDbEntity
  8
241
  6
CONTINUOUS
100
AcDbLine
 10
1.9060556
 20
-22.225
 30
0.0
 11
1.9060556
 21
0.0
 31
0.0
  0
LINE
  5
13D9
330
1152
100
AcDbEntity
  8
240
100
AcDbLine
 10
1.9060556
 20
-22.225
 30
0.0
 11
2.9060556
 21
-22.225
 31
0.0
  0
LINE
  5
13DA
330
1152
100
AcDbEntity
  8
240
  6
CONTINUOUS
100
AcDbLine
 10
2.9060556
 20
22.225
 30
0.0
 11
2.9060556
 21
30.5
 31
0.0
  0
LINE
  5
13DB
330
1152
100
AcDbEntity
  8
240
100
AcDbLine
 10
1.9060556
 20
22.225
 30
0.0
 11
2.9060556
 21
22.225
 31
0.0
  0
LINE
  5
13DC
330
1152
100
AcDbEntity
  8
241
  6
CONTINUOUS
100
AcDbLine
 10
56.9060556
 20
0.0
 30
0.0
 11
56.9060556
 21
19.4
 31
0.0
1001
GRPNAME
1000
PASTMD02
  0
LINE
  5
13DD
330
1152
100
AcDbEntity
  8
245
  6
CENTER2
100
AcDbLine
 10
18.5060556
 20
-31.5
 30
0.0
 11
18.5060556
 21
31.5
 31
0.0
  0
LINE
  5
13DE
330
1152
100
AcDbEntity
  8
241
  6
CONTINUOUS
100
AcDbLine
 10
23.5060556
 20
0.0
 30
0.0
 11
23.5060556
 21
31.5
 31
0.0
  0
LINE
  5
13DF
330
1152
100
AcDbEntity
  8
241
  6
CONTINUOUS
100
AcDbLine
 10
20.61930425
 20
26.5
 30
0.0
 11
20.61930425
 21
0.0
 31
0.0
  0
LINE
  5
13E0
330
1152
100
AcDbEntity
  8
241
  6
CONTINUOUS
100
AcDbLine
 10
16.39280695
 20
26.5
 30
0.0
 11
16.39280695
 21
0.0
 31
0.0
  0
LINE
  5
13E1
330
1152
100
AcDbEntity
  8
241
  6
CONTINUOUS
100
AcDbLine
 10
13.5060556
 20
31.5
 30
0.0
 11
13.5060556
 21
0.0
 31
0.0
  0
LINE
  5
13E2
330
1152
100
AcDbEntity
  8
241
  6
CONTINUOUS
100
AcDbLine
 10
28.9060556
 20
0.0
 30
0.0
 11
28.9060556
 21
29.0
 31
0.0
  0
LINE
  5
13E3
330
1152
100
AcDbEntity
  8
240
  6
CONTINUOUS
100
AcDbLine
 10
109.25964542
 20
-19.4
 30
0.0
 11
58.05965182
 21
-19.4
 31
0.0
1001
GRPNAME
1000
PASTMD0K
  0
ARC
  5
13E4
330
1152
100
AcDbEntity
  8
240
  6
CONTINUOUS
100
AcDbCircle
 10
73.55902104
 20
-168.47272971
 30
0.0
 40
150.0
100
AcDbArc
 50
96.84743008
 51
105.8707807
1001
GRPNAME
1000
PASTMD02
  0
ARC
  5
13E5
330
1152
100
AcDbEntity
  8
240
  6
CONTINUOUS
100
AcDbCircle
 10
33.9060556
 20
-29.0
 30
0.0
 40
5.00000000000249
100
AcDbArc
 50
105.87078108
 51
180.00000002
1001
GRPNAME
1000
PASTMD02
  0
LINE
  5
13E6
330
1152
100
AcDbEntity
  8
241
  6
CONTINUOUS
100
AcDbLine
 10
16.39280695
 20
-26.5
 30
0.0
 11
16.39280695
 21
0.0
 31
0.0
  0
LINE
  5
13E7
330
1152
100
AcDbEntity
  8
241
  6
CONTINUOUS
100
AcDbLine
 10
20.61930425
 20
-26.5
 30
0.0
 11
20.61930425
 21
0.0
 31
0.0
  0
LINE
  5
13E8
330
1152
100
AcDbEntity
  8
241
  6
CONTINUOUS
100
AcDbLine
 10
23.5060556
 20
0.0
 30
0.0
 11
23.5060556
 21
-31.5
 31
0.0
  0
LINE
  5
13E9
330
1152
100
AcDbEntity
  8
241
  6
CONTINUOUS
100
AcDbLine
 10
13.5060556
 20
-31.5
 30
0.0
 11
13.5060556
 21
0.0
 31
0.0
  0
LINE
  5
13EA
330
1152
100
AcDbEntity
  8
241
  6
HIDDEN2
100
AcDbLine
 10
24.9060556
 20
-22.5
 30
0.0
 11
24.9060556
 21
-31.5
 31
0.0
  0
LINE
  5
13EB
330
1152
100
AcDbEntity
  8
241
  6
CONTINUOUS
100
AcDbLine
 10
28.9060556
 20
0.0
 30
0.0
 11
28.9060556
 21
-29.0
 31
0.0
  0
LINE
  5
13EC
330
1152
100
AcDbEntity
  8
240
  6
CONTINUOUS
100
AcDbLine
 10
20.61930425
 20
-26.5
 30
0.0
 11
16.39280695
 21
-26.5
 31
0.0
  0
LINE
  5
13ED
330
1152
100
AcDbEntity
  8
240
  6
CONTINUOUS
100
AcDbLine
 10
3.9060556
 20
-31.5
 30
0.0
 11
13.5060556
 21
-31.5
 31
0.0
  0
LINE
  5
13EE
330
1152
100
AcDbEntity
  8
240
  6
CONTINUOUS
100
AcDbLine
 10
16.39280695
 20
-26.5
 30
0.0
 11
13.5060556
 21
-31.5
 31
0.0
  0
LINE
  5
13EF
330
1152
100
AcDbEntity
  8
240
  6
CONTINUOUS
100
AcDbLine
 10
23.5060556
 20
-31.5
 30
0.0
 11
27.9060556
 21
-31.5
 31
0.0
  0
LINE
  5
13F0
330
1152
100
AcDbEntity
  8
240
  6
CONTINUOUS
100
AcDbLine
 10
20.61930425
 20
-26.5
 30
0.0
 11
23.5060556
 21
-31.5
 31
0.0
  0
ARC
  5
13F1
330
1152
100
AcDbEntity
  8
240
  6
CONTINUOUS
100
AcDbCircle
 10
27.9060556
 20
-30.5
 30
0.0
 40
1.0
100
AcDbArc
 50
270.0
 51
0.0
  0
LINE
  5
13F2
330
1152
100
AcDbEntity
  8
240
  6
CONTINUOUS
100
AcDbLine
 10
28.9060556
 20
-30.5
 30
0.0
 11
28.9060556
 21
-29.0
 31
0.0
  0
LINE
  5
13F3
330
1152
100
AcDbEntity
  8
241
  6
CONTINUOUS
100
AcDbLine
 10
56.9060556
 20
0.0
 30
0.0
 11
56.9060556
 21
-19.4
 31
0.0
1001
GRPNAME
1000
PASTMD02
  0
ARC
  5
13F4
330
1152
100
AcDbEntity
  8
240
  6
CONTINUOUS
100
AcDbCircle
 10
58.05965182
 20
-39.4
 30
0.0
 40
20.0
100
AcDbArc
 50
90.0
 51
96.84742987
1001
GRPNAME
1000
PASTMD02
  0
ARC
  5
13F5
330
1152
100
AcDbEntity
  8
241
  6
CONTINUOUS
100
AcDbCircle
 10
100.0212229
 20
-2.3166758
 30
0.0
 40
4.715167294982752
100
AcDbArc
 50
79.99999997
 51
246.5087536
1001
GRPNAME
1000
PASTMD0K
  0
LINE
  5
13F6
330
1152
100
AcDbEntity
  8
240
  6
CONTINUOUS
100
AcDbLine
 10
109.25964542
 20
-19.4
 30
0.0
 11
110.00605563
 21
-19.6
 31
0.0
1001
GRPNAME
1000
PASTMD0K
  0
LINE
  5
13F7
330
1152
100
AcDbEntity
  8
241
  6
CONTINUOUS
100
AcDbLine
 10
100.8400031
 20
2.32685751
 30
0.0
 11
109.11120024
 21
0.86842229
 31
0.0
1001
GRPNAME
1000
PASTMD0K
  0
LINE
  5
13F8
330
1152
100
AcDbEntity
  8
241
  6
CONTINUOUS
100
AcDbLine
 10
110.49654979
 20
3.7088098
 30
0.0
 11
109.0111802
 21
0.66335082
 31
0.0
1001
GRPNAME
1000
PASTMD0K
  0
LINE
  5
13F9
330
1152
100
AcDbEntity
  8
240
  6
CONTINUOUS
100
AcDbLine
 10
109.25964542
 20
19.4
 30
0.0
 11
58.05965182
 21
19.4
 31
0.0
1001
GRPNAME
1000
PASTMD0K
  0
ARC
  5
13FA
330
1152
100
AcDbEntity
  8
240
  6
CONTINUOUS
100
AcDbCircle
 10
33.9060556
 20
29.0
 30
0.0
 40
5.000000000002471
100
AcDbArc
 50
179.99999997
 51
254.12921891
1001
GRPNAME
1000
PASTMD02
  0
LINE
  5
13FB
330
1152
100
AcDbEntity
  8
240
  6
CONTINUOUS
100
AcDbLine
 10
20.61930425
 20
26.5
 30
0.0
 11
16.39280695
 21
26.5
 31
0.0
  0
LINE
  5
13FC
330
1152
100
AcDbEntity
  8
240
  6
CONTINUOUS
100
AcDbLine
 10
3.9060556
 20
31.5
 30
0.0
 11
13.5060556
 21
31.5
 31
0.0
  0
LINE
  5
13FD
330
1152
100
AcDbEntity
  8
240
  6
CONTINUOUS
100
AcDbLine
 10
13.5060556
 20
31.5
 30
0.0
 11
16.39280695
 21
26.5
 31
0.0
  0
LINE
  5
13FE
330
1152
100
AcDbEntity
  8
241
  6
HIDDEN2
100
AcDbLine
 10
24.9060556
 20
22.5
 30
0.0
 11
24.9060556
 21
31.5
 31
0.0
  0
LINE
  5
13FF
330
1152
100
AcDbEntity
  8
240
  6
CONTINUOUS
100
AcDbLine
 10
23.5060556
 20
31.5
 30
0.0
 11
27.9060556
 21
31.5
 31
0.0
  0
LINE
  5
1400
330
1152
100
AcDbEntity
  8
240
  6
CONTINUOUS
100
AcDbLine
 10
23.5060556
 20
31.5
 30
0.0
 11
20.61930425
 21
26.5
 31
0.0
  0
ARC
  5
1401
330
1152
100
AcDbEntity
  8
240
  6
CONTINUOUS
100
AcDbCircle
 10
27.9060556
 20
30.5
 30
0.0
 40
1.0
100
AcDbArc
 50
0.0
 51
90.0
  0
LINE
  5
1402
330
1152
100
AcDbEntity
  8
240
  6
CONTINUOUS
100
AcDbLine
 10
28.9060556
 20
30.5
 30
0.0
 11
28.9060556
 21
29.0
 31
0.0
  0
ARC
  5
1403
330
1152
100
AcDbEntity
  8
240
  6
CONTINUOUS
100
AcDbCircle
 10
73.55902104
 20
168.47272971
 30
0.0
 40
150.0
100
AcDbArc
 50
254.12921891
 51
263.1525698
1001
GRPNAME
1000
PASTMD02
  0
ARC
  5
1404
330
1152
100
AcDbEntity
  8
240
  6
CONTINUOUS
100
AcDbCircle
 10
58.05965182
 20
39.4
 30
0.0
 40
19.99999999999998
100
AcDbArc
 50
263.15256981
 51
269.99991866
1001
GRPNAME
1000
PASTMD02
  0
LINE
  5
1405
330
1152
100
AcDbEntity
  8
240
  6
CONTINUOUS
100
AcDbLine
 10
109.25964542
 20
19.4
 30
0.0
 11
110.00605563
 21
19.6
 31
0.0
1001
GRPNAME
1000
PASTMD0K
  0
LINE
  5
1406
330
1152
100
AcDbEntity
  8
246
100
AcDbLine
 10
121.9060556
 20
20.0
 30
0.0
 11
121.9060556
 21
-20.0
 31
0.0
1001
GRPNAME
1000
PASTMD0K
  0
LINE
  5
1407
330
1152
100
AcDbEntity
  8
240
  6
CONTINUOUS
100
AcDbLine
 10
121.3060556
 20
1.80280228
 30
0.0
 11
121.3060556
 21
19.3
 31
0.0
1001
GRPNAME
1000
PASTMD0K
  0
LINE
  5
1408
330
1152
100
AcDbEntity
  8
240
  6
CONTINUOUS
100
AcDbLine
 10
121.3060556
 20
-19.3
 30
0.0
 11
121.3060556
 21
-3.81161786
 31
0.0
1001
GRPNAME
1000
PASTMD0K
  0
LINE
  5
1409
330
1152
100
AcDbEntity
  8
240
  6
CONTINUOUS
100
AcDbLine
 10
121.29275692
 20
1.8051472
 30
0.0
 11
121.9060556
 21
-4.03
 31
0.0
1001
GRPNAME
1000
PASTMD0K
  0
LINE
  5
140A
330
1152
100
AcDbEntity
  8
240
  6
CONTINUOUS
100
AcDbLine
 10
121.9060556
 20
-4.03
 30
0.0
 11
121.3060556
 21
-3.81161786
 31
0.0
1001
GRPNAME
1000
PASTMD0K
  0
LINE
  5
140B
330
1152
100
AcDbEntity
  8
240
  6
CONTINUOUS
100
AcDbLine
 10
121.3060556
 20
1.80280228
 30
0.0
 11
121.29275692
 21
1.8051472
 31
0.0
1001
GRPNAME
1000
PASTMD0K
  0
ENDBLK
  5
1154
330
1152
100
AcDbEntity
  8
0
100
AcDbBlockEnd
  0
ENDSEC
  0
SECTION
  2
ENTITIES
  0
DIMENSION
  5
F90
330
1A
100
AcDbEntity
  8
250
  6
CONTINUOUS
100
AcDbDimension
  2
*D1
 10
121.9060556
 20
49.0
 30
0.0
 11
61.9060556
 21
49.0
 31
0.0
 70
   160
  3
BIGT
100
AcDbAlignedDimension
 13
1.9060556
 23
22.225
 33
0.0
 14
121.9060556
 24
20.0
 34
0.0
100
AcDbRotatedDimension
1001
ACAD
1000
DSTYLE
1002
{
1070
    78
1070
     8
1070
   140
1040
3.0
1002
}
  0
TEXT
  5
F94
330
1A
100
AcDbEntity
  8
241
100
AcDbText
 10
-63.4939444
 20
63.0
 30
0.0
 40
5.0
  1
BBT40-FCM40114-120
  7
YOKO
 11
-63.4939444
 21
63.0
 31
0.0
100
AcDbText
 73
     1
  0
DIMENSION
  5
F96
330
1A
100
AcDbEntity
  8
250
  6
CONTINUOUS
100
AcDbDimension
  2
*D2
 10
133.0
 20
20.0
 30
0.0
 11
133.0
 21
0.0
 31
0.0
 70
   160
  1
{\H3;\U+2205}<>
  3
BIGT
100
AcDbAlignedDimension
 13
121.9060556
 23
-20.0
 33
0.0
 14
121.9060556
 24
20.0
 34
0.0
 50
90.0
100
AcDbRotatedDimension
1001
ACAD
1000
DSTYLE
1002
{
1070
    78
1070
     8
1070
   140
1040
3.0
1002
}
  0
DIMENSION
  5
F98
330
1A
100
AcDbEntity
  8
250
  6
CONTINUOUS
100
AcDbDimension
  2
*D3
 10
121.9060556
 20
42.0
 30
0.0
 11
89.4060556
 21
42.0
 31
0.0
 70
   160
  3
BIGT
100
AcDbAlignedDimension
 13
56.9060556
 23
19.43329732
 33
0.0
 14
121.9060556
 24
20.0
 34
0.0
100
AcDbRotatedDimension
1001
ACAD
1000
DSTYLE
1002
{
1070
    78
1070
     8
1070
   140
1040
3.0
1002
}
  0
DIMENSION
  5
110D
330
1A
100
AcDbEntity
  8
250
  6
CONTINUOUS
100
AcDbDimension
  2
*D4
 10
121.9060556
 20
35.0
 30
0.0
 11
116.4060556
 21
37.75
 31
0.0
 70
    32
  3
BIGT
100
AcDbAlignedDimension
 13
110.9060556
 23
20.0
 33
0.0
 14
121.9060556
 24
20.0
 34
0.0
100
AcDbRotatedDimension
  0
LEADER
  5
12A0
330
1A
100
AcDbEntity
  8
250
  6
CONTINUOUS
100
AcDbLeader
  3
BIGT
 76
     2
 10
-24.73836521
 20
-18.3393553
 30
0.0
 10
-30.5523415
 20
-28.40945762
 30
0.0
1001
ACAD
1000
DSTYLE
1002
{
1070
     5
1000
OPEN
1070
   342
1005
594
1070
   343
1005
594
1002
}
  0
MTEXT
  5
12A1
330
1A
100
AcDbEntity
  8
250
  6
CONTINUOUS
 62
    40
100
AcDbMText
 10
-45.48567484
 20
-27.40945762
 30
0.0
 40
2.8
 41
0.0
 71
     7
 72
     1
  1
BBT40
  7
YOKO
1001
ITEMNAME
1000
LNSP3
1001
ACAD
1000
MTEXTBEGIN
1070
    73
1070
     1
1070
    44
1040
1.0
1070
    74
1070
     0
1000
MTEXTEND
1000
MTEXTBEGIN
1070
    73
1070
     1
1070
    44
1040
1.0
1070
    74
1070
     0
1000
MTEXTEND
1000
MTEXTBEGIN
1070
    73
1070
     1
1070
    44
1040
1.0
1070
    74
1070
     0
1000
MTEXTEND
  0
LINE
  5
12A4
330
1A
100
AcDbEntity
  8
250
  6
CONTINUOUS
100
AcDbLine
 10
-30.5523415
 20
-28.40945762
 30
0.0
 11
-48.28567484
 21
-28.40945762
 31
0.0
1001
ITEMNAME
1000
LNSP2
  0
INSERT
  5
140C
330
1A
100
AcDbEntity
  8
240
100
AcDbBlockReference
  2
1
 10
0.0
 20
0.0
 30
0.0
  0
VIEWPORT
  5
22
330
17
100
AcDbEntity
 67
     1
  8
0
100
AcDbViewport
 10
261.51769912
 20
148.5
 30
0.0
 40
523.03539823
 41
297.0
 68
     1
 69
     1
1001
ACAD
1000
MVIEW
1002
{
1070
    16
1010
0.0
1020
0.0
1030
0.0
1010
0.0
1020
0.0
1030
1.0
1040
0.0
1040
297.0
1040
261.51769912
1040
148.5
1040
50.0
1040
0.0
1040
0.0
1070
     0
1070
   100
1070
     1
1070
     1
1070
     0
1070
     0
1070
     0
1070
     0
1040
0.0
1040
0.0
1040
0.0
1040
1.0
1040
1.0
1040
10.0
1040
10.0
1070
     0
1002
{
1002
}
1002
}
  0
ENDSEC
  0
SECTION
  2
OBJECTS
  0
DICTIONARY
  5
C
330
0
100
AcDbDictionary
  3
ACAD_GROUP
350
D
  3
ACAD_LAYOUT
350
565
  3
ACAD_MLINESTYLE
350
E
  3
ACAD_PLOTSETTINGS
350
566
  3
ACAD_PLOTSTYLENAME
350
563
  3
ACDBHEADERROUNDTRIPXREC
350
1435
  3
ACDBVARIABLEDICTIONARY
350
101C
  3
GRADE_DWG
350
540
  0
DICTIONARY
  5
1047
330
1A
100
AcDbDictionary
280
     1
  3
ACAD_LAYOUTSELFREF
360
1457
  0
DICTIONARY
  5
1045
330
17
100
AcDbDictionary
280
     1
  3
ACAD_LAYOUTSELFREF
360
1456
  0
DICTIONARY
  5
D
102
{ACAD_REACTORS
330
C
102
}
330
C
100
AcDbDictionary
  3
ASTMD01-1
350
915
  3
ASTMD02-1
350
DC9
  3
ASTMD06-1
350
913
  3
ASTMD0K-1
350
919
  3
DREC-1
350
5FC
  3
DREC-2
350
654
  3
DREC-3
350
673
  3
LNSP-1
350
A3F
  3
M100001-1
350
91D
  3
M100002-1
350
91B
  3
M100009-1
350
917
  0
DICTIONARY
  5
565
102
{ACAD_REACTORS
330
C
102
}
330
C
100
AcDbDictionary
  0
DICTIONARY
  5
E
102
{ACAD_REACTORS
330
C
102
}
330
C
100
AcDbDictionary
  3
STANDARD
350
13
  0
DICTIONARY
  5
566
102
{ACAD_REACTORS
330
C
102
}
330
C
100
AcDbDictionary
  0
ACDBDICTIONARYWDFLT
  5
563
102
{ACAD_REACTORS
330
C
102
}
330
C
100
AcDbDictionary
281
     1
  3
Normal
350
564
100
AcDbDictionaryWithDefault
340
564
  0
DICTIONARY
  5
1435
102
{ACAD_REACTORS
330
C
102
}
330
C
100
AcDbDictionary
  3
CEPSNTYPE
350
143F
  3
DIMSTYLEDATA
350
1443
  3
FINGERPRINTGUID
350
1440
  3
HYPERLINKBASE
350
1438
  3
INSUNITS
350
143E
  3
LAYOUTDICT
350
143A
  3
LWETCUNION
350
143D
  3
PLOTSETDICT
350
143B
  3
PLOTSTYLNAMDICT
350
143C
  3
PSVPSCALE
350
1442
  3
PUCSBASE
350
1446
  3
PUCSORGBACK
350
144C
  3
PUCSORGBOTTOM
350
1448
  3
PUCSORGFRONT
350
144B
  3
PUCSORGLEFT
350
1449
  3
PUCSORGRIGHT
350
144A
  3
PUCSORGTOP
350
1447
  3
PUCSORTHOREF
350
1444
  3
PUCSORTHOVIEW
350
1445
  3
STYLESHEET
350
1439
  3
TSTACKALIGN
350
1436
  3
TSTACKSIZE
350
1437
  3
UCSBASE
350
144F
  3
UCSORGBACK
350
1455
  3
UCSORGBOTTOM
350
1451
  3
UCSORGFRONT
350
1454
  3
UCSORGLEFT
350
1452
  3
UCSORGRIGHT
350
1453
  3
UCSORGTOP
350
1450
  3
UCSORTHOREF
350
144D
  3
UCSORTHOVIEW
350
144E
  3
VERSIONGUID
350
1441
  0
DICTIONARY
  5
101C
102
{ACAD_REACTORS
330
C
102
}
330
C
100
AcDbDictionary
  3
DIMASSOC
350
101D
  0
DICTIONARY
  5
540
102
{ACAD_REACTORS
330
C
102
}
330
C
100
AcDbDictionary
  3
VERSION
350
560
  0
XRECORD
  5
1457
102
{ACAD_REACTORS
330
1047
102
}
330
1047
100
AcDbXrecord
340
1A
  0
XRECORD
  5
1456
102
{ACAD_REACTORS
330
1045
102
}
330
1045
100
AcDbXrecord
340
17
  0
GROUP
  5
915
102
{ACAD_REACTORS
330
D
102
}
330
D
100
AcDbGroup
300

 70
     0
 71
     1
1001
GRPNAME
1000
PASTMD01
  0
GROUP
  5
DC9
102
{ACAD_REACTORS
330
D
102
}
330
D
100
AcDbGroup
300

 70
     0
 71
     1
1001
GRPNAME
1000
PASTMD02
  0
GROUP
  5
913
102
{ACAD_REACTORS
330
D
102
}
330
D
100
AcDbGroup
300

 70
     0
 71
     1
1001
GRPNAME
1000
PASTMD06
  0
GROUP
  5
919
102
{ACAD_REACTORS
330
D
102
}
330
D
100
AcDbGroup
300

 70
     0
 71
     1
1001
GRPNAME
1000
PASTMD0K
  0
GROUP
  5
5FC
102
{ACAD_REACTORS
330
D
102
}
330
D
100
AcDbGroup
300

 70
     0
 71
     1
1001
GRPNAME
1000
DREC-
1001
GPARA
1000
xsiz
1000
44.182
1000
ysiz
1000
40.677
1000
angl
1000
0
1000
ctyp
1000
0
1000
csiz
1000
5
1000
lfnt
1000
cont
1000
hcnt
1000
hoff
1000
vcnt
1000
voff
1000
opnt
1000
4
1000
dxpt
1000
0
1000
dypt
1000
0
  0
GROUP
  5
654
102
{ACAD_REACTORS
330
D
102
}
330
D
100
AcDbGroup
300

 70
     0
 71
     1
1001
GRPNAME
1000
DREC-
1001
GPARA
1000
xsiz
1000
54.592
1000
ysiz
1000
53.036
1000
angl
1000
0
1000
ctyp
1000
0
1000
csiz
1000
5
1000
lfnt
1000
cont
1000
hcnt
1000
hoff
1000
vcnt
1000
voff
1000
opnt
1000
4
1000
dxpt
1000
0
1000
dypt
1000
0
  0
GROUP
  5
673
102
{ACAD_REACTORS
330
D
102
}
330
D
100
AcDbGroup
300

 70
     0
 71
     1
1001
GRPNAME
1000
DREC-
1001
GPARA
1000
xsiz
1000
30.363
1000
ysiz
1000
36.175
1000
angl
1000
0
1000
ctyp
1000
0
1000
csiz
1000
5
1000
lfnt
1000
cont
1000
hcnt
1000
hoff
1000
vcnt
1000
voff
1000
opnt
1000
4
1000
dxpt
1000
0
1000
dypt
1000
0
  0
GROUP
  5
A3F
102
{ACAD_REACTORS
330
D
102
}
330
D
100
AcDbGroup
300

 70
     0
 71
     1
1001
GRPNAME
1000
LNSP
  0
GROUP
  5
91D
102
{ACAD_REACTORS
330
D
102
}
330
D
100
AcDbGroup
300

 70
     0
 71
     1
1001
GRPNAME
1000
DM100001
  0
GROUP
  5
91B
102
{ACAD_REACTORS
330
D
102
}
330
D
100
AcDbGroup
300

 70
     0
 71
     1
1001
GRPNAME
1000
DM100002
  0
GROUP
  5
917
102
{ACAD_REACTORS
330
D
102
}
330
D
100
AcDbGroup
300

 70
     0
 71
     1
1001
GRPNAME
1000
DM100009
  0
MLINESTYLE
  5
13
102
{ACAD_REACTORS
330
E
102
}
330
E
100
AcDbMlineStyle
  2
STANDARD
 70
     0
  3

 62
     0
 51
90.0
 52
90.0
 71
     2
 49
0.5
 62
   256
  6
BYLAYER
 49
-0.5
 62
   256
  6
BYLAYER
  0
ACDBPLACEHOLDER
  5
564
102
{ACAD_REACTORS
330
563
102
}
330
563
100
AcDbPlaceHolder
280
     0
  0
XRECORD
  5
143F
102
{ACAD_REACTORS
330
1435
102
}
330
1435
100
AcDbXrecord
 90
        0
  0
XRECORD
  5
1443
102
{ACAD_REACTORS
330
1435
102
}
330
1435
100
AcDbXrecord
1000
DSTYLE
1002
{
1070
   341
340
594
1070
   342
340
594
1002
}
  0
XRECORD
  5
1440
102
{ACAD_REACTORS
330
1435
102
}
330
1435
100
AcDbXrecord
  1
{51294030-9CB4-11D3-8E18-00A0C925D94D}
  0
XRECORD
  5
1438
102
{ACAD_REACTORS
330
1435
102
}
330
1435
100
AcDbXrecord
  1

  0
XRECORD
  5
143E
102
{ACAD_REACTORS
330
1435
102
}
330
1435
100
AcDbXrecord
 90
        0
  0
XRECORD
  5
143A
102
{ACAD_REACTORS
330
1435
102
}
330
1435
100
AcDbXrecord
340
565
  0
XRECORD
  5
143D
102
{ACAD_REACTORS
330
1435
102
}
330
1435
100
AcDbXrecord
 90
    10781
  0
XRECORD
  5
143B
102
{ACAD_REACTORS
330
1435
102
}
330
1435
100
AcDbXrecord
340
566
  0
XRECORD
  5
143C
102
{ACAD_REACTORS
330
1435
102
}
330
1435
100
AcDbXrecord
340
563
  0
XRECORD
  5
1442
102
{ACAD_REACTORS
330
1435
102
}
330
1435
100
AcDbXrecord
 40
0.0
  0
XRECORD
  5
1446
102
{ACAD_REACTORS
330
1435
102
}
330
1435
100
AcDbXrecord
340
0
  0
XRECORD
  5
144C
102
{ACAD_REACTORS
330
1435
102
}
330
1435
100
AcDbXrecord
 10
0.0
 20
0.0
 30
0.0
  0
XRECORD
  5
1448
102
{ACAD_REACTORS
330
1435
102
}
330
1435
100
AcDbXrecord
 10
0.0
 20
0.0
 30
0.0
  0
XRECORD
  5
144B
102
{ACAD_REACTORS
330
1435
102
}
330
1435
100
AcDbXrecord
 10
0.0
 20
0.0
 30
0.0
  0
XRECORD
  5
1449
102
{ACAD_REACTORS
330
1435
102
}
330
1435
100
AcDbXrecord
 10
0.0
 20
0.0
 30
0.0
  0
XRECORD
  5
144A
102
{ACAD_REACTORS
330
1435
102
}
330
1435
100
AcDbXrecord
 10
0.0
 20
0.0
 30
0.0
  0
XRECORD
  5
1447
102
{ACAD_REACTORS
330
1435
102
}
330
1435
100
AcDbXrecord
 10
0.0
 20
0.0
 30
0.0
  0
XRECORD
  5
1444
102
{ACAD_REACTORS
330
1435
102
}
330
1435
100
AcDbXrecord
340
0
  0
XRECORD
  5
1445
102
{ACAD_REACTORS
330
1435
102
}
330
1435
100
AcDbXrecord
 70
     0
  0
XRECORD
  5
1439
102
{ACAD_REACTORS
330
1435
102
}
330
1435
100
AcDbXrecord
  1
big.ctb
  0
XRECORD
  5
1436
102
{ACAD_REACTORS
330
1435
102
}
330
1435
100
AcDbXrecord
 90
        1
  0
XRECORD
  5
1437
102
{ACAD_REACTORS
330
1435
102
}
330
1435
100
AcDbXrecord
 90
       70
  0
XRECORD
  5
144F
102
{ACAD_REACTORS
330
1435
102
}
330
1435
100
AcDbXrecord
340
0
  0
XRECORD
  5
1455
102
{ACAD_REACTORS
330
1435
102
}
330
1435
100
AcDbXrecord
 10
0.0
 20
0.0
 30
0.0
  0
XRECORD
  5
1451
102
{ACAD_REACTORS
330
1435
102
}
330
1435
100
AcDbXrecord
 10
0.0
 20
0.0
 30
0.0
  0
XRECORD
  5
1454
102
{ACAD_REACTORS
330
1435
102
}
330
1435
100
AcDbXrecord
 10
0.0
 20
0.0
 30
0.0
  0
XRECORD
  5
1452
102
{ACAD_REACTORS
330
1435
102
}
330
1435
100
AcDbXrecord
 10
0.0
 20
0.0
 30
0.0
  0
XRECORD
  5
1453
102
{ACAD_REACTORS
330
1435
102
}
330
1435
100
AcDbXrecord
 10
0.0
 20
0.0
 30
0.0
  0
XRECORD
  5
1450
102
{ACAD_REACTORS
330
1435
102
}
330
1435
100
AcDbXrecord
 10
0.0
 20
0.0
 30
0.0
  0
XRECORD
  5
144D
102
{ACAD_REACTORS
330
1435
102
}
330
1435
100
AcDbXrecord
340
0
  0
XRECORD
  5
144E
102
{ACAD_REACTORS
330
1435
102
}
330
1435
100
AcDbXrecord
 70
     0
  0
XRECORD
  5
1441
102
{ACAD_REACTORS
330
1435
102
}
330
1435
100
AcDbXrecord
  1
{FD7AC188-B1C3-430D-B8FA-5F8DFF5817A6}
  0
DICTIONARYVAR
  5
101D
102
{ACAD_REACTORS
330
101C
102
}
330
101C
100
DictionaryVariables
280
     0
  1
1
  0
XRECORD
  5
560
102
{ACAD_REACTORS
330
540
102
}
330
540
100
AcDbXrecord
  1
2.0.0
  0
ENDSEC
  0
EOF
