  0
SECTION
  2
HEADER
  9
$ACADVER
  1
AC1014
  9
$ACADMAINTVER
 70
     9
  9
$DWGCODEPAGE
  3
ANSI_932
  9
$INSBASE
 10
0.0
 20
0.0
 30
0.0
  9
$EXTMIN
 10
-66.41108924
 20
-31.71448253
 30
-0.00152582
  9
$EXTMAX
 10
99.02529664
 20
61.00580331
 30
0.00000003
  9
$LIMMIN
 10
0.0
 20
0.0
  9
$LIMMAX
 10
297.0
 20
210.0
  9
$ORTHOMODE
 70
     0
  9
$REGENMODE
 70
     1
  9
$FILLMODE
 70
     1
  9
$QTEXTMODE
 70
     0
  9
$MIRRTEXT
 70
     1
  9
$DRAGMODE
 70
     2
  9
$LTSCALE
 40
10.0
  9
$OSMODE
 70
   549
  9
$ATTMODE
 70
     1
  9
$TEXTSIZE
 40
3.0
  9
$TRACEWID
 40
1.0
  9
$TEXTSTYLE
  7
YOKO
  9
$CLAYER
  8
240
  9
$CELTYPE
  6
BYLAYER
  9
$CECOLOR
 62
   256
  9
$CELTSCALE
 40
1.0
  9
$DELOBJ
 70
     1
  9
$DISPSILH
 70
     0
  9
$DIMSCALE
 40
1.0
  9
$DIMASZ
 40
2.0
  9
$DIMEXO
 40
2.0
  9
$DIMDLI
 40
2.5
  9
$DIMRND
 40
0.0
  9
$DIMDLE
 40
0.0
  9
$DIMEXE
 40
2.0
  9
$DIMTP
 40
0.0
  9
$DIMTM
 40
0.0
  9
$DIMTXT
 40
4.0
  9
$DIMCEN
 40
0.0
  9
$DIMTSZ
 40
0.0
  9
$DIMTOL
 70
     0
  9
$DIMLIM
 70
     0
  9
$DIMTIH
 70
     0
  9
$DIMTOH
 70
     0
  9
$DIMSE1
 70
     0
  9
$DIMSE2
 70
     0
  9
$DIMTAD
 70
     3
  9
$DIMZIN
 70
     8
  9
$DIMBLK
  1
OPEN
  9
$DIMASO
 70
     1
  9
$DIMSHO
 70
     1
  9
$DIMPOST
  1

  9
$DIMAPOST
  1

  9
$DIMALT
 70
     0
  9
$DIMALTD
 70
     2
  9
$DIMALTF
 40
25.4
  9
$DIMLFAC
 40
1.0
  9
$DIMTOFL
 70
     1
  9
$DIMTVP
 40
0.0
  9
$DIMTIX
 70
     0
  9
$DIMSOXD
 70
     0
  9
$DIMSAH
 70
     0
  9
$DIMBLK1
  1

  9
$DIMBLK2
  1

  9
$DIMSTYLE
  2
BIGT
  9
$DIMCLRD
 70
   256
  9
$DIMCLRE
 70
   256
  9
$DIMCLRT
 70
    40
  9
$DIMTFAC
 40
1.0
  9
$DIMGAP
 40
1.0
  9
$DIMJUST
 70
     0
  9
$DIMSD1
 70
     0
  9
$DIMSD2
 70
     0
  9
$DIMTOLJ
 70
     1
  9
$DIMTZIN
 70
     8
  9
$DIMALTZ
 70
     0
  9
$DIMALTTZ
 70
     0
  9
$DIMFIT
 70
     3
  9
$DIMUPT
 70
     0
  9
$DIMUNIT
 70
     2
  9
$DIMDEC
 70
     3
  9
$DIMTDEC
 70
     3
  9
$DIMALTU
 70
     2
  9
$DIMALTTD
 70
     2
  9
$DIMTXSTY
  7
STANDARD
  9
$DIMAUNIT
 70
     0
  9
$LUNITS
 70
     2
  9
$LUPREC
 70
     3
  9
$SKETCHINC
 40
1.0
  9
$FILLETRAD
 40
1.6
  9
$AUNITS
 70
     0
  9
$AUPREC
 70
     3
  9
$MENU
  1
.
  9
$ELEVATION
 40
0.0
  9
$PELEVATION
 40
0.0
  9
$THICKNESS
 40
0.0
  9
$LIMCHECK
 70
     0
  9
$BLIPMODE
 70
     0
  9
$CHAMFERA
 40
10.0
  9
$CHAMFERB
 40
10.0
  9
$CHAMFERC
 40
0.0
  9
$CHAMFERD
 40
0.0
  9
$SKPOLY
 70
     0
  9
$TDCREATE
 40
2452356.673554143
  9
$TDUPDATE
 40
2455377.614892025
  9
$TDINDWG
 40
0.0765727894
  9
$TDUSRTIMER
 40
0.0765726157
  9
$USRTIMER
 70
     1
  9
$ANGBASE
 50
0.0
  9
$ANGDIR
 70
     0
  9
$PDMODE
 70
     1
  9
$PDSIZE
 40
-5.0
  9
$PLINEWID
 40
0.0
  9
$COORDS
 70
     0
  9
$SPLFRAME
 70
     0
  9
$SPLINETYPE
 70
     6
  9
$SPLINESEGS
 70
     8
  9
$ATTDIA
 70
     0
  9
$ATTREQ
 70
     1
  9
$HANDLING
 70
-16383
  9
$HANDSEED
  5
1253
  9
$SURFTAB1
 70
     6
  9
$SURFTAB2
 70
     6
  9
$SURFTYPE
 70
     6
  9
$SURFU
 70
     6
  9
$SURFV
 70
     6
  9
$UCSNAME
  2

  9
$UCSORG
 10
0.0
 20
0.0
 30
0.0
  9
$UCSXDIR
 10
1.0
 20
0.0
 30
0.0
  9
$UCSYDIR
 10
0.0
 20
1.0
 30
0.0
  9
$PUCSNAME
  2

  9
$PUCSORG
 10
0.0
 20
0.0
 30
0.0
  9
$PUCSXDIR
 10
1.0
 20
0.0
 30
0.0
  9
$PUCSYDIR
 10
0.0
 20
1.0
 30
0.0
  9
$USERI1
 70
     1
  9
$USERI2
 70
     0
  9
$USERI3
 70
     0
  9
$USERI4
 70
     0
  9
$USERI5
 70
     0
  9
$USERR1
 40
0.0
  9
$USERR2
 40
0.0
  9
$USERR3
 40
0.0
  9
$USERR4
 40
0.0
  9
$USERR5
 40
0.0
  9
$WORLDVIEW
 70
     1
  9
$SHADEDGE
 70
     3
  9
$SHADEDIF
 70
    70
  9
$TILEMODE
 70
     1
  9
$MAXACTVP
 70
    16
  9
$PINSBASE
 10
0.0
 20
0.0
 30
0.0
  9
$PLIMCHECK
 70
     0
  9
$PEXTMIN
 10
1.00000000E+20
 20
1.00000000E+20
 30
1.00000000E+20
  9
$PEXTMAX
 10
-1.00000000E+20
 20
-1.00000000E+20
 30
-1.00000000E+20
  9
$PLIMMIN
 10
0.0
 20
0.0
  9
$PLIMMAX
 10
420.0
 20
297.0
  9
$UNITMODE
 70
     0
  9
$VISRETAIN
 70
     0
  9
$PLINEGEN
 70
     0
  9
$PSLTSCALE
 70
     1
  9
$TREEDEPTH
 70
  3020
  9
$PICKSTYLE
 70
     0
  9
$CMLSTYLE
  2
STANDARD
  9
$CMLJUST
 70
     0
  9
$CMLSCALE
 40
1.0
  9
$PROXYGRAPHICS
 70
     1
  9
$MEASUREMENT
 70
     1
  0
ENDSEC
  0
SECTION
  2
CLASSES
  0
CLASS
  1
XRECORD
  2
AcDbXrecord
  3
AutoCAD 2000
 90
        0
280
     0
281
     0
  0
CLASS
  1
ACDBDICTIONARYWDFLT
  2
AcDbDictionaryWithDefault
  3
AutoCAD 2000
 90
        0
280
     0
281
     0
  0
CLASS
  1
ACDBPLACEHOLDER
  2
AcDbPlaceHolder
  3
AutoCAD 2000
 90
        0
280
     0
281
     0
  0
CLASS
  1
LAYOUT
  2
AcDbLayout
  3
AutoCAD 2000
 90
        0
280
     0
281
     0
  0
CLASS
  1
DICTIONARYVAR
  2
AcDbDictionaryVar
  3
AutoCAD 2000
 90
        0
280
     0
281
     0
  0
CLASS
  1
LONG_TRANSACTION
  2
AcDbLongTransaction
  3
AutoCAD 2000
 90
        0
280
     0
281
     0
  0
CLASS
  1
LWPOLYLINE
  2
AcDbPolyline
  3
AutoCAD 2000
 90
        0
280
     0
281
     1
  0
CLASS
  1
HATCH
  2
AcDbHatch
  3
AutoCAD 2000
 90
        0
280
     0
281
     1
  0
CLASS
  1
XRECORD
  2
AcDbXrecord
  3
AutoCAD 2000
 90
        0
280
     0
281
     0
  0
CLASS
  1
LONG_TRANSACTION
  2
AcDbLongTransaction
  3
AutoCAD 2000
 90
        0
280
     0
281
     0
  0
CLASS
  1
LWPOLYLINE
  2
AcDbPolyline
  3
AutoCAD 2000
 90
        0
280
     0
281
     1
  0
CLASS
  1
HATCH
  2
AcDbHatch
  3
AutoCAD 2000
 90
        0
280
     0
281
     1
  0
CLASS
  1
XRECORD
  2
AcDbXrecord
  3
AutoCAD 2000
 90
        0
280
     0
281
     0
  0
CLASS
  1
LONG_TRANSACTION
  2
AcDbLongTransaction
  3
AutoCAD 2000
 90
        0
280
     0
281
     0
  0
CLASS
  1
LWPOLYLINE
  2
AcDbPolyline
  3
AutoCAD 2000
 90
        0
280
     0
281
     1
  0
CLASS
  1
HATCH
  2
AcDbHatch
  3
AutoCAD 2000
 90
        0
280
     0
281
     1
  0
CLASS
  1
XRECORD
  2
AcDbXrecord
  3
AutoCAD 2000
 90
        0
280
     0
281
     0
  0
CLASS
  1
LONG_TRANSACTION
  2
AcDbLongTransaction
  3
AutoCAD 2000
 90
        0
280
     0
281
     0
  0
CLASS
  1
LWPOLYLINE
  2
AcDbPolyline
  3
AutoCAD 2000
 90
        0
280
     0
281
     1
  0
CLASS
  1
HATCH
  2
AcDbHatch
  3
AutoCAD 2000
 90
        0
280
     0
281
     1
  0
CLASS
  1
XRECORD
  2
AcDbXrecord
  3
AutoCAD 2000
 90
        0
280
     0
281
     0
  0
CLASS
  1
LONG_TRANSACTION
  2
AcDbLongTransaction
  3
AutoCAD 2000
 90
        0
280
     0
281
     0
  0
CLASS
  1
LWPOLYLINE
  2
AcDbPolyline
  3
AutoCAD 2000
 90
        0
280
     0
281
     1
  0
CLASS
  1
HATCH
  2
AcDbHatch
  3
AutoCAD 2000
 90
        0
280
     0
281
     1
  0
CLASS
  1
XRECORD
  2
AcDbXrecord
  3
AutoCAD 2000
 90
        0
280
     0
281
     0
  0
ENDSEC
  0
SECTION
  2
TABLES
  0
TABLE
  2
VPORT
  5
8
330
0
100
AcDbSymbolTable
 70
     4
  0
VPORT
  5
122E
330
8
100
AcDbSymbolTableRecord
100
AcDbViewportTableRecord
  2
*ACTIVE
 70
     0
 10
0.0
 20
0.0
 11
1.0
 21
1.0
 12
16.3071037
 22
14.64566039
 13
0.0
 23
0.0
 14
7.0
 24
7.0
 15
7.0
 25
7.0
 16
0.0
 26
0.0
 36
1.0
 17
0.0
 27
0.0
 37
0.0
 40
114.23289207
 41
1.45595855
 42
50.0
 43
0.0
 44
0.0
 50
0.0
 51
0.0
 71
     0
 72
  2000
 73
     1
 74
     0
 75
     0
 76
     0
 77
     0
 78
     0
  0
ENDTAB
  0
TABLE
  2
LTYPE
  5
5
330
0
100
AcDbSymbolTable
 70
     4
  0
LTYPE
  5
14
330
5
100
AcDbSymbolTableRecord
100
AcDbLinetypeTableRecord
  2
BYBLOCK
 70
     0
  3

 72
    65
 73
     0
 40
0.0
  0
LTYPE
  5
15
330
5
100
AcDbSymbolTableRecord
100
AcDbLinetypeTableRecord
  2
BYLAYER
 70
     0
  3

 72
    65
 73
     0
 40
0.0
  0
LTYPE
  5
16
330
5
100
AcDbSymbolTableRecord
100
AcDbLinetypeTableRecord
  2
CONTINUOUS
 70
     0
  3
Solid line
 72
    65
 73
     0
 40
0.0
  0
LTYPE
  5
258
330
5
100
AcDbSymbolTableRecord
100
AcDbLinetypeTableRecord
  2
CENTER2
 70
     0
  3
___ _ ___ _ ___ _ ___ _ ___ _ ___ _ ___ _ ___ _
 72
    65
 73
     4
 40
1.125
 49
0.75
 74
     0
 49
-0.125
 74
     0
 49
0.125
 74
     0
 49
-0.125
 74
     0
  0
LTYPE
  5
25C
330
5
100
AcDbSymbolTableRecord
100
AcDbLinetypeTableRecord
  2
HIDDEN2
 70
     0
  3
_ _ _ _ _ _ _ _ _ _ _ _ _ _ _ _ _ _ _ _ _ _ _ _
 72
    65
 73
     2
 40
0.1875
 49
0.125
 74
     0
 49
-0.0625
 74
     0
  0
LTYPE
  5
25D
330
5
100
AcDbSymbolTableRecord
100
AcDbLinetypeTableRecord
  2
PHANTOM2
 70
     0
  3
___ _ _ ___ _ _ ___ _ _ ___ _ _ ___ _ _ ___ _ _
 72
    65
 73
     6
 40
1.25
 49
0.625
 74
     0
 49
-0.125
 74
     0
 49
0.125
 74
     0
 49
-0.125
 74
     0
 49
0.125
 74
     0
 49
-0.125
 74
     0
  0
ENDTAB
  0
TABLE
  2
LAYER
  5
2
330
0
100
AcDbSymbolTable
 70
     8
  0
LAYER
  5
F
330
2
100
AcDbSymbolTableRecord
100
AcDbLayerTableRecord
  2
0
 70
     0
 62
     7
  6
CONTINUOUS
  0
LAYER
  5
1AA
330
2
100
AcDbSymbolTableRecord
100
AcDbLayerTableRecord
  2
240
 70
     0
 62
     4
  6
CONTINUOUS
  0
LAYER
  5
1AB
330
2
100
AcDbSymbolTableRecord
100
AcDbLayerTableRecord
  2
241
 70
     0
 62
   211
  6
CONTINUOUS
  0
LAYER
  5
1AF
330
2
100
AcDbSymbolTableRecord
100
AcDbLayerTableRecord
  2
245
 70
     0
 62
     2
  6
CENTER2
  0
LAYER
  5
21A
330
2
100
AcDbSymbolTableRecord
100
AcDbLayerTableRecord
  2
246
 70
     0
 62
     3
  6
PHANTOM2
  0
LAYER
  5
21E
330
2
100
AcDbSymbolTableRecord
100
AcDbLayerTableRecord
  2
250
 70
     0
 62
     3
  6
CONTINUOUS
  0
LAYER
  5
5C4
330
2
100
AcDbSymbolTableRecord
100
AcDbLayerTableRecord
  2
DEFPOINTS
 70
     0
 62
     7
  6
CONTINUOUS
  0
ENDTAB
  0
TABLE
  2
STYLE
  5
3
330
0
100
AcDbSymbolTable
 70
     2
  0
STYLE
  5
10
330
3
100
AcDbSymbolTableRecord
100
AcDbTextStyleTableRecord
  2
STANDARD
 70
     0
 40
0.0
 41
1.0
 50
0.0
 71
     0
 42
3.0
  3
romans.shx
  4
BIGFONT.SHX
  0
STYLE
  5
339
330
3
100
AcDbSymbolTableRecord
100
AcDbTextStyleTableRecord
  2
YOKO
 70
     0
 40
0.0
 41
1.0
 50
0.0
 71
     0
 42
3.0
  3
romans.shx
  4
extfont.shx
  0
ENDTAB
  0
TABLE
  2
VIEW
  5
6
330
0
100
AcDbSymbolTable
 70
     1
  0
VIEW
  5
122C
330
6
100
AcDbSymbolTableRecord
100
AcDbViewTableRecord
  2
OLE1
 70
     0
 40
114.23289207
 10
16.3071037
 20
14.64566039
 41
166.31835581
 11
0.0
 21
0.0
 31
1.0
 12
0.0
 22
0.0
 32
0.0
 42
50.0
 43
0.0
 44
0.0
 50
0.0
 71
     0
  0
ENDTAB
  0
TABLE
  2
UCS
  5
7
330
0
100
AcDbSymbolTable
 70
     0
  0
ENDTAB
  0
TABLE
  2
APPID
  5
9
330
0
100
AcDbSymbolTable
 70
    10
  0
APPID
  5
11
330
9
100
AcDbSymbolTableRecord
100
AcDbRegAppTableRecord
  2
ACAD
 70
     0
  0
APPID
  5
1B1
330
9
100
AcDbSymbolTableRecord
100
AcDbRegAppTableRecord
  2
GLOBAL
 70
     0
  0
APPID
  5
2A4
330
9
100
AcDbSymbolTableRecord
100
AcDbRegAppTableRecord
  2
DETAIL
 70
     0
  0
APPID
  5
5FD
330
9
100
AcDbSymbolTableRecord
100
AcDbRegAppTableRecord
  2
GRPNAME
 70
     0
  0
APPID
  5
5FE
330
9
100
AcDbSymbolTableRecord
100
AcDbRegAppTableRecord
  2
GPARA
 70
     0
  0
APPID
  5
6A8
330
9
100
AcDbSymbolTableRecord
100
AcDbRegAppTableRecord
  2
ITEMNAME
 70
     0
  0
APPID
  5
9F3
330
9
100
AcDbSymbolTableRecord
100
AcDbRegAppTableRecord
  2
HATCH_TYPE
 70
     0
  0
APPID
  5
9F4
330
9
100
AcDbSymbolTableRecord
100
AcDbRegAppTableRecord
  2
HATCH_DISPLAY
 70
     0
  0
APPID
  5
9F5
330
9
100
AcDbSymbolTableRecord
100
AcDbRegAppTableRecord
  2
HATCH_DISTANCE
 70
     0
  0
APPID
  5
FCF
330
9
100
AcDbSymbolTableRecord
100
AcDbRegAppTableRecord
  2
CONTENTBLOCKICON
 70
     0
  0
ENDTAB
  0
TABLE
  2
DIMSTYLE
  5
A
330
0
100
AcDbSymbolTable
 70
     1
  0
DIMSTYLE
105
59A
102
{ACAD_REACTORS
330
EF9
330
F08
330
F17
330
F26
102
}
330
A
100
AcDbSymbolTableRecord
100
AcDbDimStyleTableRecord
  2
BIGT
 70
     0
  3

  4

  5
OPEN
  6

  7

 40
1.0
 41
2.23
 42
0.5
 43
2.5
 44
1.0
 45
0.0
 46
0.0
 47
0.0
 48
0.0
140
3.5
141
0.0
142
0.0
143
25.4
144
1.0
145
0.0
146
1.0
147
1.0
 71
     0
 72
     0
 73
     0
 74
     0
 75
     0
 76
     0
 77
     3
 78
     9
170
     0
171
     2
172
     1
173
     0
174
     0
175
     0
176
   256
177
   256
178
    40
270
     2
271
     3
272
     3
273
     2
274
     2
340
10
275
     0
280
     0
281
     0
282
     0
283
     1
284
     8
285
     0
286
     0
287
     3
288
     0
  0
ENDTAB
  0
TABLE
  2
BLOCK_RECORD
  5
1
330
0
100
AcDbSymbolTable
 70
     6
  0
BLOCK_RECORD
  5
1A
102
{ACAD_XDICTIONARY
360
E2B
102
}
330
1
100
AcDbSymbolTableRecord
100
AcDbBlockTableRecord
  2
*MODEL_SPACE
  0
BLOCK_RECORD
  5
17
102
{ACAD_XDICTIONARY
360
E29
102
}
330
1
100
AcDbSymbolTableRecord
100
AcDbBlockTableRecord
  2
*PAPER_SPACE
  0
BLOCK_RECORD
  5
594
330
1
100
AcDbSymbolTableRecord
100
AcDbBlockTableRecord
  2
_OPEN
  0
BLOCK_RECORD
  5
EFA
330
1
100
AcDbSymbolTableRecord
100
AcDbBlockTableRecord
  2
*D1
  0
BLOCK_RECORD
  5
F09
330
1
100
AcDbSymbolTableRecord
100
AcDbBlockTableRecord
  2
*D2
  0
BLOCK_RECORD
  5
F18
330
1
100
AcDbSymbolTableRecord
100
AcDbBlockTableRecord
  2
*D3
  0
BLOCK_RECORD
  5
F27
330
1
100
AcDbSymbolTableRecord
100
AcDbBlockTableRecord
  2
*D4
  0
BLOCK_RECORD
  5
F4A
330
1
100
AcDbSymbolTableRecord
100
AcDbBlockTableRecord
  2
1
1001
CONTENTBLOCKICON
1071
        0
1004
2800000020000000200000000100080000000000000400000000000000000000000000000000000000000000000080000080000000808000800000008000800080800000C0C0C000C0DCC000F0CAA6000020400000206000002080000020A0000020C0000020E00000400000004020000040400000406000004080000040A0
1004
000040C0000040E00000600000006020000060400000606000006080000060A0000060C0000060E00000800000008020000080400000806000008080000080A0000080C0000080E00000A0000000A0200000A0400000A0600000A0800000A0A00000A0C00000A0E00000C0000000C0200000C0400000C0600000C0800000C0
1004
A00000C0C00000C0E00000E0000000E0200000E0400000E0600000E0800000E0A00000E0C00000E0E00040000000400020004000400040006000400080004000A0004000C0004000E00040200000402020004020400040206000402080004020A0004020C0004020E000404000004040200040404000404060004040800040
1004
40A0004040C0004040E00040600000406020004060400040606000406080004060A0004060C0004060E00040800000408020004080400040806000408080004080A0004080C0004080E00040A0000040A0200040A0400040A0600040A0800040A0A00040A0C00040A0E00040C0000040C0200040C0400040C0600040C08000
1004
40C0A00040C0C00040C0E00040E0000040E0200040E0400040E0600040E0800040E0A00040E0C00040E0E00080000000800020008000400080006000800080008000A0008000C0008000E00080200000802020008020400080206000802080008020A0008020C0008020E00080400000804020008040400080406000804080
1004
008040A0008040C0008040E00080600000806020008060400080606000806080008060A0008060C0008060E00080800000808020008080400080806000808080008080A0008080C0008080E00080A0000080A0200080A0400080A0600080A0800080A0A00080A0C00080A0E00080C0000080C0200080C0400080C0600080C0
1004
800080C0A00080C0C00080C0E00080E0000080E0200080E0400080E0600080E0800080E0A00080E0C00080E0E000C0000000C0002000C0004000C0006000C0008000C000A000C000C000C000E000C0200000C0202000C0204000C0206000C0208000C020A000C020C000C020E000C0400000C0402000C0404000C0406000C0
1004
408000C040A000C040C000C040E000C0600000C0602000C0604000C0606000C0608000C060A000C060C000C060E000C0800000C0802000C0804000C0806000C0808000C080A000C080C000C080E000C0A00000C0A02000C0A04000C0A06000C0A08000C0A0A000C0A0C000C0A0E000C0C00000C0C02000C0C04000C0C06000
1004
C0C08000C0C0A000F0FBFF00A4A0A000808080000000FF0000FF000000FFFF00FF000000FF00FF00FFFF0000FFFFFF0000000000000000000000000000000000000000000000000000000000000000000000000000000000000000000000000000000000000000000000000000000000000000000000000000000000000000
1004
00000000000000000000000000000000000000000000000000000000000000000000000000000000000000000000000000000000000000000000000000000000000000000000000000000000000000000000000000000000000000000000000000000000000000000000000000000000000000000000000000000000000000
1004
00000000000000000000000000000000000000000000000000000000000000000000000000000000000000000000000000000000000000000000000000000000000000000000000000000000000000000000000000000000000000000000000000000000000000000000000000000000000000000000000000000000000000
1004
00FEFEFEFBFEFE000000000000000000000000000000000000000000000000FEFEFEE7FEFEE7FE000000000000000000000000000000000000FEFEFEFEFEFE0000E700E7E7E7E7FEFE000000000000000000000000FEFEFEFE0000000000000000E700E7E7E7E70000FEFEFEFEFEFEFEFE00000000FE000000000000000000
1004
0000E700E7E7E7E70000E70000E7E7E700FE00000000FE0000000000000000000000E700E7E7E7E70000E70000E7000000FE000000FBFEFBFBFBFBFBFBFBFBFBFBFBE7FBE7E7E7E7FBFBE7FBFBE7E7E7E7FEFB000000FE0000000000000000000000E700E7E7E7E70000E70000000000E7E700000000FEFEFE000000000000
1004
000000E700E7E7E7E70000E7FEFEFEFEFEFEFE00000000000000FEFEFEFEFEFE000000E700E7E7E7E700FEFE0000000000000000000000000000000000000000FEFEFEFEE7FEFEE7FEFE00000000000000000000000000000000000000000000000000FEFEFEFBFEFE00000000000000000000000000000000000000000000
1004
00000000000000000000000000000000000000000000000000000000000000000000000000000000000000000000000000000000000000000000000000000000000000000000000000000000000000000000000000000000000000000000000000000000000000000000000000000000000000000000000000000000000000
1004
00000000000000000000000000000000000000000000000000000000000000000000000000000000000000000000000000000000000000000000000000000000000000000000000000000000000000000000000000000000000000000000000000000000000000000000000000000000000000000000000000000000000000
1004
0000000000000000000000000000000000000000000000000000000000000000000000000000000000000000000000000000000000000000
  0
ENDTAB
  0
ENDSEC
  0
SECTION
  2
BLOCKS
  0
BLOCK
  5
1B
330
1A
100
AcDbEntity
  8
0
100
AcDbBlockBegin
  2
*MODEL_SPACE
 70
     0
 10
0.0
 20
0.0
 30
0.0
  3
*MODEL_SPACE
  1

  0
ENDBLK
  5
1C
330
1A
100
AcDbEntity
  8
0
100
AcDbBlockEnd
  0
BLOCK
  5
18
330
17
100
AcDbEntity
 67
     1
  8
0
100
AcDbBlockBegin
  2
*PAPER_SPACE
 70
     0
 10
0.0
 20
0.0
 30
0.0
  3
*PAPER_SPACE
  1

  0
ENDBLK
  5
19
330
17
100
AcDbEntity
 67
     1
  8
0
100
AcDbBlockEnd
  0
BLOCK
  5
598
330
594
100
AcDbEntity
  8
0
100
AcDbBlockBegin
  2
_OPEN
 70
     0
 10
0.0
 20
0.0
 30
0.0
  3
_OPEN
  1

  0
LINE
  5
595
330
594
100
AcDbEntity
  8
0
  6
BYBLOCK
 62
     0
100
AcDbLine
 10
-1.0
 20
0.16666667
 30
0.0
 11
0.0
 21
0.0
 31
0.0
  0
LINE
  5
596
330
594
100
AcDbEntity
  8
0
  6
BYBLOCK
 62
     0
100
AcDbLine
 10
-1.0
 20
-0.16666667
 30
0.0
 11
0.0
 21
0.0
 31
0.0
  0
LINE
  5
597
330
594
100
AcDbEntity
  8
0
  6
BYBLOCK
 62
     0
100
AcDbLine
 10
0.0
 20
0.0
 30
0.0
 11
-1.0
 21
0.0
 31
0.0
  0
ENDBLK
  5
599
330
594
100
AcDbEntity
  8
0
100
AcDbBlockEnd
  0
BLOCK
  5
F04
330
EFA
100
AcDbEntity
  8
0
100
AcDbBlockBegin
  2
*D1
 70
     1
 10
0.0
 20
0.0
 30
0.0
  3
*D1
  1

  0
LINE
  5
F33
330
EFA
100
AcDbEntity
  8
250
  6
CONTINUOUS
100
AcDbLine
 10
85.5
 20
-16.0
 30
0.0
 11
99.0
 21
-16.0
 31
0.0
  0
LINE
  5
F34
330
EFA
100
AcDbEntity
  8
250
  6
CONTINUOUS
100
AcDbLine
 10
85.5
 20
16.0
 30
0.0
 11
99.0
 21
16.0
 31
0.0
  0
LINE
  5
F35
330
EFA
100
AcDbEntity
  8
250
  6
CONTINUOUS
100
AcDbLine
 10
98.0
 20
-13.77
 30
0.0
 11
98.0
 21
13.77
 31
0.0
  0
INSERT
  5
F36
330
EFA
100
AcDbEntity
  8
250
  6
CONTINUOUS
100
AcDbBlockReference
  2
_OPEN
 10
98.0
 20
-16.0
 30
0.0
 41
2.23
 42
2.23
 43
2.23
 50
270.0
  0
INSERT
  5
F37
330
EFA
100
AcDbEntity
  8
250
  6
CONTINUOUS
100
AcDbBlockReference
  2
_OPEN
 10
98.0
 20
16.0
 30
0.0
 41
2.23
 42
2.23
 43
2.23
 50
90.0
  0
MTEXT
  5
F38
330
EFA
100
AcDbEntity
  8
250
  6
CONTINUOUS
 62
    40
100
AcDbMText
 10
95.25
 20
0.0
 30
0.0
 40
3.5
 41
0.0
 71
     5
 72
     1
  1
\A1;{\H3.5;\U+2205}32
 11
0.0
 21
1.0
 31
0.0
1001
ACAD
1000
MTEXTBEGIN
1070
    73
1070
     1
1070
    44
1040
1.0
1070
    74
1070
     0
1000
MTEXTEND
1000
MTEXTBEGIN
1070
    73
1070
     1
1070
    44
1040
1.0
1070
    74
1070
     0
1000
MTEXTEND
1000
MTEXTBEGIN
1070
    73
1070
     1
1070
    44
1040
1.0
1070
    74
1070
     0
1000
MTEXTEND
1000
MTEXTBEGIN
1070
    73
1070
     1
1070
    44
1040
1.0
1070
    74
1070
     0
1000
MTEXTEND
  0
POINT
  5
F39
330
EFA
100
AcDbEntity
  8
DEFPOINTS
  6
CONTINUOUS
 62
     0
100
AcDbPoint
 10
85.0
 20
-16.0
 30
0.0
  0
POINT
  5
F3A
330
EFA
100
AcDbEntity
  8
DEFPOINTS
  6
CONTINUOUS
 62
     0
100
AcDbPoint
 10
85.0
 20
16.0
 30
0.0
  0
POINT
  5
F3B
330
EFA
100
AcDbEntity
  8
DEFPOINTS
  6
CONTINUOUS
 62
     0
100
AcDbPoint
 10
98.0
 20
16.0
 30
0.0
  0
ENDBLK
  5
F05
330
EFA
100
AcDbEntity
  8
0
100
AcDbBlockEnd
  0
BLOCK
  5
F13
330
F09
100
AcDbEntity
  8
0
100
AcDbBlockBegin
  2
*D2
 70
     1
 10
0.0
 20
0.0
 30
0.0
  3
*D2
  1

  0
LINE
  5
F0A
330
F09
100
AcDbEntity
  8
250
  6
CONTINUOUS
100
AcDbLine
 10
74.0
 20
16.5
 30
0.0
 11
74.0
 21
29.0
 31
0.0
  0
LINE
  5
F0B
330
F09
100
AcDbEntity
  8
250
  6
CONTINUOUS
100
AcDbLine
 10
85.0
 20
16.5
 30
0.0
 11
85.0
 21
29.0
 31
0.0
  0
LINE
  5
F0C
330
F09
100
AcDbEntity
  8
250
  6
CONTINUOUS
100
AcDbLine
 10
76.23
 20
28.0
 30
0.0
 11
82.77
 21
28.0
 31
0.0
  0
INSERT
  5
F0D
330
F09
100
AcDbEntity
  8
250
  6
CONTINUOUS
100
AcDbBlockReference
  2
_OPEN
 10
74.0
 20
28.0
 30
0.0
 41
2.23
 42
2.23
 43
2.23
 50
180.0
  0
INSERT
  5
F0E
330
F09
100
AcDbEntity
  8
250
  6
CONTINUOUS
100
AcDbBlockReference
  2
_OPEN
 10
85.0
 20
28.0
 30
0.0
 41
2.23
 42
2.23
 43
2.23
  0
MTEXT
  5
F0F
330
F09
100
AcDbEntity
  8
250
  6
CONTINUOUS
 62
    40
100
AcDbMText
 10
79.5
 20
30.75
 30
0.0
 40
3.5
 41
0.0
 71
     5
 72
     1
  1
\A1;11
1001
ACAD
1000
MTEXTBEGIN
1070
    73
1070
     1
1070
    44
1040
1.0
1070
    74
1070
     0
1000
MTEXTEND
1000
MTEXTBEGIN
1070
    73
1070
     1
1070
    44
1040
1.0
1070
    74
1070
     0
1000
MTEXTEND
1000
MTEXTBEGIN
1070
    73
1070
     1
1070
    44
1040
1.0
1070
    74
1070
     0
1000
MTEXTEND
1000
MTEXTBEGIN
1070
    73
1070
     1
1070
    44
1040
1.0
1070
    74
1070
     0
1000
MTEXTEND
  0
POINT
  5
F10
330
F09
100
AcDbEntity
  8
DEFPOINTS
  6
CONTINUOUS
 62
     0
100
AcDbPoint
 10
74.0
 20
16.0
 30
0.0
  0
POINT
  5
F11
330
F09
100
AcDbEntity
  8
DEFPOINTS
  6
CONTINUOUS
 62
     0
100
AcDbPoint
 10
85.0
 20
16.0
 30
0.0
  0
POINT
  5
F12
330
F09
100
AcDbEntity
  8
DEFPOINTS
  6
CONTINUOUS
 62
     0
100
AcDbPoint
 10
85.0
 20
28.0
 30
0.0
  0
ENDBLK
  5
F14
330
F09
100
AcDbEntity
  8
0
100
AcDbBlockEnd
  0
BLOCK
  5
F22
330
F18
100
AcDbEntity
  8
0
100
AcDbBlockBegin
  2
*D3
 70
     1
 10
0.0
 20
0.0
 30
0.0
  3
*D3
  1

  0
LINE
  5
F40
330
F18
100
AcDbEntity
  8
250
  6
CONTINUOUS
100
AcDbLine
 10
47.0
 20
16.0048163
 30
0.0
 11
47.0
 21
36.0
 31
0.0
  0
LINE
  5
F41
330
F18
100
AcDbEntity
  8
250
  6
CONTINUOUS
100
AcDbLine
 10
85.0
 20
16.5
 30
0.0
 11
85.0
 21
36.0
 31
0.0
  0
LINE
  5
F42
330
F18
100
AcDbEntity
  8
250
  6
CONTINUOUS
100
AcDbLine
 10
49.23
 20
35.0
 30
0.0
 11
82.77
 21
35.0
 31
0.0
  0
INSERT
  5
F43
330
F18
100
AcDbEntity
  8
250
  6
CONTINUOUS
100
AcDbBlockReference
  2
_OPEN
 10
47.0
 20
35.0
 30
0.0
 41
2.23
 42
2.23
 43
2.23
 50
180.0
  0
INSERT
  5
F44
330
F18
100
AcDbEntity
  8
250
  6
CONTINUOUS
100
AcDbBlockReference
  2
_OPEN
 10
85.0
 20
35.0
 30
0.0
 41
2.23
 42
2.23
 43
2.23
  0
MTEXT
  5
F45
330
F18
100
AcDbEntity
  8
250
  6
CONTINUOUS
 62
    40
100
AcDbMText
 10
66.0
 20
37.75
 30
0.0
 40
3.5
 41
0.0
 71
     5
 72
     1
  1
\A1;38
1001
ACAD
1000
MTEXTBEGIN
1070
    73
1070
     1
1070
    44
1040
1.0
1070
    74
1070
     0
1000
MTEXTEND
1000
MTEXTBEGIN
1070
    73
1070
     1
1070
    44
1040
1.0
1070
    74
1070
     0
1000
MTEXTEND
1000
MTEXTBEGIN
1070
    73
1070
     1
1070
    44
1040
1.0
1070
    74
1070
     0
1000
MTEXTEND
1000
MTEXTBEGIN
1070
    73
1070
     1
1070
    44
1040
1.0
1070
    74
1070
     0
1000
MTEXTEND
  0
POINT
  5
F46
330
F18
100
AcDbEntity
  8
DEFPOINTS
  6
CONTINUOUS
 62
     0
100
AcDbPoint
 10
47.0
 20
15.5048163
 30
0.0
  0
POINT
  5
F47
330
F18
100
AcDbEntity
  8
DEFPOINTS
  6
CONTINUOUS
 62
     0
100
AcDbPoint
 10
85.0
 20
16.0
 30
0.0
  0
POINT
  5
F48
330
F18
100
AcDbEntity
  8
DEFPOINTS
  6
CONTINUOUS
 62
     0
100
AcDbPoint
 10
85.0
 20
35.0
 30
0.0
  0
ENDBLK
  5
F23
330
F18
100
AcDbEntity
  8
0
100
AcDbBlockEnd
  0
BLOCK
  5
F31
330
F27
100
AcDbEntity
  8
0
100
AcDbBlockBegin
  2
*D4
 70
     1
 10
0.0
 20
0.0
 30
0.0
  3
*D4
  1

  0
LINE
  5
F28
330
F27
100
AcDbEntity
  8
250
  6
CONTINUOUS
100
AcDbLine
 10
0.0
 20
22.725
 30
0.0
 11
0.0
 21
43.0
 31
0.0
  0
LINE
  5
F29
330
F27
100
AcDbEntity
  8
250
  6
CONTINUOUS
100
AcDbLine
 10
85.0
 20
16.5
 30
0.0
 11
85.0
 21
43.0
 31
0.0
  0
LINE
  5
F2A
330
F27
100
AcDbEntity
  8
250
  6
CONTINUOUS
100
AcDbLine
 10
2.23
 20
42.0
 30
0.0
 11
82.77
 21
42.0
 31
0.0
  0
INSERT
  5
F2B
330
F27
100
AcDbEntity
  8
250
  6
CONTINUOUS
100
AcDbBlockReference
  2
_OPEN
 10
0.0
 20
42.0
 30
0.0
 41
2.23
 42
2.23
 43
2.23
 50
180.0
  0
INSERT
  5
F2C
330
F27
100
AcDbEntity
  8
250
  6
CONTINUOUS
100
AcDbBlockReference
  2
_OPEN
 10
85.0
 20
42.0
 30
0.0
 41
2.23
 42
2.23
 43
2.23
  0
MTEXT
  5
F2D
330
F27
100
AcDbEntity
  8
250
  6
CONTINUOUS
 62
    40
100
AcDbMText
 10
42.5
 20
44.75
 30
0.0
 40
3.5
 41
0.0
 71
     5
 72
     1
  1
\A1;85
1001
ACAD
1000
MTEXTBEGIN
1070
    73
1070
     1
1070
    44
1040
1.0
1070
    74
1070
     0
1000
MTEXTEND
1000
MTEXTBEGIN
1070
    73
1070
     1
1070
    44
1040
1.0
1070
    74
1070
     0
1000
MTEXTEND
1000
MTEXTBEGIN
1070
    73
1070
     1
1070
    44
1040
1.0
1070
    74
1070
     0
1000
MTEXTEND
1000
MTEXTBEGIN
1070
    73
1070
     1
1070
    44
1040
1.0
1070
    74
1070
     0
1000
MTEXTEND
  0
POINT
  5
F2E
330
F27
100
AcDbEntity
  8
DEFPOINTS
  6
CONTINUOUS
 62
     0
100
AcDbPoint
 10
0.0
 20
22.225
 30
0.0
  0
POINT
  5
F2F
330
F27
100
AcDbEntity
  8
DEFPOINTS
  6
CONTINUOUS
 62
     0
100
AcDbPoint
 10
85.0
 20
16.0
 30
0.0
  0
POINT
  5
F30
330
F27
100
AcDbEntity
  8
DEFPOINTS
  6
CONTINUOUS
 62
     0
100
AcDbPoint
 10
85.0
 20
42.0
 30
0.0
  0
ENDBLK
  5
F32
330
F27
100
AcDbEntity
  8
0
100
AcDbBlockEnd
  0
BLOCK
  5
F4B
330
F4A
100
AcDbEntity
  8
0
100
AcDbBlockBegin
  2
1
 70
     0
 10
0.0
 20
0.0
 30
0.0
  3
1
  1

  0
LINE
  5
11BA
330
F4A
100
AcDbEntity
  8
245
  6
CENTER2
100
AcDbLine
 10
-66.4
 20
0.0
 30
0.0
 11
86.0
 21
0.0
 31
0.0
1001
GRPNAME
1000
PASTMD0C
  0
ARC
  5
11BB
330
F4A
100
AcDbEntity
  8
240
  6
CONTINUOUS
100
AcDbCircle
 10
2.0
 20
-30.5
 30
0.0
 40
1.0
100
AcDbArc
 50
180.0
 51
270.0
  0
LINE
  5
11BC
330
F4A
100
AcDbEntity
  8
241
  6
HIDDEN2
100
AcDbLine
 10
23.0
 20
-22.5
 30
0.0
 11
1.0
 21
-22.5
 31
0.0
  0
LINE
  5
11BD
330
F4A
100
AcDbEntity
  8
241
  6
HIDDEN2
100
AcDbLine
 10
23.0
 20
22.5
 30
0.0
 11
1.0
 21
22.5
 31
0.0
  0
ARC
  5
11BE
330
F4A
100
AcDbEntity
  8
240
  6
CONTINUOUS
100
AcDbCircle
 10
2.0
 20
30.5
 30
0.0
 40
1.0
100
AcDbArc
 50
90.0
 51
180.0
  0
LINE
  5
11BF
330
F4A
100
AcDbEntity
  8
240
  6
CONTINUOUS
100
AcDbLine
 10
0.0
 20
22.225
 30
0.0
 11
-64.03089103
 21
12.88716173
 31
0.0
  0
LINE
  5
11C0
330
F4A
100
AcDbEntity
  8
241
100
AcDbLine
 10
1.0
 20
0.0
 30
0.0
 11
1.0
 21
22.225
 31
0.0
  0
LINE
  5
11C1
330
F4A
100
AcDbEntity
  8
241
  6
CONTINUOUS
100
AcDbLine
 10
0.0
 20
22.225
 30
0.0
 11
0.0
 21
0.0
 31
0.0
  0
LINE
  5
11C2
330
F4A
100
AcDbEntity
  8
240
  6
CONTINUOUS
100
AcDbLine
 10
0.0
 20
-22.225
 30
0.0
 11
-64.03089103
 21
-12.88716173
 31
0.0
  0
LINE
  5
11C3
330
F4A
100
AcDbEntity
  8
240
  6
CONTINUOUS
100
AcDbLine
 10
-65.4
 20
-11.30390896
 30
0.0
 11
-65.4
 21
0.0
 31
0.0
  0
ARC
  5
11C4
330
F4A
100
AcDbEntity
  8
240
  6
CONTINUOUS
100
AcDbCircle
 10
-63.8
 20
-11.30390896
 30
0.0
 40
1.6
100
AcDbArc
 50
180.0
 51
261.70285503
  0
LINE
  5
11C5
330
F4A
100
AcDbEntity
  8
240
  6
CONTINUOUS
100
AcDbLine
 10
-65.4
 20
11.30390896
 30
0.0
 11
-65.4
 21
0.0
 31
0.0
  0
ARC
  5
11C6
330
F4A
100
AcDbEntity
  8
240
  6
CONTINUOUS
100
AcDbCircle
 10
-63.8
 20
11.30390896
 30
0.0
 40
1.6
100
AcDbArc
 50
98.29714497
 51
180.0
  0
LINE
  5
11C7
330
F4A
100
AcDbEntity
  8
240
  6
CONTINUOUS
100
AcDbLine
 10
1.0
 20
-22.225
 30
0.0
 11
1.0
 21
-30.5
 31
0.0
  0
LINE
  5
11C8
330
F4A
100
AcDbEntity
  8
241
100
AcDbLine
 10
1.0
 20
0.0
 30
0.0
 11
1.0
 21
-22.225
 31
0.0
  0
LINE
  5
11C9
330
F4A
100
AcDbEntity
  8
241
  6
CONTINUOUS
100
AcDbLine
 10
0.0
 20
-22.225
 30
0.0
 11
0.0
 21
0.0
 31
0.0
  0
LINE
  5
11CA
330
F4A
100
AcDbEntity
  8
240
100
AcDbLine
 10
0.0
 20
-22.225
 30
0.0
 11
1.0
 21
-22.225
 31
0.0
  0
LINE
  5
11CB
330
F4A
100
AcDbEntity
  8
240
  6
CONTINUOUS
100
AcDbLine
 10
1.0
 20
22.225
 30
0.0
 11
1.0
 21
30.5
 31
0.0
  0
LINE
  5
11CC
330
F4A
100
AcDbEntity
  8
240
100
AcDbLine
 10
0.0
 20
22.225
 30
0.0
 11
1.0
 21
22.225
 31
0.0
  0
LINE
  5
11CD
330
F4A
100
AcDbEntity
  8
241
  6
CONTINUOUS
100
AcDbLine
 10
45.0
 20
0.0
 30
0.0
 11
45.0
 21
15.4
 31
0.0
1001
GRPNAME
1000
PASTMD0D
  0
LINE
  5
11CE
330
F4A
100
AcDbEntity
  8
246
100
AcDbLine
 10
85.0
 20
16.0
 30
0.0
 11
85.0
 21
-16.0
 31
0.0
1001
GRPNAME
1000
PASTMD0C
  0
LINE
  5
11CF
330
F4A
100
AcDbEntity
  8
245
  6
CENTER2
100
AcDbLine
 10
16.6
 20
-31.5
 30
0.0
 11
16.6
 21
31.5
 31
0.0
  0
LINE
  5
11D0
330
F4A
100
AcDbEntity
  8
241
  6
CONTINUOUS
100
AcDbLine
 10
21.6
 20
0.0
 30
0.0
 11
21.6
 21
31.5
 31
0.0
  0
LINE
  5
11D1
330
F4A
100
AcDbEntity
  8
241
  6
CONTINUOUS
100
AcDbLine
 10
18.71324865
 20
26.5
 30
0.0
 11
18.71324865
 21
0.0
 31
0.0
  0
LINE
  5
11D2
330
F4A
100
AcDbEntity
  8
241
  6
CONTINUOUS
100
AcDbLine
 10
14.48675135
 20
26.5
 30
0.0
 11
14.48675135
 21
0.0
 31
0.0
  0
LINE
  5
11D3
330
F4A
100
AcDbEntity
  8
241
  6
CONTINUOUS
100
AcDbLine
 10
11.6
 20
31.5
 30
0.0
 11
11.6
 21
0.0
 31
0.0
  0
LINE
  5
11D4
330
F4A
100
AcDbEntity
  8
241
  6
CONTINUOUS
100
AcDbLine
 10
27.0
 20
0.0
 30
0.0
 11
27.0
 21
27.5
 31
0.0
  0
LINE
  5
11D5
330
F4A
100
AcDbEntity
  8
240
  6
CONTINUOUS
100
AcDbLine
 10
84.4
 20
1.77218521
 30
0.0
 11
84.4
 21
15.3
 31
0.0
1001
GRPNAME
1000
PASTMD0C
  0
LINE
  5
11D6
330
F4A
100
AcDbEntity
  8
240
  6
CONTINUOUS
100
AcDbLine
 10
72.35358982
 20
-15.4
 30
0.0
 11
49.04491213
 21
-15.4
 31
0.0
1001
GRPNAME
1000
PASTMD0C
  0
ARC
  5
11D7
330
F4A
100
AcDbEntity
  8
241
  6
CONTINUOUS
100
AcDbCircle
 10
63.04381944
 20
-2.02456396
 30
0.0
 40
4.64381944097044
100
AcDbArc
 50
79.99999997
 51
251.47908977
1001
GRPNAME
1000
PASTMD0C
  0
ARC
  5
11D8
330
F4A
100
AcDbEntity
  8
240
  6
CONTINUOUS
100
AcDbCircle
 10
32.0
 20
-27.5
 30
0.0
 40
4.999999999999976
100
AcDbArc
 50
121.67415212
 51
179.99999999
1001
GRPNAME
1000
PASTMD0D
  0
LINE
  5
11D9
330
F4A
100
AcDbEntity
  8
241
  6
CONTINUOUS
100
AcDbLine
 10
14.48675135
 20
-26.5
 30
0.0
 11
14.48675135
 21
0.0
 31
0.0
  0
LINE
  5
11DA
330
F4A
100
AcDbEntity
  8
241
  6
CONTINUOUS
100
AcDbLine
 10
18.71324865
 20
-26.5
 30
0.0
 11
18.71324865
 21
0.0
 31
0.0
  0
LINE
  5
11DB
330
F4A
100
AcDbEntity
  8
241
  6
CONTINUOUS
100
AcDbLine
 10
21.6
 20
0.0
 30
0.0
 11
21.6
 21
-31.5
 31
0.0
  0
LINE
  5
11DC
330
F4A
100
AcDbEntity
  8
241
  6
CONTINUOUS
100
AcDbLine
 10
11.6
 20
-31.5
 30
0.0
 11
11.6
 21
0.0
 31
0.0
  0
LINE
  5
11DD
330
F4A
100
AcDbEntity
  8
241
  6
HIDDEN2
100
AcDbLine
 10
23.0
 20
-22.5
 30
0.0
 11
23.0
 21
-31.5
 31
0.0
  0
LINE
  5
11DE
330
F4A
100
AcDbEntity
  8
241
  6
CONTINUOUS
100
AcDbLine
 10
27.0
 20
0.0
 30
0.0
 11
27.0
 21
-27.5
 31
0.0
  0
LINE
  5
11DF
330
F4A
100
AcDbEntity
  8
240
  6
CONTINUOUS
100
AcDbLine
 10
18.71324865
 20
-26.5
 30
0.0
 11
14.48675135
 21
-26.5
 31
0.0
  0
LINE
  5
11E0
330
F4A
100
AcDbEntity
  8
240
  6
CONTINUOUS
100
AcDbLine
 10
2.0
 20
-31.5
 30
0.0
 11
11.6
 21
-31.5
 31
0.0
  0
LINE
  5
11E1
330
F4A
100
AcDbEntity
  8
240
  6
CONTINUOUS
100
AcDbLine
 10
14.48675135
 20
-26.5
 30
0.0
 11
11.6
 21
-31.5
 31
0.0
  0
LINE
  5
11E2
330
F4A
100
AcDbEntity
  8
240
  6
CONTINUOUS
100
AcDbLine
 10
21.6
 20
-31.5
 30
0.0
 11
26.0
 21
-31.5
 31
0.0
  0
LINE
  5
11E3
330
F4A
100
AcDbEntity
  8
240
  6
CONTINUOUS
100
AcDbLine
 10
18.71324865
 20
-26.5
 30
0.0
 11
21.6
 21
-31.5
 31
0.0
  0
LINE
  5
11E4
330
F4A
100
AcDbEntity
  8
240
  6
CONTINUOUS
100
AcDbLine
 10
27.0
 20
-30.5
 30
0.0
 11
27.0
 21
-27.5
 31
0.0
  0
ARC
  5
11E5
330
F4A
100
AcDbEntity
  8
240
  6
CONTINUOUS
100
AcDbCircle
 10
26.0
 20
-30.5
 30
0.0
 40
1.0
100
AcDbArc
 50
270.0
 51
0.0
  0
ARC
  5
11E6
330
F4A
100
AcDbEntity
  8
240
  6
CONTINUOUS
100
AcDbCircle
 10
81.88340517
 20
-108.34952621
 30
0.0
 40
100.0
100
AcDbArc
 50
114.2350642
 51
121.67419689
1001
GRPNAME
1000
PASTMD0D
  0
LINE
  5
11E7
330
F4A
100
AcDbEntity
  8
241
  6
CONTINUOUS
100
AcDbLine
 10
45.0
 20
0.0
 30
0.0
 11
45.0
 21
-15.4
 31
0.0
1001
GRPNAME
1000
PASTMD0D
  0
ARC
  5
11E8
330
F4A
100
AcDbEntity
  8
240
  6
CONTINUOUS
100
AcDbCircle
 10
49.04491213
 20
-35.4
 30
0.0
 40
20.0
100
AcDbArc
 50
90.0
 51
114.23506349
1001
GRPNAME
1000
PASTMD0D
  0
LINE
  5
11E9
330
F4A
100
AcDbEntity
  8
240
  6
CONTINUOUS
100
AcDbLine
 10
84.4
 20
-15.3
 30
0.0
 11
84.4
 21
-3.80161786
 31
0.0
1001
GRPNAME
1000
PASTMD0C
  0
LINE
  5
11EA
330
F4A
100
AcDbEntity
  8
240
  6
CONTINUOUS
100
AcDbLine
 10
72.35358982
 20
-15.4
 30
0.0
 11
73.10000003
 21
-15.6
 31
0.0
1001
GRPNAME
1000
PASTMD0C
  0
LINE
  5
11EB
330
F4A
100
AcDbEntity
  8
241
  6
CONTINUOUS
100
AcDbLine
 10
61.56870816
 20
-6.42787019
 30
0.0
 11
84.4
 21
-14.07637208
 31
0.0
1001
GRPNAME
1000
PASTMD0C
  0
LINE
  5
11EC
330
F4A
100
AcDbEntity
  8
246
100
AcDbLine
 10
85.0
 20
-16.0
 30
0.0
 11
74.0
 21
-16.0
 31
0.0
  0
LINE
  5
11ED
330
F4A
100
AcDbEntity
  8
240
  6
CONTINUOUS
100
AcDbLine
 10
84.4
 20
-15.3
 30
0.0
 11
73.10000003
 21
-15.6
 31
0.0
1001
GRPNAME
1000
PASTMD0C
  0
LINE
  5
11EE
330
F4A
100
AcDbEntity
  8
241
  6
CONTINUOUS
100
AcDbLine
 10
72.10645958
 20
0.67286493
 30
0.0
 11
84.4
 21
-3.80161786
 31
0.0
1001
GRPNAME
1000
PASTMD0C
  0
LINE
  5
11EF
330
F4A
100
AcDbEntity
  8
241
  6
CONTINUOUS
100
AcDbLine
 10
73.57370018
 20
3.68115397
 30
0.0
 11
72.10645958
 21
0.67286493
 31
0.0
1001
GRPNAME
1000
PASTMD0C
  0
LINE
  5
11F0
330
F4A
100
AcDbEntity
  8
241
  6
CONTINUOUS
100
AcDbLine
 10
63.85021022
 20
2.54870543
 30
0.0
 11
72.29510377
 21
1.05964284
 31
0.0
1001
GRPNAME
1000
PASTMD0C
  0
LINE
  5
11F1
330
F4A
100
AcDbEntity
  8
241
  6
CONTINUOUS
100
AcDbLine
 10
73.57370018
 20
3.68115397
 30
0.0
 11
84.39105095
 21
1.77376317
 31
0.0
1001
GRPNAME
1000
PASTMD0C
  0
LINE
  5
11F2
330
F4A
100
AcDbEntity
  8
240
  6
CONTINUOUS
100
AcDbLine
 10
84.39105095
 20
1.77376317
 30
0.0
 11
85.0
 21
-4.02
 31
0.0
1001
GRPNAME
1000
PASTMD0C
  0
LINE
  5
11F3
330
F4A
100
AcDbEntity
  8
240
  6
CONTINUOUS
100
AcDbLine
 10
84.4
 20
-3.80161786
 30
0.0
 11
85.0
 21
-4.02
 31
0.0
1001
GRPNAME
1000
PASTMD0C
  0
LINE
  5
11F4
330
F4A
100
AcDbEntity
  8
240
  6
CONTINUOUS
100
AcDbLine
 10
84.4
 20
1.77218521
 30
0.0
 11
84.39105095
 21
1.77376317
 31
0.0
1001
GRPNAME
1000
PASTMD0C
  0
LWPOLYLINE
  5
11F5
330
F4A
100
AcDbEntity
  8
241
  6
CONTINUOUS
100
AcDbPolyline
 90
       70
 70
     0
 43
0.0
 10
78.23076055
 20
10.74318694
 10
78.21487884
 20
10.64267332
 10
78.20260208
 20
10.54173818
 10
78.19395572
 20
10.44059072
 10
78.18895768
 20
10.3394406
 10
78.18761832
 20
10.23849745
 10
78.18994042
 20
10.13797051
 10
78.19591916
 20
10.03806812
 10
78.20554215
 20
9.93899735
 10
78.21878946
 20
9.84096354
 10
78.23563361
 20
9.74416987
 10
78.2560397
 20
9.64881698
 10
78.27996543
 20
9.55510249
 10
78.30736121
 20
9.46322064
 10
78.33817027
 20
9.37336187
 10
78.37232874
 20
9.28571242
 10
78.40976582
 20
9.20045397
 10
78.45040393
 20
9.11776322
 10
78.49415883
 20
9.03781156
 10
78.54093984
 20
8.9607647
 10
78.59064999
 20
8.88678234
 10
78.64318625
 20
8.81601782
 10
78.69843974
 20
8.7486178
 10
78.75629593
 20
8.68472199
 10
78.8166349
 20
8.62446281
 10
78.87933159
 20
8.56796516
 10
78.94425606
 20
8.51534614
 10
79.01127374
 20
8.46671482
 10
79.08024573
 20
8.42217199
 10
79.15102907
 20
8.38180997
 10
79.22347704
 20
8.34571242
 10
79.2974395
 20
8.31395415
 10
79.37276314
 20
8.286601
 10
79.44929184
 20
8.26370964
 10
79.52686699
 20
8.24532754
 10
79.6053278
 20
8.23149278
 10
79.68451164
 20
8.22223405
 10
79.76425441
 20
8.21757052
 10
79.84439081
 20
8.21751188
 10
79.92475475
 20
8.22205824
 10
80.00517967
 20
8.23120018
 10
80.08549887
 20
8.24491874
 10
80.16554588
 20
8.2631855
 10
80.24515479
 20
8.2859626
 10
80.3241606
 20
8.31320282
 10
80.40239955
 20
8.34484971
 10
80.47970949
 20
8.38083767
 10
80.55593018
 20
8.42109212
 10
80.63090364
 20
8.46552961
 10
80.70447447
 20
8.51405806
 10
80.77649019
 20
8.56657686
 10
80.84680153
 20
8.62297717
 10
80.91526277
 20
8.6831421
 10
80.981732
 20
8.74694694
 10
81.04607146
 20
8.81425944
 10
81.1081478
 20
8.88494009
 10
81.16783235
 20
8.9588424
 10
81.22500142
 20
9.03581319
 10
81.27953649
 20
9.11569292
 10
81.33132455
 20
9.19831604
 10
81.38025826
 20
9.28351129
 10
81.42623619
 20
9.37110209
 10
81.46916304
 20
9.46090691
 10
81.50894985
 20
9.55273959
 10
81.54551415
 20
9.64640982
 10
81.57878016
 20
9.74172343
 10
81.60867892
 20
9.83848289
 10
81.63514846
 20
9.93648764
 10
81.65813393
 20
10.03553454
 10
81.67758769
 20
10.13541832
1001
GRPNAME
1000
PASTMD0C
  0
LWPOLYLINE
  5
11F6
330
F4A
100
AcDbEntity
  8
241
  6
CONTINUOUS
100
AcDbPolyline
 90
       70
 70
     0
 43
0.0
 10
81.67758769
 20
10.13541832
 10
81.68835342
 20
10.20691779
 10
81.69552481
 20
10.27889892
 10
81.69908698
 20
10.3512125
 10
81.69903255
 20
10.42370867
 10
81.69536164
 20
10.49623715
 10
81.68808185
 20
10.56864763
 10
81.67720827
 20
10.64079002
 10
81.66276344
 20
10.7125148
 10
81.6447773
 20
10.78367331
 10
81.62328712
 20
10.85411805
 10
81.59833746
 20
10.92370303
 10
81.56998001
 20
10.99228401
 10
81.53827356
 20
11.05971886
 10
81.50328382
 20
11.12586779
 10
81.46508331
 20
11.19059372
 10
81.42375122
 20
11.25376248
 10
81.3793732
 20
11.31524315
 10
81.33204124
 20
11.37490829
 10
81.28185343
 20
11.43263426
 10
81.22891381
 20
11.48830139
 10
81.1733321
 20
11.54179431
 10
81.1152235
 20
11.59300214
 10
81.05470844
 20
11.64181876
 10
80.99191236
 20
11.68814298
 10
80.92696541
 20
11.73187879
 10
80.8600022
 20
11.77293554
 10
80.79116152
 20
11.81122813
 10
80.72058606
 20
11.84667719
 10
80.64842209
 20
11.87920926
 10
80.57481919
 20
11.9087569
 10
80.49992991
 20
11.93525887
 10
80.42390946
 20
11.95866024
 10
80.34691542
 20
11.97891252
 10
80.26910736
 20
11.99597371
 10
80.19064655
 20
12.00980847
 10
80.11169561
 20
12.02038811
 10
80.03241819
 20
12.02769072
 10
79.9529786
 20
12.03170114
 10
79.87354148
 20
12.03241108
 10
79.79427149
 20
12.02981906
 10
79.71533292
 20
12.02393045
 10
79.63688939
 20
12.01475745
 10
79.55910347
 20
12.00231909
 10
79.48213641
 20
11.98664113
 10
79.40614771
 20
11.96775608
 10
79.33129488
 20
11.94570307
 10
79.25773306
 20
11.92052783
 10
79.18561472
 20
11.89228251
 10
79.11508934
 20
11.86102567
 10
79.04630309
 20
11.8268221
 10
78.97939854
 20
11.78974268
 10
78.91451436
 20
11.74986426
 10
78.85178504
 20
11.70726951
 10
78.79134059
 20
11.6620467
 10
78.73330628
 20
11.61428957
 10
78.67780241
 20
11.5640971
 10
78.62494402
 20
11.51157332
 10
78.57484066
 20
11.45682709
 10
78.52759618
 20
11.39997189
 10
78.4833085
 20
11.34112556
 10
78.44206941
 20
11.28041006
 10
78.40396439
 20
11.21795123
 10
78.36907241
 20
11.15387854
 10
78.33746581
 20
11.08832478
 10
78.30921007
 20
11.02142583
 10
78.28436378
 20
10.95332033
 10
78.26297842
 20
10.88414946
 10
78.24509833
 20
10.81405657
 10
78.23076055
 20
10.74318694
1001
GRPNAME
1000
PASTMD0C
  0
LINE
  5
11F7
330
F4A
100
AcDbEntity
  8
240
  6
CONTINUOUS
100
AcDbLine
 10
72.35358982
 20
15.4
 30
0.0
 11
49.04491213
 21
15.4
 31
0.0
1001
GRPNAME
1000
PASTMD0C
  0
ARC
  5
11F8
330
F4A
100
AcDbEntity
  8
240
  6
CONTINUOUS
100
AcDbCircle
 10
81.88340517
 20
108.34952621
 30
0.0
 40
100.0
100
AcDbArc
 50
238.32580275
 51
245.76493566
1001
GRPNAME
1000
PASTMD0D
  0
LINE
  5
11F9
330
F4A
100
AcDbEntity
  8
240
  6
CONTINUOUS
100
AcDbLine
 10
18.71324865
 20
26.5
 30
0.0
 11
14.48675135
 21
26.5
 31
0.0
  0
LINE
  5
11FA
330
F4A
100
AcDbEntity
  8
240
  6
CONTINUOUS
100
AcDbLine
 10
2.0
 20
31.5
 30
0.0
 11
11.6
 21
31.5
 31
0.0
  0
LINE
  5
11FB
330
F4A
100
AcDbEntity
  8
240
  6
CONTINUOUS
100
AcDbLine
 10
11.6
 20
31.5
 30
0.0
 11
14.48675135
 21
26.5
 31
0.0
  0
ARC
  5
11FC
330
F4A
100
AcDbEntity
  8
240
  6
CONTINUOUS
100
AcDbCircle
 10
32.0
 20
27.5
 30
0.0
 40
5.0
100
AcDbArc
 50
179.99999999
 51
238.32584787
1001
GRPNAME
1000
PASTMD0D
  0
LINE
  5
11FD
330
F4A
100
AcDbEntity
  8
241
  6
HIDDEN2
100
AcDbLine
 10
23.0
 20
22.5
 30
0.0
 11
23.0
 21
31.5
 31
0.0
  0
LINE
  5
11FE
330
F4A
100
AcDbEntity
  8
240
  6
CONTINUOUS
100
AcDbLine
 10
21.6
 20
31.5
 30
0.0
 11
26.0
 21
31.5
 31
0.0
  0
LINE
  5
11FF
330
F4A
100
AcDbEntity
  8
240
  6
CONTINUOUS
100
AcDbLine
 10
21.6
 20
31.5
 30
0.0
 11
18.71324865
 21
26.5
 31
0.0
  0
LINE
  5
1200
330
F4A
100
AcDbEntity
  8
240
  6
CONTINUOUS
100
AcDbLine
 10
27.0
 20
30.5
 30
0.0
 11
27.0
 21
27.5
 31
0.0
  0
ARC
  5
1201
330
F4A
100
AcDbEntity
  8
240
  6
CONTINUOUS
100
AcDbCircle
 10
26.0
 20
30.5
 30
0.0
 40
1.0
100
AcDbArc
 50
0.0
 51
90.0
  0
ARC
  5
1202
330
F4A
100
AcDbEntity
  8
240
  6
CONTINUOUS
100
AcDbCircle
 10
49.04491213
 20
35.4
 30
0.0
 40
20.00000000000001
100
AcDbArc
 50
245.76493567
 51
269.99999997
1001
GRPNAME
1000
PASTMD0D
  0
LINE
  5
1203
330
F4A
100
AcDbEntity
  8
240
  6
CONTINUOUS
100
AcDbLine
 10
72.35358982
 20
15.4
 30
0.0
 11
73.10000003
 21
15.6
 31
0.0
1001
GRPNAME
1000
PASTMD0C
  0
LINE
  5
1204
330
F4A
100
AcDbEntity
  8
246
100
AcDbLine
 10
85.0
 20
16.0
 30
0.0
 11
74.0
 21
16.0
 31
0.0
  0
LINE
  5
1205
330
F4A
100
AcDbEntity
  8
240
  6
CONTINUOUS
100
AcDbLine
 10
84.4
 20
15.3
 30
0.0
 11
73.10000003
 21
15.6
 31
0.0
1001
GRPNAME
1000
PASTMD0C
  0
ENDBLK
  5
F4C
330
F4A
100
AcDbEntity
  8
0
100
AcDbBlockEnd
  0
ENDSEC
  0
SECTION
  2
ENTITIES
  0
TEXT
  5
D78
330
1A
100
AcDbEntity
  8
241
100
AcDbText
 10
-65.4
 20
56.0
 30
0.0
 40
5.0
  1
BBT40-FCM32113-85
  7
YOKO
 11
-65.4
 21
56.0
 31
0.0
100
AcDbText
 73
     1
  0
DIMENSION
  5
EF9
330
1A
100
AcDbEntity
  8
250
  6
CONTINUOUS
100
AcDbDimension
  2
*D1
 10
98.0
 20
16.0
 30
0.0
 11
95.25
 21
0.0
 31
0.0
 70
    32
  1
{\H3.5;\U+2205}<>
  3
BIGT
100
AcDbAlignedDimension
 13
85.0
 23
-16.0
 33
0.0
 14
85.0
 24
16.0
 34
0.0
 50
90.0
100
AcDbRotatedDimension
  0
DIMENSION
  5
F08
330
1A
100
AcDbEntity
  8
250
  6
CONTINUOUS
100
AcDbDimension
  2
*D2
 10
85.0
 20
28.0
 30
0.0
 11
79.5
 21
30.75
 31
0.0
 70
    32
  3
BIGT
100
AcDbAlignedDimension
 13
74.0
 23
16.0
 33
0.0
 14
85.0
 24
16.0
 34
0.0
100
AcDbRotatedDimension
  0
DIMENSION
  5
F17
330
1A
100
AcDbEntity
  8
250
  6
CONTINUOUS
100
AcDbDimension
  2
*D3
 10
85.0
 20
35.0
 30
0.0
 11
66.0
 21
37.75
 31
0.0
 70
    32
  3
BIGT
100
AcDbAlignedDimension
 13
47.0
 23
15.5048163
 33
0.0
 14
85.0
 24
16.0
 34
0.0
100
AcDbRotatedDimension
  0
DIMENSION
  5
F26
330
1A
100
AcDbEntity
  8
250
  6
CONTINUOUS
100
AcDbDimension
  2
*D4
 10
85.0
 20
42.0
 30
0.0
 11
42.5
 21
44.75
 31
0.0
 70
    32
  3
BIGT
100
AcDbAlignedDimension
 13
0.0
 23
22.225
 33
0.0
 14
85.0
 24
16.0
 34
0.0
100
AcDbRotatedDimension
  0
LEADER
  5
10A4
330
1A
100
AcDbEntity
  8
250
  6
CONTINUOUS
100
AcDbLeader
  3
BIGT
 76
     2
 10
-26.64442081
 20
-18.3393553
 30
0.0
 10
-32.4583971
 20
-28.40945762
 30
0.0
1001
ACAD
1000
DSTYLE
1002
{
1070
     5
1000
OPEN
1070
   342
1005
594
1070
   343
1005
594
1002
}
  0
MTEXT
  5
10A5
330
1A
100
AcDbEntity
  8
250
  6
CONTINUOUS
 62
    40
100
AcDbMText
 10
-47.39173044
 20
-27.40945762
 30
0.0
 40
2.8
 41
0.0
 71
     7
 72
     1
  1
BBT40
  7
YOKO
1001
ITEMNAME
1000
LNSP3
1001
ACAD
1000
MTEXTBEGIN
1070
    73
1070
     1
1070
    44
1040
1.0
1070
    74
1070
     0
1000
MTEXTEND
1000
MTEXTBEGIN
1070
    73
1070
     1
1070
    44
1040
1.0
1070
    74
1070
     0
1000
MTEXTEND
1000
MTEXTBEGIN
1070
    73
1070
     1
1070
    44
1040
1.0
1070
    74
1070
     0
1000
MTEXTEND
  0
LINE
  5
10A8
330
1A
100
AcDbEntity
  8
250
  6
CONTINUOUS
100
AcDbLine
 10
-32.4583971
 20
-28.40945762
 30
0.0
 11
-50.19173044
 21
-28.40945762
 31
0.0
1001
ITEMNAME
1000
LNSP2
  0
INSERT
  5
1206
330
1A
100
AcDbEntity
  8
240
100
AcDbBlockReference
  2
1
 10
0.0
 20
0.0
 30
0.0
  0
VIEWPORT
  5
22
330
17
100
AcDbEntity
 67
     1
  8
0
100
AcDbViewport
 10
261.51769912
 20
148.5
 30
0.0
 40
523.03539823
 41
297.0
 68
     1
 69
     1
1001
ACAD
1000
MVIEW
1002
{
1070
    16
1010
0.0
1020
0.0
1030
0.0
1010
0.0
1020
0.0
1030
1.0
1040
0.0
1040
297.0
1040
261.51769912
1040
148.5
1040
50.0
1040
0.0
1040
0.0
1070
     0
1070
   100
1070
     1
1070
     1
1070
     0
1070
     0
1070
     0
1070
     0
1040
0.0
1040
0.0
1040
0.0
1040
1.0
1040
1.0
1040
10.0
1040
10.0
1070
     0
1002
{
1002
}
1002
}
  0
ENDSEC
  0
SECTION
  2
OBJECTS
  0
DICTIONARY
  5
C
330
0
100
AcDbDictionary
  3
ACAD_GROUP
350
D
  3
ACAD_LAYOUT
350
565
  3
ACAD_MLINESTYLE
350
E
  3
ACAD_PLOTSETTINGS
350
566
  3
ACAD_PLOTSTYLENAME
350
563
  3
ACDBHEADERROUNDTRIPXREC
350
122F
  3
ACDBVARIABLEDICTIONARY
350
E00
  3
GRADE_DWG
350
540
  0
DICTIONARY
  5
E2B
330
1A
100
AcDbDictionary
280
     1
  3
ACAD_LAYOUTSELFREF
360
1251
  0
DICTIONARY
  5
E29
330
17
100
AcDbDictionary
280
     1
  3
ACAD_LAYOUTSELFREF
360
1250
  0
DICTIONARY
  5
D
102
{ACAD_REACTORS
330
C
102
}
330
C
100
AcDbDictionary
  3
ASTMD0C-1
350
9B7
  3
ASTMD0D-1
350
9B5
  3
DREC-1
350
5FC
  3
DREC-2
350
654
  3
DREC-3
350
673
  3
LNSP-1
350
B72
  3
M10000D-1
350
9BB
  3
M10000E-1
350
9B9
  3
M10000F-1
350
9B3
  0
DICTIONARY
  5
565
102
{ACAD_REACTORS
330
C
102
}
330
C
100
AcDbDictionary
  0
DICTIONARY
  5
E
102
{ACAD_REACTORS
330
C
102
}
330
C
100
AcDbDictionary
  3
STANDARD
350
13
  0
DICTIONARY
  5
566
102
{ACAD_REACTORS
330
C
102
}
330
C
100
AcDbDictionary
  0
ACDBDICTIONARYWDFLT
  5
563
102
{ACAD_REACTORS
330
C
102
}
330
C
100
AcDbDictionary
281
     1
  3
Normal
350
564
100
AcDbDictionaryWithDefault
340
564
  0
DICTIONARY
  5
122F
102
{ACAD_REACTORS
330
C
102
}
330
C
100
AcDbDictionary
  3
CEPSNTYPE
350
1239
  3
DIMSTYLEDATA
350
123D
  3
FINGERPRINTGUID
350
123A
  3
HYPERLINKBASE
350
1232
  3
INSUNITS
350
1238
  3
LAYOUTDICT
350
1234
  3
LWETCUNION
350
1237
  3
PLOTSETDICT
350
1235
  3
PLOTSTYLNAMDICT
350
1236
  3
PSVPSCALE
350
123C
  3
PUCSBASE
350
1240
  3
PUCSORGBACK
350
1246
  3
PUCSORGBOTTOM
350
1242
  3
PUCSORGFRONT
350
1245
  3
PUCSORGLEFT
350
1243
  3
PUCSORGRIGHT
350
1244
  3
PUCSORGTOP
350
1241
  3
PUCSORTHOREF
350
123E
  3
PUCSORTHOVIEW
350
123F
  3
STYLESHEET
350
1233
  3
TSTACKALIGN
350
1230
  3
TSTACKSIZE
350
1231
  3
UCSBASE
350
1249
  3
UCSORGBACK
350
124F
  3
UCSORGBOTTOM
350
124B
  3
UCSORGFRONT
350
124E
  3
UCSORGLEFT
350
124C
  3
UCSORGRIGHT
350
124D
  3
UCSORGTOP
350
124A
  3
UCSORTHOREF
350
1247
  3
UCSORTHOVIEW
350
1248
  3
VERSIONGUID
350
123B
  0
DICTIONARY
  5
E00
102
{ACAD_REACTORS
330
C
102
}
330
C
100
AcDbDictionary
  3
DIMASSOC
350
E01
  0
DICTIONARY
  5
540
102
{ACAD_REACTORS
330
C
102
}
330
C
100
AcDbDictionary
  3
VERSION
350
560
  0
XRECORD
  5
1251
102
{ACAD_REACTORS
330
E2B
102
}
330
E2B
100
AcDbXrecord
340
1A
  0
XRECORD
  5
1250
102
{ACAD_REACTORS
330
E29
102
}
330
E29
100
AcDbXrecord
340
17
  0
GROUP
  5
9B7
102
{ACAD_REACTORS
330
D
102
}
330
D
100
AcDbGroup
300

 70
     0
 71
     1
1001
GRPNAME
1000
PASTMD0C
  0
GROUP
  5
9B5
102
{ACAD_REACTORS
330
D
102
}
330
D
100
AcDbGroup
300

 70
     0
 71
     1
1001
GRPNAME
1000
PASTMD0D
  0
GROUP
  5
5FC
102
{ACAD_REACTORS
330
D
102
}
330
D
100
AcDbGroup
300

 70
     0
 71
     1
1001
GRPNAME
1000
DREC-
1001
GPARA
1000
xsiz
1000
44.182
1000
ysiz
1000
40.677
1000
angl
1000
0
1000
ctyp
1000
0
1000
csiz
1000
5
1000
lfnt
1000
cont
1000
hcnt
1000
hoff
1000
vcnt
1000
voff
1000
opnt
1000
4
1000
dxpt
1000
0
1000
dypt
1000
0
  0
GROUP
  5
654
102
{ACAD_REACTORS
330
D
102
}
330
D
100
AcDbGroup
300

 70
     0
 71
     1
1001
GRPNAME
1000
DREC-
1001
GPARA
1000
xsiz
1000
54.592
1000
ysiz
1000
53.036
1000
angl
1000
0
1000
ctyp
1000
0
1000
csiz
1000
5
1000
lfnt
1000
cont
1000
hcnt
1000
hoff
1000
vcnt
1000
voff
1000
opnt
1000
4
1000
dxpt
1000
0
1000
dypt
1000
0
  0
GROUP
  5
673
102
{ACAD_REACTORS
330
D
102
}
330
D
100
AcDbGroup
300

 70
     0
 71
     1
1001
GRPNAME
1000
DREC-
1001
GPARA
1000
xsiz
1000
30.363
1000
ysiz
1000
36.175
1000
angl
1000
0
1000
ctyp
1000
0
1000
csiz
1000
5
1000
lfnt
1000
cont
1000
hcnt
1000
hoff
1000
vcnt
1000
voff
1000
opnt
1000
4
1000
dxpt
1000
0
1000
dypt
1000
0
  0
GROUP
  5
B72
102
{ACAD_REACTORS
330
D
102
}
330
D
100
AcDbGroup
300

 70
     0
 71
     1
1001
GRPNAME
1000
LNSP
  0
GROUP
  5
9BB
102
{ACAD_REACTORS
330
D
102
}
330
D
100
AcDbGroup
300

 70
     0
 71
     1
1001
GRPNAME
1000
DM10000D
  0
GROUP
  5
9B9
102
{ACAD_REACTORS
330
D
102
}
330
D
100
AcDbGroup
300

 70
     0
 71
     1
1001
GRPNAME
1000
DM10000E
  0
GROUP
  5
9B3
102
{ACAD_REACTORS
330
D
102
}
330
D
100
AcDbGroup
300

 70
     0
 71
     1
1001
GRPNAME
1000
DM10000F
  0
MLINESTYLE
  5
13
102
{ACAD_REACTORS
330
E
102
}
330
E
100
AcDbMlineStyle
  2
STANDARD
 70
     0
  3

 62
     0
 51
90.0
 52
90.0
 71
     2
 49
0.5
 62
   256
  6
BYLAYER
 49
-0.5
 62
   256
  6
BYLAYER
  0
ACDBPLACEHOLDER
  5
564
102
{ACAD_REACTORS
330
563
102
}
330
563
100
AcDbPlaceHolder
280
     0
  0
XRECORD
  5
1239
102
{ACAD_REACTORS
330
122F
102
}
330
122F
100
AcDbXrecord
 90
        0
  0
XRECORD
  5
123D
102
{ACAD_REACTORS
330
122F
102
}
330
122F
100
AcDbXrecord
1000
DSTYLE
1002
{
1070
   341
340
594
1070
   342
340
594
1002
}
  0
XRECORD
  5
123A
102
{ACAD_REACTORS
330
122F
102
}
330
122F
100
AcDbXrecord
  1
{51294030-9CB4-11D3-8E18-00A0C925D94D}
  0
XRECORD
  5
1232
102
{ACAD_REACTORS
330
122F
102
}
330
122F
100
AcDbXrecord
  1

  0
XRECORD
  5
1238
102
{ACAD_REACTORS
330
122F
102
}
330
122F
100
AcDbXrecord
 90
        0
  0
XRECORD
  5
1234
102
{ACAD_REACTORS
330
122F
102
}
330
122F
100
AcDbXrecord
340
565
  0
XRECORD
  5
1237
102
{ACAD_REACTORS
330
122F
102
}
330
122F
100
AcDbXrecord
 90
    10781
  0
XRECORD
  5
1235
102
{ACAD_REACTORS
330
122F
102
}
330
122F
100
AcDbXrecord
340
566
  0
XRECORD
  5
1236
102
{ACAD_REACTORS
330
122F
102
}
330
122F
100
AcDbXrecord
340
563
  0
XRECORD
  5
123C
102
{ACAD_REACTORS
330
122F
102
}
330
122F
100
AcDbXrecord
 40
0.0
  0
XRECORD
  5
1240
102
{ACAD_REACTORS
330
122F
102
}
330
122F
100
AcDbXrecord
340
0
  0
XRECORD
  5
1246
102
{ACAD_REACTORS
330
122F
102
}
330
122F
100
AcDbXrecord
 10
0.0
 20
0.0
 30
0.0
  0
XRECORD
  5
1242
102
{ACAD_REACTORS
330
122F
102
}
330
122F
100
AcDbXrecord
 10
0.0
 20
0.0
 30
0.0
  0
XRECORD
  5
1245
102
{ACAD_REACTORS
330
122F
102
}
330
122F
100
AcDbXrecord
 10
0.0
 20
0.0
 30
0.0
  0
XRECORD
  5
1243
102
{ACAD_REACTORS
330
122F
102
}
330
122F
100
AcDbXrecord
 10
0.0
 20
0.0
 30
0.0
  0
XRECORD
  5
1244
102
{ACAD_REACTORS
330
122F
102
}
330
122F
100
AcDbXrecord
 10
0.0
 20
0.0
 30
0.0
  0
XRECORD
  5
1241
102
{ACAD_REACTORS
330
122F
102
}
330
122F
100
AcDbXrecord
 10
0.0
 20
0.0
 30
0.0
  0
XRECORD
  5
123E
102
{ACAD_REACTORS
330
122F
102
}
330
122F
100
AcDbXrecord
340
0
  0
XRECORD
  5
123F
102
{ACAD_REACTORS
330
122F
102
}
330
122F
100
AcDbXrecord
 70
     0
  0
XRECORD
  5
1233
102
{ACAD_REACTORS
330
122F
102
}
330
122F
100
AcDbXrecord
  1
big.ctb
  0
XRECORD
  5
1230
102
{ACAD_REACTORS
330
122F
102
}
330
122F
100
AcDbXrecord
 90
        1
  0
XRECORD
  5
1231
102
{ACAD_REACTORS
330
122F
102
}
330
122F
100
AcDbXrecord
 90
       70
  0
XRECORD
  5
1249
102
{ACAD_REACTORS
330
122F
102
}
330
122F
100
AcDbXrecord
340
0
  0
XRECORD
  5
124F
102
{ACAD_REACTORS
330
122F
102
}
330
122F
100
AcDbXrecord
 10
0.0
 20
0.0
 30
0.0
  0
XRECORD
  5
124B
102
{ACAD_REACTORS
330
122F
102
}
330
122F
100
AcDbXrecord
 10
0.0
 20
0.0
 30
0.0
  0
XRECORD
  5
124E
102
{ACAD_REACTORS
330
122F
102
}
330
122F
100
AcDbXrecord
 10
0.0
 20
0.0
 30
0.0
  0
XRECORD
  5
124C
102
{ACAD_REACTORS
330
122F
102
}
330
122F
100
AcDbXrecord
 10
0.0
 20
0.0
 30
0.0
  0
XRECORD
  5
124D
102
{ACAD_REACTORS
330
122F
102
}
330
122F
100
AcDbXrecord
 10
0.0
 20
0.0
 30
0.0
  0
XRECORD
  5
124A
102
{ACAD_REACTORS
330
122F
102
}
330
122F
100
AcDbXrecord
 10
0.0
 20
0.0
 30
0.0
  0
XRECORD
  5
1247
102
{ACAD_REACTORS
330
122F
102
}
330
122F
100
AcDbXrecord
340
0
  0
XRECORD
  5
1248
102
{ACAD_REACTORS
330
122F
102
}
330
122F
100
AcDbXrecord
 70
     0
  0
XRECORD
  5
123B
102
{ACAD_REACTORS
330
122F
102
}
330
122F
100
AcDbXrecord
  1
{B996241F-6D9B-47D6-ABAD-7CDC6FEAC47B}
  0
DICTIONARYVAR
  5
E01
102
{ACAD_REACTORS
330
E00
102
}
330
E00
100
DictionaryVariables
280
     0
  1
1
  0
XRECORD
  5
560
102
{ACAD_REACTORS
330
540
102
}
330
540
100
AcDbXrecord
  1
2.0.0
  0
ENDSEC
  0
EOF
