  0
SECTION
  2
HEADER
  9
$ACADVER
  1
AC1014
  9
$ACADMAINTVER
 70
     9
  9
$DWGCODEPAGE
  3
ANSI_932
  9
$INSBASE
 10
0.0
 20
0.0
 30
0.0
  9
$EXTMIN
 10
-66.41108924
 20
-31.71448253
 30
-0.00152582
  9
$EXTMAX
 10
148.01575995
 20
61.00580331
 30
0.00000003
  9
$LIMMIN
 10
0.0
 20
0.0
  9
$LIMMAX
 10
297.0
 20
210.0
  9
$ORTHOMODE
 70
     0
  9
$REGENMODE
 70
     1
  9
$FILLMODE
 70
     1
  9
$QTEXTMODE
 70
     0
  9
$MIRRTEXT
 70
     1
  9
$DRAGMODE
 70
     2
  9
$LTSCALE
 40
10.0
  9
$OSMODE
 70
   549
  9
$ATTMODE
 70
     1
  9
$TEXTSIZE
 40
3.0
  9
$TRACEWID
 40
1.0
  9
$TEXTSTYLE
  7
YOKO
  9
$CLAYER
  8
240
  9
$CELTYPE
  6
BYLAYER
  9
$CECOLOR
 62
   256
  9
$CELTSCALE
 40
1.0
  9
$DELOBJ
 70
     1
  9
$DISPSILH
 70
     0
  9
$DIMSCALE
 40
1.0
  9
$DIMASZ
 40
2.0
  9
$DIMEXO
 40
2.0
  9
$DIMDLI
 40
2.5
  9
$DIMRND
 40
0.0
  9
$DIMDLE
 40
0.0
  9
$DIMEXE
 40
2.0
  9
$DIMTP
 40
0.0
  9
$DIMTM
 40
0.0
  9
$DIMTXT
 40
4.0
  9
$DIMCEN
 40
0.0
  9
$DIMTSZ
 40
0.0
  9
$DIMTOL
 70
     0
  9
$DIMLIM
 70
     0
  9
$DIMTIH
 70
     0
  9
$DIMTOH
 70
     0
  9
$DIMSE1
 70
     0
  9
$DIMSE2
 70
     0
  9
$DIMTAD
 70
     3
  9
$DIMZIN
 70
     8
  9
$DIMBLK
  1
OPEN
  9
$DIMASO
 70
     1
  9
$DIMSHO
 70
     1
  9
$DIMPOST
  1

  9
$DIMAPOST
  1

  9
$DIMALT
 70
     0
  9
$DIMALTD
 70
     2
  9
$DIMALTF
 40
25.4
  9
$DIMLFAC
 40
1.0
  9
$DIMTOFL
 70
     1
  9
$DIMTVP
 40
0.0
  9
$DIMTIX
 70
     0
  9
$DIMSOXD
 70
     0
  9
$DIMSAH
 70
     0
  9
$DIMBLK1
  1

  9
$DIMBLK2
  1

  9
$DIMSTYLE
  2
BIGT
  9
$DIMCLRD
 70
   256
  9
$DIMCLRE
 70
   256
  9
$DIMCLRT
 70
    40
  9
$DIMTFAC
 40
1.0
  9
$DIMGAP
 40
1.0
  9
$DIMJUST
 70
     0
  9
$DIMSD1
 70
     0
  9
$DIMSD2
 70
     0
  9
$DIMTOLJ
 70
     1
  9
$DIMTZIN
 70
     8
  9
$DIMALTZ
 70
     0
  9
$DIMALTTZ
 70
     0
  9
$DIMFIT
 70
     3
  9
$DIMUPT
 70
     0
  9
$DIMUNIT
 70
     2
  9
$DIMDEC
 70
     3
  9
$DIMTDEC
 70
     3
  9
$DIMALTU
 70
     2
  9
$DIMALTTD
 70
     2
  9
$DIMTXSTY
  7
STANDARD
  9
$DIMAUNIT
 70
     0
  9
$LUNITS
 70
     2
  9
$LUPREC
 70
     3
  9
$SKETCHINC
 40
1.0
  9
$FILLETRAD
 40
1.6
  9
$AUNITS
 70
     0
  9
$AUPREC
 70
     3
  9
$MENU
  1
.
  9
$ELEVATION
 40
0.0
  9
$PELEVATION
 40
0.0
  9
$THICKNESS
 40
0.0
  9
$LIMCHECK
 70
     0
  9
$BLIPMODE
 70
     0
  9
$CHAMFERA
 40
10.0
  9
$CHAMFERB
 40
10.0
  9
$CHAMFERC
 40
0.0
  9
$CHAMFERD
 40
0.0
  9
$SKPOLY
 70
     0
  9
$TDCREATE
 40
2452356.661483646
  9
$TDUPDATE
 40
2455377.609853507
  9
$TDINDWG
 40
0.0678459375
  9
$TDUSRTIMER
 40
0.0678459375
  9
$USRTIMER
 70
     1
  9
$ANGBASE
 50
0.0
  9
$ANGDIR
 70
     0
  9
$PDMODE
 70
     1
  9
$PDSIZE
 40
-5.0
  9
$PLINEWID
 40
0.0
  9
$COORDS
 70
     0
  9
$SPLFRAME
 70
     0
  9
$SPLINETYPE
 70
     6
  9
$SPLINESEGS
 70
     8
  9
$ATTDIA
 70
     0
  9
$ATTREQ
 70
     1
  9
$HANDLING
 70
-16383
  9
$HANDSEED
  5
17C6
  9
$SURFTAB1
 70
     6
  9
$SURFTAB2
 70
     6
  9
$SURFTYPE
 70
     6
  9
$SURFU
 70
     6
  9
$SURFV
 70
     6
  9
$UCSNAME
  2

  9
$UCSORG
 10
0.0
 20
0.0
 30
0.0
  9
$UCSXDIR
 10
1.0
 20
0.0
 30
0.0
  9
$UCSYDIR
 10
0.0
 20
1.0
 30
0.0
  9
$PUCSNAME
  2

  9
$PUCSORG
 10
0.0
 20
0.0
 30
0.0
  9
$PUCSXDIR
 10
1.0
 20
0.0
 30
0.0
  9
$PUCSYDIR
 10
0.0
 20
1.0
 30
0.0
  9
$USERI1
 70
     1
  9
$USERI2
 70
     0
  9
$USERI3
 70
     0
  9
$USERI4
 70
     0
  9
$USERI5
 70
     0
  9
$USERR1
 40
0.0
  9
$USERR2
 40
0.0
  9
$USERR3
 40
0.0
  9
$USERR4
 40
0.0
  9
$USERR5
 40
0.0
  9
$WORLDVIEW
 70
     1
  9
$SHADEDGE
 70
     3
  9
$SHADEDIF
 70
    70
  9
$TILEMODE
 70
     1
  9
$MAXACTVP
 70
    16
  9
$PINSBASE
 10
0.0
 20
0.0
 30
0.0
  9
$PLIMCHECK
 70
     0
  9
$PEXTMIN
 10
1.00000000E+20
 20
1.00000000E+20
 30
1.00000000E+20
  9
$PEXTMAX
 10
-1.00000000E+20
 20
-1.00000000E+20
 30
-1.00000000E+20
  9
$PLIMMIN
 10
0.0
 20
0.0
  9
$PLIMMAX
 10
420.0
 20
297.0
  9
$UNITMODE
 70
     0
  9
$VISRETAIN
 70
     0
  9
$PLINEGEN
 70
     0
  9
$PSLTSCALE
 70
     1
  9
$TREEDEPTH
 70
  3020
  9
$PICKSTYLE
 70
     0
  9
$CMLSTYLE
  2
STANDARD
  9
$CMLJUST
 70
     0
  9
$CMLSCALE
 40
1.0
  9
$PROXYGRAPHICS
 70
     1
  9
$MEASUREMENT
 70
     1
  0
ENDSEC
  0
SECTION
  2
CLASSES
  0
CLASS
  1
XRECORD
  2
AcDbXrecord
  3
AutoCAD 2000
 90
        0
280
     0
281
     0
  0
CLASS
  1
ACDBDICTIONARYWDFLT
  2
AcDbDictionaryWithDefault
  3
AutoCAD 2000
 90
        0
280
     0
281
     0
  0
CLASS
  1
ACDBPLACEHOLDER
  2
AcDbPlaceHolder
  3
AutoCAD 2000
 90
        0
280
     0
281
     0
  0
CLASS
  1
LAYOUT
  2
AcDbLayout
  3
AutoCAD 2000
 90
        0
280
     0
281
     0
  0
CLASS
  1
DICTIONARYVAR
  2
AcDbDictionaryVar
  3
AutoCAD 2000
 90
        0
280
     0
281
     0
  0
CLASS
  1
LONG_TRANSACTION
  2
AcDbLongTransaction
  3
AutoCAD 2000
 90
        0
280
     0
281
     0
  0
CLASS
  1
LWPOLYLINE
  2
AcDbPolyline
  3
AutoCAD 2000
 90
        0
280
     0
281
     1
  0
CLASS
  1
HATCH
  2
AcDbHatch
  3
AutoCAD 2000
 90
        0
280
     0
281
     1
  0
CLASS
  1
XRECORD
  2
AcDbXrecord
  3
AutoCAD 2000
 90
        0
280
     0
281
     0
  0
CLASS
  1
LONG_TRANSACTION
  2
AcDbLongTransaction
  3
AutoCAD 2000
 90
        0
280
     0
281
     0
  0
CLASS
  1
LWPOLYLINE
  2
AcDbPolyline
  3
AutoCAD 2000
 90
        0
280
     0
281
     1
  0
CLASS
  1
HATCH
  2
AcDbHatch
  3
AutoCAD 2000
 90
        0
280
     0
281
     1
  0
CLASS
  1
XRECORD
  2
AcDbXrecord
  3
AutoCAD 2000
 90
        0
280
     0
281
     0
  0
CLASS
  1
LONG_TRANSACTION
  2
AcDbLongTransaction
  3
AutoCAD 2000
 90
        0
280
     0
281
     0
  0
CLASS
  1
LWPOLYLINE
  2
AcDbPolyline
  3
AutoCAD 2000
 90
        0
280
     0
281
     1
  0
CLASS
  1
HATCH
  2
AcDbHatch
  3
AutoCAD 2000
 90
        0
280
     0
281
     1
  0
CLASS
  1
XRECORD
  2
AcDbXrecord
  3
AutoCAD 2000
 90
        0
280
     0
281
     0
  0
CLASS
  1
LONG_TRANSACTION
  2
AcDbLongTransaction
  3
AutoCAD 2000
 90
        0
280
     0
281
     0
  0
CLASS
  1
LWPOLYLINE
  2
AcDbPolyline
  3
AutoCAD 2000
 90
        0
280
     0
281
     1
  0
CLASS
  1
HATCH
  2
AcDbHatch
  3
AutoCAD 2000
 90
        0
280
     0
281
     1
  0
CLASS
  1
XRECORD
  2
AcDbXrecord
  3
AutoCAD 2000
 90
        0
280
     0
281
     0
  0
CLASS
  1
LONG_TRANSACTION
  2
AcDbLongTransaction
  3
AutoCAD 2000
 90
        0
280
     0
281
     0
  0
CLASS
  1
LWPOLYLINE
  2
AcDbPolyline
  3
AutoCAD 2000
 90
        0
280
     0
281
     1
  0
CLASS
  1
HATCH
  2
AcDbHatch
  3
AutoCAD 2000
 90
        0
280
     0
281
     1
  0
CLASS
  1
XRECORD
  2
AcDbXrecord
  3
AutoCAD 2000
 90
        0
280
     0
281
     0
  0
ENDSEC
  0
SECTION
  2
TABLES
  0
TABLE
  2
VPORT
  5
8
330
0
100
AcDbSymbolTable
 70
     4
  0
VPORT
  5
17A1
330
8
100
AcDbSymbolTableRecord
100
AcDbViewportTableRecord
  2
*ACTIVE
 70
     0
 10
0.0
 20
0.0
 11
1.0
 21
1.0
 12
40.80233535
 22
14.64566039
 13
0.0
 23
0.0
 14
7.0
 24
7.0
 15
7.0
 25
7.0
 16
0.0
 26
0.0
 36
1.0
 17
0.0
 27
0.0
 37
0.0
 40
148.06053088
 41
1.45595855
 42
50.0
 43
0.0
 44
0.0
 50
0.0
 51
0.0
 71
     0
 72
  2000
 73
     1
 74
     0
 75
     0
 76
     0
 77
     0
 78
     0
  0
ENDTAB
  0
TABLE
  2
LTYPE
  5
5
330
0
100
AcDbSymbolTable
 70
     4
  0
LTYPE
  5
14
330
5
100
AcDbSymbolTableRecord
100
AcDbLinetypeTableRecord
  2
BYBLOCK
 70
     0
  3

 72
    65
 73
     0
 40
0.0
  0
LTYPE
  5
15
330
5
100
AcDbSymbolTableRecord
100
AcDbLinetypeTableRecord
  2
BYLAYER
 70
     0
  3

 72
    65
 73
     0
 40
0.0
  0
LTYPE
  5
16
330
5
100
AcDbSymbolTableRecord
100
AcDbLinetypeTableRecord
  2
CONTINUOUS
 70
     0
  3
Solid line
 72
    65
 73
     0
 40
0.0
  0
LTYPE
  5
258
330
5
100
AcDbSymbolTableRecord
100
AcDbLinetypeTableRecord
  2
CENTER2
 70
     0
  3
___ _ ___ _ ___ _ ___ _ ___ _ ___ _ ___ _ ___ _
 72
    65
 73
     4
 40
1.125
 49
0.75
 74
     0
 49
-0.125
 74
     0
 49
0.125
 74
     0
 49
-0.125
 74
     0
  0
LTYPE
  5
25C
330
5
100
AcDbSymbolTableRecord
100
AcDbLinetypeTableRecord
  2
HIDDEN2
 70
     0
  3
_ _ _ _ _ _ _ _ _ _ _ _ _ _ _ _ _ _ _ _ _ _ _ _
 72
    65
 73
     2
 40
0.1875
 49
0.125
 74
     0
 49
-0.0625
 74
     0
  0
LTYPE
  5
25D
330
5
100
AcDbSymbolTableRecord
100
AcDbLinetypeTableRecord
  2
PHANTOM2
 70
     0
  3
___ _ _ ___ _ _ ___ _ _ ___ _ _ ___ _ _ ___ _ _
 72
    65
 73
     6
 40
1.25
 49
0.625
 74
     0
 49
-0.125
 74
     0
 49
0.125
 74
     0
 49
-0.125
 74
     0
 49
0.125
 74
     0
 49
-0.125
 74
     0
  0
ENDTAB
  0
TABLE
  2
LAYER
  5
2
330
0
100
AcDbSymbolTable
 70
     8
  0
LAYER
  5
F
330
2
100
AcDbSymbolTableRecord
100
AcDbLayerTableRecord
  2
0
 70
     0
 62
     7
  6
CONTINUOUS
  0
LAYER
  5
1AA
330
2
100
AcDbSymbolTableRecord
100
AcDbLayerTableRecord
  2
240
 70
     0
 62
     4
  6
CONTINUOUS
  0
LAYER
  5
1AB
330
2
100
AcDbSymbolTableRecord
100
AcDbLayerTableRecord
  2
241
 70
     0
 62
   211
  6
CONTINUOUS
  0
LAYER
  5
1AF
330
2
100
AcDbSymbolTableRecord
100
AcDbLayerTableRecord
  2
245
 70
     0
 62
     2
  6
CENTER2
  0
LAYER
  5
21A
330
2
100
AcDbSymbolTableRecord
100
AcDbLayerTableRecord
  2
246
 70
     0
 62
     3
  6
PHANTOM2
  0
LAYER
  5
21E
330
2
100
AcDbSymbolTableRecord
100
AcDbLayerTableRecord
  2
250
 70
     0
 62
     3
  6
CONTINUOUS
  0
LAYER
  5
5C4
330
2
100
AcDbSymbolTableRecord
100
AcDbLayerTableRecord
  2
DEFPOINTS
 70
     0
 62
     7
  6
CONTINUOUS
  0
ENDTAB
  0
TABLE
  2
STYLE
  5
3
330
0
100
AcDbSymbolTable
 70
     2
  0
STYLE
  5
10
330
3
100
AcDbSymbolTableRecord
100
AcDbTextStyleTableRecord
  2
STANDARD
 70
     0
 40
0.0
 41
1.0
 50
0.0
 71
     0
 42
3.0
  3
romans.shx
  4
BIGFONT.SHX
  0
STYLE
  5
339
330
3
100
AcDbSymbolTableRecord
100
AcDbTextStyleTableRecord
  2
YOKO
 70
     0
 40
0.0
 41
1.0
 50
0.0
 71
     0
 42
3.0
  3
romans.shx
  4
extfont.shx
  0
ENDTAB
  0
TABLE
  2
VIEW
  5
6
330
0
100
AcDbSymbolTable
 70
     1
  0
VIEW
  5
179F
330
6
100
AcDbSymbolTableRecord
100
AcDbViewTableRecord
  2
OLE1
 70
     0
 40
148.06053088
 10
40.80233535
 20
14.64566039
 41
215.56999574
 11
0.0
 21
0.0
 31
1.0
 12
0.0
 22
0.0
 32
0.0
 42
50.0
 43
0.0
 44
0.0
 50
0.0
 71
     0
  0
ENDTAB
  0
TABLE
  2
UCS
  5
7
330
0
100
AcDbSymbolTable
 70
     0
  0
ENDTAB
  0
TABLE
  2
APPID
  5
9
330
0
100
AcDbSymbolTable
 70
    10
  0
APPID
  5
11
330
9
100
AcDbSymbolTableRecord
100
AcDbRegAppTableRecord
  2
ACAD
 70
     0
  0
APPID
  5
1B1
330
9
100
AcDbSymbolTableRecord
100
AcDbRegAppTableRecord
  2
GLOBAL
 70
     0
  0
APPID
  5
2A4
330
9
100
AcDbSymbolTableRecord
100
AcDbRegAppTableRecord
  2
DETAIL
 70
     0
  0
APPID
  5
5FD
330
9
100
AcDbSymbolTableRecord
100
AcDbRegAppTableRecord
  2
GRPNAME
 70
     0
  0
APPID
  5
5FE
330
9
100
AcDbSymbolTableRecord
100
AcDbRegAppTableRecord
  2
GPARA
 70
     0
  0
APPID
  5
6A9
330
9
100
AcDbSymbolTableRecord
100
AcDbRegAppTableRecord
  2
ITEMNAME
 70
     0
  0
APPID
  5
97F
330
9
100
AcDbSymbolTableRecord
100
AcDbRegAppTableRecord
  2
HATCH_TYPE
 70
     0
  0
APPID
  5
980
330
9
100
AcDbSymbolTableRecord
100
AcDbRegAppTableRecord
  2
HATCH_DISPLAY
 70
     0
  0
APPID
  5
981
330
9
100
AcDbSymbolTableRecord
100
AcDbRegAppTableRecord
  2
HATCH_DISTANCE
 70
     0
  0
APPID
  5
1542
330
9
100
AcDbSymbolTableRecord
100
AcDbRegAppTableRecord
  2
CONTENTBLOCKICON
 70
     0
  0
ENDTAB
  0
TABLE
  2
DIMSTYLE
  5
A
330
0
100
AcDbSymbolTable
 70
     1
  0
DIMSTYLE
105
59A
102
{ACAD_REACTORS
330
1456
330
1465
330
1474
330
1483
102
}
330
A
100
AcDbSymbolTableRecord
100
AcDbDimStyleTableRecord
  2
BIGT
 70
     0
  3

  4

  5
OPEN
  6

  7

 40
1.0
 41
2.23
 42
0.5
 43
2.5
 44
1.0
 45
0.0
 46
0.0
 47
0.0
 48
0.0
140
3.5
141
0.0
142
0.0
143
25.4
144
1.0
145
0.0
146
1.0
147
1.0
 71
     0
 72
     0
 73
     0
 74
     0
 75
     0
 76
     0
 77
     3
 78
     9
170
     0
171
     2
172
     1
173
     0
174
     0
175
     0
176
   256
177
   256
178
    40
270
     2
271
     3
272
     3
273
     2
274
     2
340
10
275
     0
280
     0
281
     0
282
     0
283
     1
284
     8
285
     0
286
     0
287
     3
288
     0
  0
ENDTAB
  0
TABLE
  2
BLOCK_RECORD
  5
1
330
0
100
AcDbSymbolTable
 70
     6
  0
BLOCK_RECORD
  5
1A
102
{ACAD_XDICTIONARY
360
1383
102
}
330
1
100
AcDbSymbolTableRecord
100
AcDbBlockTableRecord
  2
*MODEL_SPACE
  0
BLOCK_RECORD
  5
17
102
{ACAD_XDICTIONARY
360
1381
102
}
330
1
100
AcDbSymbolTableRecord
100
AcDbBlockTableRecord
  2
*PAPER_SPACE
  0
BLOCK_RECORD
  5
594
330
1
100
AcDbSymbolTableRecord
100
AcDbBlockTableRecord
  2
_OPEN
  0
BLOCK_RECORD
  5
1457
330
1
100
AcDbSymbolTableRecord
100
AcDbBlockTableRecord
  2
*D1
  0
BLOCK_RECORD
  5
1466
330
1
100
AcDbSymbolTableRecord
100
AcDbBlockTableRecord
  2
*D2
  0
BLOCK_RECORD
  5
1475
330
1
100
AcDbSymbolTableRecord
100
AcDbBlockTableRecord
  2
*D3
  0
BLOCK_RECORD
  5
1484
330
1
100
AcDbSymbolTableRecord
100
AcDbBlockTableRecord
  2
*D4
  0
BLOCK_RECORD
  5
14BE
330
1
100
AcDbSymbolTableRecord
100
AcDbBlockTableRecord
  2
1
1001
CONTENTBLOCKICON
1071
        0
1004
2800000020000000200000000100080000000000000400000000000000000000000000000000000000000000000080000080000000808000800000008000800080800000C0C0C000C0DCC000F0CAA6000020400000206000002080000020A0000020C0000020E00000400000004020000040400000406000004080000040A0
1004
000040C0000040E00000600000006020000060400000606000006080000060A0000060C0000060E00000800000008020000080400000806000008080000080A0000080C0000080E00000A0000000A0200000A0400000A0600000A0800000A0A00000A0C00000A0E00000C0000000C0200000C0400000C0600000C0800000C0
1004
A00000C0C00000C0E00000E0000000E0200000E0400000E0600000E0800000E0A00000E0C00000E0E00040000000400020004000400040006000400080004000A0004000C0004000E00040200000402020004020400040206000402080004020A0004020C0004020E000404000004040200040404000404060004040800040
1004
40A0004040C0004040E00040600000406020004060400040606000406080004060A0004060C0004060E00040800000408020004080400040806000408080004080A0004080C0004080E00040A0000040A0200040A0400040A0600040A0800040A0A00040A0C00040A0E00040C0000040C0200040C0400040C0600040C08000
1004
40C0A00040C0C00040C0E00040E0000040E0200040E0400040E0600040E0800040E0A00040E0C00040E0E00080000000800020008000400080006000800080008000A0008000C0008000E00080200000802020008020400080206000802080008020A0008020C0008020E00080400000804020008040400080406000804080
1004
008040A0008040C0008040E00080600000806020008060400080606000806080008060A0008060C0008060E00080800000808020008080400080806000808080008080A0008080C0008080E00080A0000080A0200080A0400080A0600080A0800080A0A00080A0C00080A0E00080C0000080C0200080C0400080C0600080C0
1004
800080C0A00080C0C00080C0E00080E0000080E0200080E0400080E0600080E0800080E0A00080E0C00080E0E000C0000000C0002000C0004000C0006000C0008000C000A000C000C000C000E000C0200000C0202000C0204000C0206000C0208000C020A000C020C000C020E000C0400000C0402000C0404000C0406000C0
1004
408000C040A000C040C000C040E000C0600000C0602000C0604000C0606000C0608000C060A000C060C000C060E000C0800000C0802000C0804000C0806000C0808000C080A000C080C000C080E000C0A00000C0A02000C0A04000C0A06000C0A08000C0A0A000C0A0C000C0A0E000C0C00000C0C02000C0C04000C0C06000
1004
C0C08000C0C0A000F0FBFF00A4A0A000808080000000FF0000FF000000FFFF00FF000000FF00FF00FFFF0000FFFFFF0000000000000000000000000000000000000000000000000000000000000000000000000000000000000000000000000000000000000000000000000000000000000000000000000000000000000000
1004
00000000000000000000000000000000000000000000000000000000000000000000000000000000000000000000000000000000000000000000000000000000000000000000000000000000000000000000000000000000000000000000000000000000000000000000000000000000000000000000000000000000000000
1004
00000000000000000000000000000000000000000000000000000000000000000000000000000000000000000000000000000000000000000000000000000000000000000000000000000000000000000000000000000000000000000000000000000000000000000000000000000000000000000000000000000000000000
1004
000000000000000000000000000000000000000000000000000000000000FEFEFBFE0000000000000000000000000000000000000000000000000000FEFEFEE7FEE7FEFEFE00000000000000000000000000000000000000FEFEFEFE0000E7E7E7E7000000FEFEFEFE000000000000000000000000FEFEFE000000000000E7
1004
E7E7E700000000000000FEFEFEFEFEFEFEFE00000000FE0000000000000000E7E7E7E7000000000000000000E70000E7E7FE000000FBFEFBFBFBFBFBFBFBFBE7E7E7E7FBFBFBFBFBFBFBFBFBE7FBFBE7E7FEFB000000FEFEFE000000000000E7E7E7E700000000000000FEFEFEFEFEFEFEFE00000000000000FEFEFEFE0000
1004
E7E7E7E7000000FEFEFEFE00000000000000000000000000000000000000FEFEFEE7FEE7FEFEFE00000000000000000000000000000000000000000000000000FEFEFBFE0000000000000000000000000000000000000000000000000000000000000000000000000000000000000000000000000000000000000000000000
1004
00000000000000000000000000000000000000000000000000000000000000000000000000000000000000000000000000000000000000000000000000000000000000000000000000000000000000000000000000000000000000000000000000000000000000000000000000000000000000000000000000000000000000
1004
00000000000000000000000000000000000000000000000000000000000000000000000000000000000000000000000000000000000000000000000000000000000000000000000000000000000000000000000000000000000000000000000000000000000000000000000000000000000000000000000000000000000000
1004
0000000000000000000000000000000000000000000000000000000000000000000000000000000000000000000000000000000000000000
  0
ENDTAB
  0
ENDSEC
  0
SECTION
  2
BLOCKS
  0
BLOCK
  5
1B
330
1A
100
AcDbEntity
  8
0
100
AcDbBlockBegin
  2
*MODEL_SPACE
 70
     0
 10
0.0
 20
0.0
 30
0.0
  3
*MODEL_SPACE
  1

  0
ENDBLK
  5
1C
330
1A
100
AcDbEntity
  8
0
100
AcDbBlockEnd
  0
BLOCK
  5
18
330
17
100
AcDbEntity
 67
     1
  8
0
100
AcDbBlockBegin
  2
*PAPER_SPACE
 70
     0
 10
0.0
 20
0.0
 30
0.0
  3
*PAPER_SPACE
  1

  0
ENDBLK
  5
19
330
17
100
AcDbEntity
 67
     1
  8
0
100
AcDbBlockEnd
  0
BLOCK
  5
598
330
594
100
AcDbEntity
  8
0
100
AcDbBlockBegin
  2
_OPEN
 70
     0
 10
0.0
 20
0.0
 30
0.0
  3
_OPEN
  1

  0
LINE
  5
595
330
594
100
AcDbEntity
  8
0
  6
BYBLOCK
 62
     0
100
AcDbLine
 10
-1.0
 20
0.16666667
 30
0.0
 11
0.0
 21
0.0
 31
0.0
  0
LINE
  5
596
330
594
100
AcDbEntity
  8
0
  6
BYBLOCK
 62
     0
100
AcDbLine
 10
-1.0
 20
-0.16666667
 30
0.0
 11
0.0
 21
0.0
 31
0.0
  0
LINE
  5
597
330
594
100
AcDbEntity
  8
0
  6
BYBLOCK
 62
     0
100
AcDbLine
 10
0.0
 20
0.0
 30
0.0
 11
-1.0
 21
0.0
 31
0.0
  0
ENDBLK
  5
599
330
594
100
AcDbEntity
  8
0
100
AcDbBlockEnd
  0
BLOCK
  5
1461
330
1457
100
AcDbEntity
  8
0
100
AcDbBlockBegin
  2
*D1
 70
     1
 10
0.0
 20
0.0
 30
0.0
  3
*D1
  1

  0
LINE
  5
14AC
330
1457
100
AcDbEntity
  8
250
  6
CONTINUOUS
100
AcDbLine
 10
135.5
 20
-12.5
 30
0.0
 11
148.0
 21
-12.5
 31
0.0
  0
LINE
  5
14AD
330
1457
100
AcDbEntity
  8
250
  6
CONTINUOUS
100
AcDbLine
 10
135.5
 20
12.5
 30
0.0
 11
148.0
 21
12.5
 31
0.0
  0
LINE
  5
14AE
330
1457
100
AcDbEntity
  8
250
  6
CONTINUOUS
100
AcDbLine
 10
147.0
 20
-10.27
 30
0.0
 11
147.0
 21
10.27
 31
0.0
  0
INSERT
  5
14AF
330
1457
100
AcDbEntity
  8
250
  6
CONTINUOUS
100
AcDbBlockReference
  2
_OPEN
 10
147.0
 20
-12.5
 30
0.0
 41
2.23
 42
2.23
 43
2.23
 50
270.0
  0
INSERT
  5
14B0
330
1457
100
AcDbEntity
  8
250
  6
CONTINUOUS
100
AcDbBlockReference
  2
_OPEN
 10
147.0
 20
12.5
 30
0.0
 41
2.23
 42
2.23
 43
2.23
 50
90.0
  0
MTEXT
  5
14B1
330
1457
100
AcDbEntity
  8
250
  6
CONTINUOUS
 62
    40
100
AcDbMText
 10
144.25
 20
0.0
 30
0.0
 40
3.5
 41
0.0
 71
     5
 72
     1
  1
\A1;{\H3.5;\U+2205}25
 11
0.0
 21
1.0
 31
0.0
1001
ACAD
1000
MTEXTBEGIN
1070
    73
1070
     1
1070
    44
1040
1.0
1070
    74
1070
     0
1000
MTEXTEND
1000
MTEXTBEGIN
1070
    73
1070
     1
1070
    44
1040
1.0
1070
    74
1070
     0
1000
MTEXTEND
1000
MTEXTBEGIN
1070
    73
1070
     1
1070
    44
1040
1.0
1070
    74
1070
     0
1000
MTEXTEND
1000
MTEXTBEGIN
1070
    73
1070
     1
1070
    44
1040
1.0
1070
    74
1070
     0
1000
MTEXTEND
  0
POINT
  5
14B2
330
1457
100
AcDbEntity
  8
DEFPOINTS
  6
CONTINUOUS
 62
     0
100
AcDbPoint
 10
135.0
 20
-12.5
 30
0.0
  0
POINT
  5
14B3
330
1457
100
AcDbEntity
  8
DEFPOINTS
  6
CONTINUOUS
 62
     0
100
AcDbPoint
 10
135.0
 20
12.5
 30
0.0
  0
POINT
  5
14B4
330
1457
100
AcDbEntity
  8
DEFPOINTS
  6
CONTINUOUS
 62
     0
100
AcDbPoint
 10
147.0
 20
12.5
 30
0.0
  0
ENDBLK
  5
1462
330
1457
100
AcDbEntity
  8
0
100
AcDbBlockEnd
  0
BLOCK
  5
1470
330
1466
100
AcDbEntity
  8
0
100
AcDbBlockBegin
  2
*D2
 70
     1
 10
0.0
 20
0.0
 30
0.0
  3
*D2
  1

  0
LINE
  5
14B5
330
1466
100
AcDbEntity
  8
250
  6
CONTINUOUS
100
AcDbLine
 10
126.0
 20
13.0
 30
0.0
 11
126.0
 21
29.0
 31
0.0
  0
LINE
  5
14B6
330
1466
100
AcDbEntity
  8
250
  6
CONTINUOUS
100
AcDbLine
 10
135.0
 20
13.0
 30
0.0
 11
135.0
 21
29.0
 31
0.0
  0
LINE
  5
14B7
330
1466
100
AcDbEntity
  8
250
  6
CONTINUOUS
100
AcDbLine
 10
128.23
 20
28.0
 30
0.0
 11
132.77
 21
28.0
 31
0.0
  0
INSERT
  5
14B8
330
1466
100
AcDbEntity
  8
250
  6
CONTINUOUS
100
AcDbBlockReference
  2
_OPEN
 10
126.0
 20
28.0
 30
0.0
 41
2.23
 42
2.23
 43
2.23
 50
180.0
  0
INSERT
  5
14B9
330
1466
100
AcDbEntity
  8
250
  6
CONTINUOUS
100
AcDbBlockReference
  2
_OPEN
 10
135.0
 20
28.0
 30
0.0
 41
2.23
 42
2.23
 43
2.23
  0
MTEXT
  5
14BA
330
1466
100
AcDbEntity
  8
250
  6
CONTINUOUS
 62
    40
100
AcDbMText
 10
130.5
 20
30.75
 30
0.0
 40
3.5
 41
0.0
 71
     5
 72
     1
  1
\A1;9
1001
ACAD
1000
MTEXTBEGIN
1070
    73
1070
     1
1070
    44
1040
1.0
1070
    74
1070
     0
1000
MTEXTEND
1000
MTEXTBEGIN
1070
    73
1070
     1
1070
    44
1040
1.0
1070
    74
1070
     0
1000
MTEXTEND
1000
MTEXTBEGIN
1070
    73
1070
     1
1070
    44
1040
1.0
1070
    74
1070
     0
1000
MTEXTEND
1000
MTEXTBEGIN
1070
    73
1070
     1
1070
    44
1040
1.0
1070
    74
1070
     0
1000
MTEXTEND
  0
POINT
  5
14BB
330
1466
100
AcDbEntity
  8
DEFPOINTS
  6
CONTINUOUS
 62
     0
100
AcDbPoint
 10
126.0
 20
12.5
 30
0.0
  0
POINT
  5
14BC
330
1466
100
AcDbEntity
  8
DEFPOINTS
  6
CONTINUOUS
 62
     0
100
AcDbPoint
 10
135.0
 20
12.5
 30
0.0
  0
POINT
  5
14BD
330
1466
100
AcDbEntity
  8
DEFPOINTS
  6
CONTINUOUS
 62
     0
100
AcDbPoint
 10
135.0
 20
28.0
 30
0.0
  0
ENDBLK
  5
1471
330
1466
100
AcDbEntity
  8
0
100
AcDbBlockEnd
  0
BLOCK
  5
147F
330
1475
100
AcDbEntity
  8
0
100
AcDbBlockBegin
  2
*D3
 70
     1
 10
0.0
 20
0.0
 30
0.0
  3
*D3
  1

  0
LINE
  5
14A3
330
1475
100
AcDbEntity
  8
250
  6
CONTINUOUS
100
AcDbLine
 10
95.0
 20
12.40593637
 30
0.0
 11
95.0
 21
36.0
 31
0.0
  0
LINE
  5
14A4
330
1475
100
AcDbEntity
  8
250
  6
CONTINUOUS
100
AcDbLine
 10
135.0
 20
13.0
 30
0.0
 11
135.0
 21
36.0
 31
0.0
  0
LINE
  5
14A5
330
1475
100
AcDbEntity
  8
250
  6
CONTINUOUS
100
AcDbLine
 10
97.23
 20
35.0
 30
0.0
 11
132.77
 21
35.0
 31
0.0
  0
INSERT
  5
14A6
330
1475
100
AcDbEntity
  8
250
  6
CONTINUOUS
100
AcDbBlockReference
  2
_OPEN
 10
95.0
 20
35.0
 30
0.0
 41
2.23
 42
2.23
 43
2.23
 50
180.0
  0
INSERT
  5
14A7
330
1475
100
AcDbEntity
  8
250
  6
CONTINUOUS
100
AcDbBlockReference
  2
_OPEN
 10
135.0
 20
35.0
 30
0.0
 41
2.23
 42
2.23
 43
2.23
  0
MTEXT
  5
14A8
330
1475
100
AcDbEntity
  8
250
  6
CONTINUOUS
 62
    40
100
AcDbMText
 10
115.0
 20
37.75
 30
0.0
 40
3.5
 41
0.0
 71
     5
 72
     1
  1
\A1;40
1001
ACAD
1000
MTEXTBEGIN
1070
    73
1070
     1
1070
    44
1040
1.0
1070
    74
1070
     0
1000
MTEXTEND
1000
MTEXTBEGIN
1070
    73
1070
     1
1070
    44
1040
1.0
1070
    74
1070
     0
1000
MTEXTEND
1000
MTEXTBEGIN
1070
    73
1070
     1
1070
    44
1040
1.0
1070
    74
1070
     0
1000
MTEXTEND
1000
MTEXTBEGIN
1070
    73
1070
     1
1070
    44
1040
1.0
1070
    74
1070
     0
1000
MTEXTEND
  0
POINT
  5
14A9
330
1475
100
AcDbEntity
  8
DEFPOINTS
  6
CONTINUOUS
 62
     0
100
AcDbPoint
 10
95.0
 20
11.90593637
 30
0.0
  0
POINT
  5
14AA
330
1475
100
AcDbEntity
  8
DEFPOINTS
  6
CONTINUOUS
 62
     0
100
AcDbPoint
 10
135.0
 20
12.5
 30
0.0
  0
POINT
  5
14AB
330
1475
100
AcDbEntity
  8
DEFPOINTS
  6
CONTINUOUS
 62
     0
100
AcDbPoint
 10
135.0
 20
35.0
 30
0.0
  0
ENDBLK
  5
1480
330
1475
100
AcDbEntity
  8
0
100
AcDbBlockEnd
  0
BLOCK
  5
148E
330
1484
100
AcDbEntity
  8
0
100
AcDbBlockBegin
  2
*D4
 70
     1
 10
0.0
 20
0.0
 30
0.0
  3
*D4
  1

  0
LINE
  5
149A
330
1484
100
AcDbEntity
  8
250
  6
CONTINUOUS
100
AcDbLine
 10
0.0
 20
22.725
 30
0.0
 11
0.0
 21
43.0
 31
0.0
  0
LINE
  5
149B
330
1484
100
AcDbEntity
  8
250
  6
CONTINUOUS
100
AcDbLine
 10
135.0
 20
13.0
 30
0.0
 11
135.0
 21
43.0
 31
0.0
  0
LINE
  5
149C
330
1484
100
AcDbEntity
  8
250
  6
CONTINUOUS
100
AcDbLine
 10
2.23
 20
42.0
 30
0.0
 11
132.77
 21
42.0
 31
0.0
  0
INSERT
  5
149D
330
1484
100
AcDbEntity
  8
250
  6
CONTINUOUS
100
AcDbBlockReference
  2
_OPEN
 10
0.0
 20
42.0
 30
0.0
 41
2.23
 42
2.23
 43
2.23
 50
180.0
  0
INSERT
  5
149E
330
1484
100
AcDbEntity
  8
250
  6
CONTINUOUS
100
AcDbBlockReference
  2
_OPEN
 10
135.0
 20
42.0
 30
0.0
 41
2.23
 42
2.23
 43
2.23
  0
MTEXT
  5
149F
330
1484
100
AcDbEntity
  8
250
  6
CONTINUOUS
 62
    40
100
AcDbMText
 10
67.5
 20
44.75
 30
0.0
 40
3.5
 41
0.0
 71
     5
 72
     1
  1
\A1;135
1001
ACAD
1000
MTEXTBEGIN
1070
    73
1070
     1
1070
    44
1040
1.0
1070
    74
1070
     0
1000
MTEXTEND
1000
MTEXTBEGIN
1070
    73
1070
     1
1070
    44
1040
1.0
1070
    74
1070
     0
1000
MTEXTEND
1000
MTEXTBEGIN
1070
    73
1070
     1
1070
    44
1040
1.0
1070
    74
1070
     0
1000
MTEXTEND
1000
MTEXTBEGIN
1070
    73
1070
     1
1070
    44
1040
1.0
1070
    74
1070
     0
1000
MTEXTEND
  0
POINT
  5
14A0
330
1484
100
AcDbEntity
  8
DEFPOINTS
  6
CONTINUOUS
 62
     0
100
AcDbPoint
 10
0.0
 20
22.225
 30
0.0
  0
POINT
  5
14A1
330
1484
100
AcDbEntity
  8
DEFPOINTS
  6
CONTINUOUS
 62
     0
100
AcDbPoint
 10
135.0
 20
12.5
 30
0.0
  0
POINT
  5
14A2
330
1484
100
AcDbEntity
  8
DEFPOINTS
  6
CONTINUOUS
 62
     0
100
AcDbPoint
 10
135.0
 20
42.0
 30
0.0
  0
ENDBLK
  5
148F
330
1484
100
AcDbEntity
  8
0
100
AcDbBlockEnd
  0
BLOCK
  5
14BF
330
14BE
100
AcDbEntity
  8
0
100
AcDbBlockBegin
  2
1
 70
     0
 10
0.0
 20
0.0
 30
0.0
  3
1
  1

  0
LINE
  5
172D
330
14BE
100
AcDbEntity
  8
240
  6
CONTINUOUS
100
AcDbLine
 10
124.45050452
 20
-11.9
 30
0.0
 11
95.59678054
 21
-11.9
 31
0.0
1001
GRPNAME
1000
PASTMD0L
  0
LINE
  5
172E
330
14BE
100
AcDbEntity
  8
245
  6
CENTER2
100
AcDbLine
 10
-66.4
 20
0.0
 30
0.0
 11
136.0
 21
0.0
 31
0.0
1001
GRPNAME
1000
PASTMD0L
  0
ARC
  5
172F
330
14BE
100
AcDbEntity
  8
241
  6
CONTINUOUS
100
AcDbCircle
 10
117.80683002
 20
-1.76227634
 30
0.0
 40
3.306830020297939
100
AcDbArc
 50
79.99999996
 51
251.89845495
1001
GRPNAME
1000
PASTMD0L
  0
LINE
  5
1730
330
14BE
100
AcDbEntity
  8
240
  6
CONTINUOUS
100
AcDbLine
 10
124.45050453
 20
11.9
 30
0.0
 11
95.59678054
 21
11.9
 31
0.0
1001
GRPNAME
1000
PASTMD0L
  0
ARC
  5
1731
330
14BE
100
AcDbEntity
  8
240
  6
CONTINUOUS
100
AcDbCircle
 10
2.0
 20
-30.5
 30
0.0
 40
1.0
100
AcDbArc
 50
180.0
 51
270.0
  0
LINE
  5
1732
330
14BE
100
AcDbEntity
  8
241
  6
HIDDEN2
100
AcDbLine
 10
23.0
 20
-22.5
 30
0.0
 11
1.0
 21
-22.5
 31
0.0
  0
LINE
  5
1733
330
14BE
100
AcDbEntity
  8
241
  6
HIDDEN2
100
AcDbLine
 10
23.0
 20
22.5
 30
0.0
 11
1.0
 21
22.5
 31
0.0
  0
ARC
  5
1734
330
14BE
100
AcDbEntity
  8
240
  6
CONTINUOUS
100
AcDbCircle
 10
2.0
 20
30.5
 30
0.0
 40
1.0
100
AcDbArc
 50
90.0
 51
180.0
  0
LINE
  5
1735
330
14BE
100
AcDbEntity
  8
240
  6
CONTINUOUS
100
AcDbLine
 10
0.0
 20
22.225
 30
0.0
 11
-64.03089103
 21
12.88716173
 31
0.0
  0
LINE
  5
1736
330
14BE
100
AcDbEntity
  8
241
100
AcDbLine
 10
1.0
 20
0.0
 30
0.0
 11
1.0
 21
22.225
 31
0.0
  0
LINE
  5
1737
330
14BE
100
AcDbEntity
  8
241
  6
CONTINUOUS
100
AcDbLine
 10
0.0
 20
22.225
 30
0.0
 11
0.0
 21
0.0
 31
0.0
  0
LINE
  5
1738
330
14BE
100
AcDbEntity
  8
240
  6
CONTINUOUS
100
AcDbLine
 10
0.0
 20
-22.225
 30
0.0
 11
-64.03089103
 21
-12.88716173
 31
0.0
  0
LINE
  5
1739
330
14BE
100
AcDbEntity
  8
240
  6
CONTINUOUS
100
AcDbLine
 10
-65.4
 20
-11.30390896
 30
0.0
 11
-65.4
 21
0.0
 31
0.0
  0
ARC
  5
173A
330
14BE
100
AcDbEntity
  8
240
  6
CONTINUOUS
100
AcDbCircle
 10
-63.8
 20
-11.30390896
 30
0.0
 40
1.6
100
AcDbArc
 50
180.0
 51
261.70285503
  0
LINE
  5
173B
330
14BE
100
AcDbEntity
  8
240
  6
CONTINUOUS
100
AcDbLine
 10
-65.4
 20
11.30390896
 30
0.0
 11
-65.4
 21
0.0
 31
0.0
  0
ARC
  5
173C
330
14BE
100
AcDbEntity
  8
240
  6
CONTINUOUS
100
AcDbCircle
 10
-63.8
 20
11.30390896
 30
0.0
 40
1.6
100
AcDbArc
 50
98.29714497
 51
180.0
  0
LINE
  5
173D
330
14BE
100
AcDbEntity
  8
240
  6
CONTINUOUS
100
AcDbLine
 10
1.0
 20
-22.225
 30
0.0
 11
1.0
 21
-30.5
 31
0.0
  0
LINE
  5
173E
330
14BE
100
AcDbEntity
  8
241
100
AcDbLine
 10
1.0
 20
0.0
 30
0.0
 11
1.0
 21
-22.225
 31
0.0
  0
LINE
  5
173F
330
14BE
100
AcDbEntity
  8
241
  6
CONTINUOUS
100
AcDbLine
 10
0.0
 20
-22.225
 30
0.0
 11
0.0
 21
0.0
 31
0.0
  0
LINE
  5
1740
330
14BE
100
AcDbEntity
  8
240
100
AcDbLine
 10
0.0
 20
-22.225
 30
0.0
 11
1.0
 21
-22.225
 31
0.0
  0
LINE
  5
1741
330
14BE
100
AcDbEntity
  8
240
  6
CONTINUOUS
100
AcDbLine
 10
1.0
 20
22.225
 30
0.0
 11
1.0
 21
30.5
 31
0.0
  0
LINE
  5
1742
330
14BE
100
AcDbEntity
  8
240
100
AcDbLine
 10
0.0
 20
22.225
 30
0.0
 11
1.0
 21
22.225
 31
0.0
  0
ARC
  5
1743
330
14BE
100
AcDbEntity
  8
240
  6
CONTINUOUS
100
AcDbCircle
 10
102.64365526
 20
211.75388296
 30
0.0
 40
200.0
100
AcDbArc
 50
248.76001297
 51
267.62428292
1001
GRPNAME
1000
PASTMD0N
  0
LINE
  5
1744
330
14BE
100
AcDbEntity
  8
245
  6
CENTER2
100
AcDbLine
 10
16.6
 20
-31.5
 30
0.0
 11
16.6
 21
31.5
 31
0.0
  0
LINE
  5
1745
330
14BE
100
AcDbEntity
  8
241
  6
CONTINUOUS
100
AcDbLine
 10
21.6
 20
0.0
 30
0.0
 11
21.6
 21
31.5
 31
0.0
  0
LINE
  5
1746
330
14BE
100
AcDbEntity
  8
241
  6
CONTINUOUS
100
AcDbLine
 10
18.71324865
 20
26.5
 30
0.0
 11
18.71324865
 21
0.0
 31
0.0
  0
LINE
  5
1747
330
14BE
100
AcDbEntity
  8
241
  6
CONTINUOUS
100
AcDbLine
 10
14.48675135
 20
26.5
 30
0.0
 11
14.48675135
 21
0.0
 31
0.0
  0
LINE
  5
1748
330
14BE
100
AcDbEntity
  8
241
  6
CONTINUOUS
100
AcDbLine
 10
11.6
 20
31.5
 30
0.0
 11
11.6
 21
0.0
 31
0.0
  0
LINE
  5
1749
330
14BE
100
AcDbEntity
  8
241
  6
CONTINUOUS
100
AcDbLine
 10
27.0
 20
0.0
 30
0.0
 11
27.0
 21
30.0
 31
0.0
  0
ARC
  5
174A
330
14BE
100
AcDbEntity
  8
240
  6
CONTINUOUS
100
AcDbCircle
 10
102.64365526
 20
-211.75388296
 30
0.0
 40
200.0
100
AcDbArc
 50
92.37571696
 51
111.23998635
1001
GRPNAME
1000
PASTMD0N
  0
LINE
  5
174B
330
14BE
100
AcDbEntity
  8
241
  6
CONTINUOUS
100
AcDbLine
 10
14.48675135
 20
-26.5
 30
0.0
 11
14.48675135
 21
0.0
 31
0.0
  0
LINE
  5
174C
330
14BE
100
AcDbEntity
  8
241
  6
CONTINUOUS
100
AcDbLine
 10
18.71324865
 20
-26.5
 30
0.0
 11
18.71324865
 21
0.0
 31
0.0
  0
LINE
  5
174D
330
14BE
100
AcDbEntity
  8
241
  6
CONTINUOUS
100
AcDbLine
 10
21.6
 20
0.0
 30
0.0
 11
21.6
 21
-31.5
 31
0.0
  0
LINE
  5
174E
330
14BE
100
AcDbEntity
  8
241
  6
CONTINUOUS
100
AcDbLine
 10
11.6
 20
-31.5
 30
0.0
 11
11.6
 21
0.0
 31
0.0
  0
LINE
  5
174F
330
14BE
100
AcDbEntity
  8
241
  6
HIDDEN2
100
AcDbLine
 10
23.0
 20
-22.5
 30
0.0
 11
23.0
 21
-31.5
 31
0.0
  0
LINE
  5
1750
330
14BE
100
AcDbEntity
  8
241
  6
CONTINUOUS
100
AcDbLine
 10
27.0
 20
0.0
 30
0.0
 11
27.0
 21
-30.0
 31
0.0
  0
ARC
  5
1751
330
14BE
100
AcDbEntity
  8
240
  6
CONTINUOUS
100
AcDbCircle
 10
32.0
 20
-30.0
 30
0.0
 40
5.000000000017891
100
AcDbArc
 50
111.23998702
 51
180.00000002
1001
GRPNAME
1000
PASTMD0N
  0
LINE
  5
1752
330
14BE
100
AcDbEntity
  8
240
  6
CONTINUOUS
100
AcDbLine
 10
18.71324865
 20
-26.5
 30
0.0
 11
14.48675135
 21
-26.5
 31
0.0
  0
LINE
  5
1753
330
14BE
100
AcDbEntity
  8
240
  6
CONTINUOUS
100
AcDbLine
 10
2.0
 20
-31.5
 30
0.0
 11
11.6
 21
-31.5
 31
0.0
  0
LINE
  5
1754
330
14BE
100
AcDbEntity
  8
240
  6
CONTINUOUS
100
AcDbLine
 10
14.48675135
 20
-26.5
 30
0.0
 11
11.6
 21
-31.5
 31
0.0
  0
LINE
  5
1755
330
14BE
100
AcDbEntity
  8
240
  6
CONTINUOUS
100
AcDbLine
 10
21.6
 20
-31.5
 30
0.0
 11
26.0
 21
-31.5
 31
0.0
  0
LINE
  5
1756
330
14BE
100
AcDbEntity
  8
240
  6
CONTINUOUS
100
AcDbLine
 10
18.71324865
 20
-26.5
 30
0.0
 11
21.6
 21
-31.5
 31
0.0
  0
ARC
  5
1757
330
14BE
100
AcDbEntity
  8
240
  6
CONTINUOUS
100
AcDbCircle
 10
26.0
 20
-30.5
 30
0.0
 40
1.0
100
AcDbArc
 50
270.0
 51
0.0
  0
LINE
  5
1758
330
14BE
100
AcDbEntity
  8
240
  6
CONTINUOUS
100
AcDbLine
 10
27.0
 20
-30.5
 30
0.0
 11
27.0
 21
-30.0
 31
0.0
  0
LINE
  5
1759
330
14BE
100
AcDbEntity
  8
241
  6
CONTINUOUS
100
AcDbLine
 10
95.0
 20
0.0
 30
0.0
 11
95.0
 21
-11.9
 31
0.0
1001
GRPNAME
1000
PASTMD0N
  0
ARC
  5
175A
330
14BE
100
AcDbEntity
  8
240
  6
CONTINUOUS
100
AcDbCircle
 10
95.59678054
 20
-41.9
 30
0.0
 40
30.0
100
AcDbArc
 50
90.0
 51
92.37571687
1001
GRPNAME
1000
PASTMD0N
  0
LINE
  5
175B
330
14BE
100
AcDbEntity
  8
241
  6
CONTINUOUS
100
AcDbLine
 10
95.0
 20
0.0
 30
0.0
 11
95.0
 21
11.9
 31
0.0
1001
GRPNAME
1000
PASTMD0N
  0
ARC
  5
175C
330
14BE
100
AcDbEntity
  8
240
  6
CONTINUOUS
100
AcDbCircle
 10
95.59678054
 20
41.9
 30
0.0
 40
30.00000000000001
100
AcDbArc
 50
267.62428294
 51
269.99999999
1001
GRPNAME
1000
PASTMD0N
  0
ARC
  5
175D
330
14BE
100
AcDbEntity
  8
240
  6
CONTINUOUS
100
AcDbCircle
 10
32.0
 20
30.0
 30
0.0
 40
5.000000000017877
100
AcDbArc
 50
179.99999997
 51
248.76001297
1001
GRPNAME
1000
PASTMD0N
  0
LINE
  5
175E
330
14BE
100
AcDbEntity
  8
240
  6
CONTINUOUS
100
AcDbLine
 10
18.71324865
 20
26.5
 30
0.0
 11
14.48675135
 21
26.5
 31
0.0
  0
LINE
  5
175F
330
14BE
100
AcDbEntity
  8
240
  6
CONTINUOUS
100
AcDbLine
 10
2.0
 20
31.5
 30
0.0
 11
11.6
 21
31.5
 31
0.0
  0
LINE
  5
1760
330
14BE
100
AcDbEntity
  8
240
  6
CONTINUOUS
100
AcDbLine
 10
11.6
 20
31.5
 30
0.0
 11
14.48675135
 21
26.5
 31
0.0
  0
LINE
  5
1761
330
14BE
100
AcDbEntity
  8
241
  6
HIDDEN2
100
AcDbLine
 10
23.0
 20
22.5
 30
0.0
 11
23.0
 21
31.5
 31
0.0
  0
LINE
  5
1762
330
14BE
100
AcDbEntity
  8
240
  6
CONTINUOUS
100
AcDbLine
 10
21.6
 20
31.5
 30
0.0
 11
26.0
 21
31.5
 31
0.0
  0
LINE
  5
1763
330
14BE
100
AcDbEntity
  8
240
  6
CONTINUOUS
100
AcDbLine
 10
21.6
 20
31.5
 30
0.0
 11
18.71324865
 21
26.5
 31
0.0
  0
ARC
  5
1764
330
14BE
100
AcDbEntity
  8
240
  6
CONTINUOUS
100
AcDbCircle
 10
26.0
 20
30.5
 30
0.0
 40
1.0
100
AcDbArc
 50
0.0
 51
90.0
  0
LINE
  5
1765
330
14BE
100
AcDbEntity
  8
240
  6
CONTINUOUS
100
AcDbLine
 10
27.0
 20
30.5
 30
0.0
 11
27.0
 21
30.0
 31
0.0
  0
LINE
  5
1766
330
14BE
100
AcDbEntity
  8
246
100
AcDbLine
 10
135.0
 20
12.5
 30
0.0
 11
135.0
 21
-12.5
 31
0.0
1001
GRPNAME
1000
PASTMD0L
  0
LINE
  5
1767
330
14BE
100
AcDbEntity
  8
241
  6
CONTINUOUS
100
AcDbLine
 10
116.77939208
 20
-4.90544291
 30
0.0
 11
134.5
 21
-10.69795326
 31
0.0
1001
GRPNAME
1000
PASTMD0L
  0
LINE
  5
1768
330
14BE
100
AcDbEntity
  8
240
  6
CONTINUOUS
100
AcDbLine
 10
134.5
 20
-11.8
 30
0.0
 11
134.5
 21
-3.21801488
 31
0.0
1001
GRPNAME
1000
PASTMD0L
  0
LINE
  5
1769
330
14BE
100
AcDbEntity
  8
246
100
AcDbLine
 10
135.0
 20
-12.5
 30
0.0
 11
126.0
 21
-12.5
 31
0.0
  0
LINE
  5
176A
330
14BE
100
AcDbEntity
  8
240
  6
CONTINUOUS
100
AcDbLine
 10
134.5
 20
-11.8
 30
0.0
 11
124.99999999
 21
-12.05
 31
0.0
1001
GRPNAME
1000
PASTMD0L
  0
LINE
  5
176B
330
14BE
100
AcDbEntity
  8
240
  6
CONTINUOUS
100
AcDbLine
 10
124.45050452
 20
-11.9
 30
0.0
 11
124.99999999
 21
-12.05
 31
0.0
1001
GRPNAME
1000
PASTMD0L
  0
LINE
  5
176C
330
14BE
100
AcDbEntity
  8
246
100
AcDbLine
 10
135.0
 20
12.5
 30
0.0
 11
126.0
 21
12.5
 31
0.0
  0
LWPOLYLINE
  5
176D
330
14BE
100
AcDbEntity
  8
241
  6
CONTINUOUS
100
AcDbPolyline
 90
       70
 70
     0
 43
0.0
 10
131.88749231
 20
7.4388302
 10
131.89781979
 20
7.50637395
 10
131.90506431
 20
7.57431737
 10
131.90921086
 20
7.64251965
 10
131.91025085
 20
7.71083944
 10
131.9081821
 20
7.77913514
 10
131.90300893
 20
7.84726522
 10
131.89474204
 20
7.91508846
 10
131.88339857
 20
7.98246432
 10
131.86900203
 20
8.04925315
 10
131.85158225
 20
8.11531653
 10
131.83117535
 20
8.18051754
 10
131.8078236
 20
8.24472106
 10
131.78157541
 20
8.30779403
 10
131.75248518
 20
8.36960572
 10
131.7206132
 20
8.43002803
 10
131.68602552
 20
8.48893574
 10
131.64879383
 20
8.54620675
 10
131.60899528
 20
8.60172238
 10
131.56671236
 20
8.65536757
 10
131.5220327
 20
8.70703113
 10
131.47504891
 20
8.756606
 10
131.42585835
 20
8.80398943
 10
131.37456297
 20
8.84908322
 10
131.32126908
 20
8.89179392
 10
131.26608714
 20
8.93203299
 10
131.2091315
 20
8.96971706
 10
131.15052021
 20
9.00476801
 10
131.09037475
 20
9.03711321
 10
131.02881976
 20
9.06668562
 10
130.96598281
 20
9.09342395
 10
130.90199414
 20
9.11727279
 10
130.83698636
 20
9.1381827
 10
130.7710942
 20
9.15611035
 10
130.70445422
 20
9.1710186
 10
130.63720454
 20
9.18287653
 10
130.56948452
 20
9.19165958
 10
130.50143453
 20
9.19734954
 10
130.43319558
 20
9.19993462
 10
130.36490912
 20
9.19940946
 10
130.29671666
 20
9.19577515
 10
130.22875952
 20
9.18903922
 10
130.16117856
 20
9.17921564
 10
130.09411384
 20
9.16632476
 10
130.02770434
 20
9.15039329
 10
129.9620877
 20
9.13145427
 10
129.89739991
 20
9.10954693
 10
129.83377503
 20
9.08471668
 10
129.77134494
 20
9.05701498
 10
129.71023901
 20
9.02649924
 10
129.65058389
 20
8.99323271
 10
129.59250321
 20
8.95728434
 10
129.53611734
 20
8.91872862
 10
129.48154315
 20
8.87764546
 10
129.42889374
 20
8.83412
 10
129.37827822
 20
8.78824246
 10
129.32980151
 20
8.74010792
 10
129.28356405
 20
8.68981613
 10
129.23966169
 20
8.63747132
 10
129.19818541
 20
8.58318198
 10
129.15922117
 20
8.52706062
 10
129.12284973
 20
8.46922356
 10
129.08914645
 20
8.40979066
 10
129.0581812
 20
8.3488851
 10
129.03001815
 20
8.2866331
 10
129.00471566
 20
8.22316369
 10
128.98232618
 20
8.15860839
 10
128.96289611
 20
8.09310101
 10
128.94646571
 20
8.0267773
 10
128.93306905
 20
7.95977473
1001
GRPNAME
1000
PASTMD0L
  0
LWPOLYLINE
  5
176E
330
14BE
100
AcDbEntity
  8
241
  6
CONTINUOUS
100
AcDbPolyline
 90
       70
 70
     0
 43
0.0
 10
128.93306905
 20
7.95977473
 10
128.91661898
 20
7.85749977
 10
128.90326452
 20
7.75489732
 10
128.89303332
 20
7.65218002
 10
128.8859466
 20
7.54956075
 10
128.88201904
 20
7.44725217
 10
128.88125879
 20
7.34546632
 10
128.88366741
 20
7.24441413
 10
128.88923992
 20
7.14430505
 10
128.89796477
 20
7.04534653
 10
128.90982388
 20
6.94774367
 10
128.92479266
 20
6.85169874
 10
128.9428401
 20
6.75741078
 10
128.96392879
 20
6.66507521
 10
128.98801504
 20
6.57488338
 10
129.01504891
 20
6.48702222
 10
129.04497439
 20
6.40167381
 10
129.07772946
 20
6.31901502
 10
129.11324623
 20
6.23921717
 10
129.15145109
 20
6.16244564
 10
129.19226488
 20
6.08885952
 10
129.235603
 20
6.01861132
 10
129.28137564
 20
5.95184662
 10
129.32948794
 20
5.8887038
 10
129.37984019
 20
5.82931371
 10
129.43232803
 20
5.77379943
 10
129.48684269
 20
5.72227602
 10
129.54327119
 20
5.67485025
 10
129.60149659
 20
5.63162042
 10
129.66139821
 20
5.59267611
 10
129.72285191
 20
5.55809803
 10
129.78573033
 20
5.52795784
 10
129.84990316
 20
5.50231801
 10
129.91523741
 20
5.48123168
 10
129.98159768
 20
5.46474254
 10
130.04884643
 20
5.45288477
 10
130.1168443
 20
5.44568295
 10
130.18545036
 20
5.44315199
 10
130.25452243
 20
5.44529714
 10
130.32391738
 20
5.45211397
 10
130.39349136
 20
5.46358833
 10
130.46310021
 20
5.47969645
 10
130.53259966
 20
5.50040495
 10
130.60184567
 20
5.52567091
 10
130.67069474
 20
5.55544197
 10
130.73900418
 20
5.58965643
 10
130.80663242
 20
5.62824337
 10
130.87343931
 20
5.67112284
 10
130.9392864
 20
5.71820597
 10
131.00403721
 20
5.76939517
 10
131.06755756
 20
5.82458437
 10
131.1297158
 20
5.88365918
 10
131.19038312
 20
5.94649718
 10
131.24943378
 20
6.01296814
 10
131.30674541
 20
6.08293429
 10
131.36219923
 20
6.15625065
 10
131.41568032
 20
6.23276527
 10
131.46707784
 20
6.31231956
 10
131.51628526
 20
6.39474867
 10
131.56320062
 20
6.47988176
 10
131.60772668
 20
6.5675424
 10
131.64977116
 20
6.65754891
 10
131.68924693
 20
6.74971477
 10
131.72607217
 20
6.84384896
 10
131.76017058
 20
6.9397564
 10
131.79147148
 20
7.03723832
 10
131.81991
 20
7.13609269
 10
131.84542721
 20
7.23611466
 10
131.86797022
 20
7.33709692
 10
131.88749231
 20
7.4388302
1001
GRPNAME
1000
PASTMD0L
  0
LINE
  5
176F
330
14BE
100
AcDbEntity
  8
240
  6
CONTINUOUS
100
AcDbLine
 10
134.5
 20
11.8
 30
0.0
 11
124.99999999
 21
12.05
 31
0.0
1001
GRPNAME
1000
PASTMD0L
  0
LINE
  5
1770
330
14BE
100
AcDbEntity
  8
241
  6
CONTINUOUS
100
AcDbLine
 10
123.89946266
 20
0.64026518
 30
0.0
 11
134.5
 21
-3.21801488
 31
0.0
1001
GRPNAME
1000
PASTMD0L
  0
LINE
  5
1771
330
14BE
100
AcDbEntity
  8
241
  6
CONTINUOUS
100
AcDbLine
 10
124.97055901
 20
2.83633814
 30
0.0
 11
134.5
 21
1.15604058
 31
0.0
1001
GRPNAME
1000
PASTMD0L
  0
LINE
  5
1772
330
14BE
100
AcDbEntity
  8
241
  6
CONTINUOUS
100
AcDbLine
 10
118.38105503
 20
1.4943155
 30
0.0
 11
123.84602145
 21
0.53069447
 31
0.0
1001
GRPNAME
1000
PASTMD0L
  0
LINE
  5
1773
330
14BE
100
AcDbEntity
  8
241
  6
CONTINUOUS
100
AcDbLine
 10
124.97055901
 20
2.83633814
 30
0.0
 11
123.84602145
 21
0.53069447
 31
0.0
1001
GRPNAME
1000
PASTMD0L
  0
LINE
  5
1774
330
14BE
100
AcDbEntity
  8
240
  6
CONTINUOUS
100
AcDbLine
 10
124.45050453
 20
11.9
 30
0.0
 11
124.99999999
 21
12.05
 31
0.0
1001
GRPNAME
1000
PASTMD0L
  0
LINE
  5
1775
330
14BE
100
AcDbEntity
  8
240
  6
CONTINUOUS
100
AcDbLine
 10
134.5
 20
1.15604058
 30
0.0
 11
134.5
 21
11.8
 31
0.0
1001
GRPNAME
1000
PASTMD0L
  0
LINE
  5
1776
330
14BE
100
AcDbEntity
  8
240
  6
CONTINUOUS
100
AcDbLine
 10
134.52154003
 20
1.15224249
 30
0.0
 11
135.0
 21
-3.4
 31
0.0
1001
GRPNAME
1000
PASTMD0L
  0
LINE
  5
1777
330
14BE
100
AcDbEntity
  8
240
  6
CONTINUOUS
100
AcDbLine
 10
135.0
 20
-3.4
 30
0.0
 11
134.5
 21
-3.21801488
 31
0.0
1001
GRPNAME
1000
PASTMD0L
  0
LINE
  5
1778
330
14BE
100
AcDbEntity
  8
240
  6
CONTINUOUS
100
AcDbLine
 10
134.52154003
 20
1.15224249
 30
0.0
 11
134.5
 21
1.15604058
 31
0.0
1001
GRPNAME
1000
PASTMD0L
  0
ENDBLK
  5
14C0
330
14BE
100
AcDbEntity
  8
0
100
AcDbBlockEnd
  0
ENDSEC
  0
SECTION
  2
ENTITIES
  0
TEXT
  5
12D0
330
1A
100
AcDbEntity
  8
241
100
AcDbText
 10
-65.4
 20
56.0
 30
0.0
 40
5.0
  1
BBT40-FCM25093-135
  7
YOKO
 11
-65.4
 21
56.0
 31
0.0
100
AcDbText
 73
     1
  0
DIMENSION
  5
1456
330
1A
100
AcDbEntity
  8
250
  6
CONTINUOUS
100
AcDbDimension
  2
*D1
 10
147.0
 20
12.5
 30
0.0
 11
144.25
 21
0.0
 31
0.0
 70
    32
  1
{\H3.5;\U+2205}<>
  3
BIGT
100
AcDbAlignedDimension
 13
135.0
 23
-12.5
 33
0.0
 14
135.0
 24
12.5
 34
0.0
 50
90.0
100
AcDbRotatedDimension
  0
DIMENSION
  5
1465
330
1A
100
AcDbEntity
  8
250
  6
CONTINUOUS
100
AcDbDimension
  2
*D2
 10
135.0
 20
28.0
 30
0.0
 11
130.5
 21
30.75
 31
0.0
 70
    32
  3
BIGT
100
AcDbAlignedDimension
 13
126.0
 23
12.5
 33
0.0
 14
135.0
 24
12.5
 34
0.0
100
AcDbRotatedDimension
  0
DIMENSION
  5
1474
330
1A
100
AcDbEntity
  8
250
  6
CONTINUOUS
100
AcDbDimension
  2
*D3
 10
135.0
 20
35.0
 30
0.0
 11
115.0
 21
37.75
 31
0.0
 70
    32
  3
BIGT
100
AcDbAlignedDimension
 13
95.0
 23
11.90593637
 33
0.0
 14
135.0
 24
12.5
 34
0.0
100
AcDbRotatedDimension
  0
DIMENSION
  5
1483
330
1A
100
AcDbEntity
  8
250
  6
CONTINUOUS
100
AcDbDimension
  2
*D4
 10
135.0
 20
42.0
 30
0.0
 11
67.5
 21
44.75
 31
0.0
 70
    32
  3
BIGT
100
AcDbAlignedDimension
 13
0.0
 23
22.225
 33
0.0
 14
135.0
 24
12.5
 34
0.0
100
AcDbRotatedDimension
  0
LEADER
  5
1616
330
1A
100
AcDbEntity
  8
250
  6
CONTINUOUS
100
AcDbLeader
  3
BIGT
 76
     2
 10
-26.64442081
 20
-18.3393553
 30
0.0
 10
-32.4583971
 20
-28.40945762
 30
0.0
1001
ACAD
1000
DSTYLE
1002
{
1070
     5
1000
OPEN
1070
   342
1005
594
1070
   343
1005
594
1002
}
  0
MTEXT
  5
1617
330
1A
100
AcDbEntity
  8
250
  6
CONTINUOUS
 62
    40
100
AcDbMText
 10
-47.39173044
 20
-27.40945762
 30
0.0
 40
2.8
 41
0.0
 71
     7
 72
     1
  1
BBT40
  7
YOKO
1001
ITEMNAME
1000
LNSP3
1001
ACAD
1000
MTEXTBEGIN
1070
    73
1070
     1
1070
    44
1040
1.0
1070
    74
1070
     0
1000
MTEXTEND
1000
MTEXTBEGIN
1070
    73
1070
     1
1070
    44
1040
1.0
1070
    74
1070
     0
1000
MTEXTEND
1000
MTEXTBEGIN
1070
    73
1070
     1
1070
    44
1040
1.0
1070
    74
1070
     0
1000
MTEXTEND
  0
LINE
  5
161A
330
1A
100
AcDbEntity
  8
250
  6
CONTINUOUS
100
AcDbLine
 10
-32.4583971
 20
-28.40945762
 30
0.0
 11
-50.19173044
 21
-28.40945762
 31
0.0
1001
ITEMNAME
1000
LNSP2
  0
INSERT
  5
1779
330
1A
100
AcDbEntity
  8
240
100
AcDbBlockReference
  2
1
 10
0.0
 20
0.0
 30
0.0
  0
VIEWPORT
  5
22
330
17
100
AcDbEntity
 67
     1
  8
0
100
AcDbViewport
 10
261.51769912
 20
148.5
 30
0.0
 40
523.03539823
 41
297.0
 68
     1
 69
     1
1001
ACAD
1000
MVIEW
1002
{
1070
    16
1010
0.0
1020
0.0
1030
0.0
1010
0.0
1020
0.0
1030
1.0
1040
0.0
1040
297.0
1040
261.51769912
1040
148.5
1040
50.0
1040
0.0
1040
0.0
1070
     0
1070
   100
1070
     1
1070
     1
1070
     0
1070
     0
1070
     0
1070
     0
1040
0.0
1040
0.0
1040
0.0
1040
1.0
1040
1.0
1040
10.0
1040
10.0
1070
     0
1002
{
1002
}
1002
}
  0
ENDSEC
  0
SECTION
  2
OBJECTS
  0
DICTIONARY
  5
C
330
0
100
AcDbDictionary
  3
ACAD_GROUP
350
D
  3
ACAD_LAYOUT
350
565
  3
ACAD_MLINESTYLE
350
E
  3
ACAD_PLOTSETTINGS
350
566
  3
ACAD_PLOTSTYLENAME
350
563
  3
ACDBHEADERROUNDTRIPXREC
350
17A2
  3
ACDBVARIABLEDICTIONARY
350
1358
  3
GRADE_DWG
350
540
  0
DICTIONARY
  5
1383
330
1A
100
AcDbDictionary
280
     1
  3
ACAD_LAYOUTSELFREF
360
17C4
  0
DICTIONARY
  5
1381
330
17
100
AcDbDictionary
280
     1
  3
ACAD_LAYOUTSELFREF
360
17C3
  0
DICTIONARY
  5
D
102
{ACAD_REACTORS
330
C
102
}
330
C
100
AcDbDictionary
  3
ASTMD01-1
350
938
  3
ASTMD02-1
350
DC9
  3
ASTMD07-1
350
932
  3
ASTMD0L-1
350
930
  3
ASTMD0N-1
350
10FD
  3
DREC-1
350
5FC
  3
DREC-2
350
654
  3
DREC-3
350
673
  3
LNSP-1
350
ADD
  3
M100001-1
350
934
  3
M100002-1
350
93A
  3
M100003-1
350
936
  0
DICTIONARY
  5
565
102
{ACAD_REACTORS
330
C
102
}
330
C
100
AcDbDictionary
  0
DICTIONARY
  5
E
102
{ACAD_REACTORS
330
C
102
}
330
C
100
AcDbDictionary
  3
STANDARD
350
13
  0
DICTIONARY
  5
566
102
{ACAD_REACTORS
330
C
102
}
330
C
100
AcDbDictionary
  0
ACDBDICTIONARYWDFLT
  5
563
102
{ACAD_REACTORS
330
C
102
}
330
C
100
AcDbDictionary
281
     1
  3
Normal
350
564
100
AcDbDictionaryWithDefault
340
564
  0
DICTIONARY
  5
17A2
102
{ACAD_REACTORS
330
C
102
}
330
C
100
AcDbDictionary
  3
CEPSNTYPE
350
17AC
  3
DIMSTYLEDATA
350
17B0
  3
FINGERPRINTGUID
350
17AD
  3
HYPERLINKBASE
350
17A5
  3
INSUNITS
350
17AB
  3
LAYOUTDICT
350
17A7
  3
LWETCUNION
350
17AA
  3
PLOTSETDICT
350
17A8
  3
PLOTSTYLNAMDICT
350
17A9
  3
PSVPSCALE
350
17AF
  3
PUCSBASE
350
17B3
  3
PUCSORGBACK
350
17B9
  3
PUCSORGBOTTOM
350
17B5
  3
PUCSORGFRONT
350
17B8
  3
PUCSORGLEFT
350
17B6
  3
PUCSORGRIGHT
350
17B7
  3
PUCSORGTOP
350
17B4
  3
PUCSORTHOREF
350
17B1
  3
PUCSORTHOVIEW
350
17B2
  3
STYLESHEET
350
17A6
  3
TSTACKALIGN
350
17A3
  3
TSTACKSIZE
350
17A4
  3
UCSBASE
350
17BC
  3
UCSORGBACK
350
17C2
  3
UCSORGBOTTOM
350
17BE
  3
UCSORGFRONT
350
17C1
  3
UCSORGLEFT
350
17BF
  3
UCSORGRIGHT
350
17C0
  3
UCSORGTOP
350
17BD
  3
UCSORTHOREF
350
17BA
  3
UCSORTHOVIEW
350
17BB
  3
VERSIONGUID
350
17AE
  0
DICTIONARY
  5
1358
102
{ACAD_REACTORS
330
C
102
}
330
C
100
AcDbDictionary
  3
DIMASSOC
350
1359
  0
DICTIONARY
  5
540
102
{ACAD_REACTORS
330
C
102
}
330
C
100
AcDbDictionary
  3
VERSION
350
560
  0
XRECORD
  5
17C4
102
{ACAD_REACTORS
330
1383
102
}
330
1383
100
AcDbXrecord
340
1A
  0
XRECORD
  5
17C3
102
{ACAD_REACTORS
330
1381
102
}
330
1381
100
AcDbXrecord
340
17
  0
GROUP
  5
938
102
{ACAD_REACTORS
330
D
102
}
330
D
100
AcDbGroup
300

 70
     0
 71
     1
1001
GRPNAME
1000
PASTMD01
  0
GROUP
  5
DC9
102
{ACAD_REACTORS
330
D
102
}
330
D
100
AcDbGroup
300

 70
     0
 71
     1
1001
GRPNAME
1000
PASTMD02
  0
GROUP
  5
932
102
{ACAD_REACTORS
330
D
102
}
330
D
100
AcDbGroup
300

 70
     0
 71
     1
1001
GRPNAME
1000
PASTMD07
  0
GROUP
  5
930
102
{ACAD_REACTORS
330
D
102
}
330
D
100
AcDbGroup
300

 70
     0
 71
     1
1001
GRPNAME
1000
PASTMD0L
  0
GROUP
  5
10FD
102
{ACAD_REACTORS
330
D
102
}
330
D
100
AcDbGroup
300

 70
     0
 71
     1
1001
GRPNAME
1000
PASTMD0N
  0
GROUP
  5
5FC
102
{ACAD_REACTORS
330
D
102
}
330
D
100
AcDbGroup
300

 70
     0
 71
     1
1001
GRPNAME
1000
DREC-
1001
GPARA
1000
xsiz
1000
44.182
1000
ysiz
1000
40.677
1000
angl
1000
0
1000
ctyp
1000
0
1000
csiz
1000
5
1000
lfnt
1000
cont
1000
hcnt
1000
hoff
1000
vcnt
1000
voff
1000
opnt
1000
4
1000
dxpt
1000
0
1000
dypt
1000
0
  0
GROUP
  5
654
102
{ACAD_REACTORS
330
D
102
}
330
D
100
AcDbGroup
300

 70
     0
 71
     1
1001
GRPNAME
1000
DREC-
1001
GPARA
1000
xsiz
1000
54.592
1000
ysiz
1000
53.036
1000
angl
1000
0
1000
ctyp
1000
0
1000
csiz
1000
5
1000
lfnt
1000
cont
1000
hcnt
1000
hoff
1000
vcnt
1000
voff
1000
opnt
1000
4
1000
dxpt
1000
0
1000
dypt
1000
0
  0
GROUP
  5
673
102
{ACAD_REACTORS
330
D
102
}
330
D
100
AcDbGroup
300

 70
     0
 71
     1
1001
GRPNAME
1000
DREC-
1001
GPARA
1000
xsiz
1000
30.363
1000
ysiz
1000
36.175
1000
angl
1000
0
1000
ctyp
1000
0
1000
csiz
1000
5
1000
lfnt
1000
cont
1000
hcnt
1000
hoff
1000
vcnt
1000
voff
1000
opnt
1000
4
1000
dxpt
1000
0
1000
dypt
1000
0
  0
GROUP
  5
ADD
102
{ACAD_REACTORS
330
D
102
}
330
D
100
AcDbGroup
300

 70
     0
 71
     1
1001
GRPNAME
1000
LNSP
  0
GROUP
  5
934
102
{ACAD_REACTORS
330
D
102
}
330
D
100
AcDbGroup
300

 70
     0
 71
     1
1001
GRPNAME
1000
DM100001
  0
GROUP
  5
93A
102
{ACAD_REACTORS
330
D
102
}
330
D
100
AcDbGroup
300

 70
     0
 71
     1
1001
GRPNAME
1000
DM100002
  0
GROUP
  5
936
102
{ACAD_REACTORS
330
D
102
}
330
D
100
AcDbGroup
300

 70
     0
 71
     1
1001
GRPNAME
1000
DM100003
  0
MLINESTYLE
  5
13
102
{ACAD_REACTORS
330
E
102
}
330
E
100
AcDbMlineStyle
  2
STANDARD
 70
     0
  3

 62
     0
 51
90.0
 52
90.0
 71
     2
 49
0.5
 62
   256
  6
BYLAYER
 49
-0.5
 62
   256
  6
BYLAYER
  0
ACDBPLACEHOLDER
  5
564
102
{ACAD_REACTORS
330
563
102
}
330
563
100
AcDbPlaceHolder
280
     0
  0
XRECORD
  5
17AC
102
{ACAD_REACTORS
330
17A2
102
}
330
17A2
100
AcDbXrecord
 90
        0
  0
XRECORD
  5
17B0
102
{ACAD_REACTORS
330
17A2
102
}
330
17A2
100
AcDbXrecord
1000
DSTYLE
1002
{
1070
   341
340
594
1070
   342
340
594
1002
}
  0
XRECORD
  5
17AD
102
{ACAD_REACTORS
330
17A2
102
}
330
17A2
100
AcDbXrecord
  1
{51294030-9CB4-11D3-8E18-00A0C925D94D}
  0
XRECORD
  5
17A5
102
{ACAD_REACTORS
330
17A2
102
}
330
17A2
100
AcDbXrecord
  1

  0
XRECORD
  5
17AB
102
{ACAD_REACTORS
330
17A2
102
}
330
17A2
100
AcDbXrecord
 90
        0
  0
XRECORD
  5
17A7
102
{ACAD_REACTORS
330
17A2
102
}
330
17A2
100
AcDbXrecord
340
565
  0
XRECORD
  5
17AA
102
{ACAD_REACTORS
330
17A2
102
}
330
17A2
100
AcDbXrecord
 90
    10781
  0
XRECORD
  5
17A8
102
{ACAD_REACTORS
330
17A2
102
}
330
17A2
100
AcDbXrecord
340
566
  0
XRECORD
  5
17A9
102
{ACAD_REACTORS
330
17A2
102
}
330
17A2
100
AcDbXrecord
340
563
  0
XRECORD
  5
17AF
102
{ACAD_REACTORS
330
17A2
102
}
330
17A2
100
AcDbXrecord
 40
0.0
  0
XRECORD
  5
17B3
102
{ACAD_REACTORS
330
17A2
102
}
330
17A2
100
AcDbXrecord
340
0
  0
XRECORD
  5
17B9
102
{ACAD_REACTORS
330
17A2
102
}
330
17A2
100
AcDbXrecord
 10
0.0
 20
0.0
 30
0.0
  0
XRECORD
  5
17B5
102
{ACAD_REACTORS
330
17A2
102
}
330
17A2
100
AcDbXrecord
 10
0.0
 20
0.0
 30
0.0
  0
XRECORD
  5
17B8
102
{ACAD_REACTORS
330
17A2
102
}
330
17A2
100
AcDbXrecord
 10
0.0
 20
0.0
 30
0.0
  0
XRECORD
  5
17B6
102
{ACAD_REACTORS
330
17A2
102
}
330
17A2
100
AcDbXrecord
 10
0.0
 20
0.0
 30
0.0
  0
XRECORD
  5
17B7
102
{ACAD_REACTORS
330
17A2
102
}
330
17A2
100
AcDbXrecord
 10
0.0
 20
0.0
 30
0.0
  0
XRECORD
  5
17B4
102
{ACAD_REACTORS
330
17A2
102
}
330
17A2
100
AcDbXrecord
 10
0.0
 20
0.0
 30
0.0
  0
XRECORD
  5
17B1
102
{ACAD_REACTORS
330
17A2
102
}
330
17A2
100
AcDbXrecord
340
0
  0
XRECORD
  5
17B2
102
{ACAD_REACTORS
330
17A2
102
}
330
17A2
100
AcDbXrecord
 70
     0
  0
XRECORD
  5
17A6
102
{ACAD_REACTORS
330
17A2
102
}
330
17A2
100
AcDbXrecord
  1
big.ctb
  0
XRECORD
  5
17A3
102
{ACAD_REACTORS
330
17A2
102
}
330
17A2
100
AcDbXrecord
 90
        1
  0
XRECORD
  5
17A4
102
{ACAD_REACTORS
330
17A2
102
}
330
17A2
100
AcDbXrecord
 90
       70
  0
XRECORD
  5
17BC
102
{ACAD_REACTORS
330
17A2
102
}
330
17A2
100
AcDbXrecord
340
0
  0
XRECORD
  5
17C2
102
{ACAD_REACTORS
330
17A2
102
}
330
17A2
100
AcDbXrecord
 10
0.0
 20
0.0
 30
0.0
  0
XRECORD
  5
17BE
102
{ACAD_REACTORS
330
17A2
102
}
330
17A2
100
AcDbXrecord
 10
0.0
 20
0.0
 30
0.0
  0
XRECORD
  5
17C1
102
{ACAD_REACTORS
330
17A2
102
}
330
17A2
100
AcDbXrecord
 10
0.0
 20
0.0
 30
0.0
  0
XRECORD
  5
17BF
102
{ACAD_REACTORS
330
17A2
102
}
330
17A2
100
AcDbXrecord
 10
0.0
 20
0.0
 30
0.0
  0
XRECORD
  5
17C0
102
{ACAD_REACTORS
330
17A2
102
}
330
17A2
100
AcDbXrecord
 10
0.0
 20
0.0
 30
0.0
  0
XRECORD
  5
17BD
102
{ACAD_REACTORS
330
17A2
102
}
330
17A2
100
AcDbXrecord
 10
0.0
 20
0.0
 30
0.0
  0
XRECORD
  5
17BA
102
{ACAD_REACTORS
330
17A2
102
}
330
17A2
100
AcDbXrecord
340
0
  0
XRECORD
  5
17BB
102
{ACAD_REACTORS
330
17A2
102
}
330
17A2
100
AcDbXrecord
 70
     0
  0
XRECORD
  5
17AE
102
{ACAD_REACTORS
330
17A2
102
}
330
17A2
100
AcDbXrecord
  1
{854C20BB-97F0-415E-A6DF-17D836DA631B}
  0
DICTIONARYVAR
  5
1359
102
{ACAD_REACTORS
330
1358
102
}
330
1358
100
DictionaryVariables
280
     0
  1
1
  0
XRECORD
  5
560
102
{ACAD_REACTORS
330
540
102
}
330
540
100
AcDbXrecord
  1
2.0.0
  0
ENDSEC
  0
EOF
