  0
SECTION
  2
HEADER
  9
$ACADVER
  1
AC1014
  9
$ACADMAINTVER
 70
     9
  9
$DWGCODEPAGE
  3
ANSI_932
  9
$INSBASE
 10
0.0
 20
0.0
 30
0.0
  9
$EXTMIN
 10
-66.41484262
 20
-31.71713736
 30
-0.00152582
  9
$EXTMAX
 10
148.00312582
 20
61.02264515
 30
0.00000003
  9
$LIMMIN
 10
0.0
 20
0.0
  9
$LIMMAX
 10
420.0
 20
297.0
  9
$ORTHOMODE
 70
     0
  9
$REGENMODE
 70
     1
  9
$FILLMODE
 70
     1
  9
$QTEXTMODE
 70
     0
  9
$MIRRTEXT
 70
     1
  9
$DRAGMODE
 70
     2
  9
$LTSCALE
 40
10.0
  9
$OSMODE
 70
   549
  9
$ATTMODE
 70
     1
  9
$TEXTSIZE
 40
3.0
  9
$TRACEWID
 40
1.0
  9
$TEXTSTYLE
  7
YOKO
  9
$CLAYER
  8
245
  9
$CELTYPE
  6
BYLAYER
  9
$CECOLOR
 62
   256
  9
$CELTSCALE
 40
1.0
  9
$DELOBJ
 70
     1
  9
$DISPSILH
 70
     0
  9
$DIMSCALE
 40
1.0
  9
$DIMASZ
 40
2.23
  9
$DIMEXO
 40
0.5
  9
$DIMDLI
 40
2.5
  9
$DIMRND
 40
0.0
  9
$DIMDLE
 40
0.0
  9
$DIMEXE
 40
1.0
  9
$DIMTP
 40
0.0
  9
$DIMTM
 40
0.0
  9
$DIMTXT
 40
2.8
  9
$DIMCEN
 40
0.0
  9
$DIMTSZ
 40
0.0
  9
$DIMTOL
 70
     0
  9
$DIMLIM
 70
     0
  9
$DIMTIH
 70
     0
  9
$DIMTOH
 70
     0
  9
$DIMSE1
 70
     0
  9
$DIMSE2
 70
     0
  9
$DIMTAD
 70
     3
  9
$DIMZIN
 70
     8
  9
$DIMBLK
  1

  9
$DIMASO
 70
     1
  9
$DIMSHO
 70
     1
  9
$DIMPOST
  1

  9
$DIMAPOST
  1

  9
$DIMALT
 70
     0
  9
$DIMALTD
 70
     2
  9
$DIMALTF
 40
25.4
  9
$DIMLFAC
 40
1.0
  9
$DIMTOFL
 70
     1
  9
$DIMTVP
 40
0.0
  9
$DIMTIX
 70
     1
  9
$DIMSOXD
 70
     0
  9
$DIMSAH
 70
     1
  9
$DIMBLK1
  1
OPEN
  9
$DIMBLK2
  1
OPEN
  9
$DIMSTYLE
  2
BIGT
  9
$DIMCLRD
 70
   256
  9
$DIMCLRE
 70
   256
  9
$DIMCLRT
 70
    40
  9
$DIMTFAC
 40
1.0
  9
$DIMGAP
 40
1.0
  9
$DIMJUST
 70
     0
  9
$DIMSD1
 70
     0
  9
$DIMSD2
 70
     0
  9
$DIMTOLJ
 70
     1
  9
$DIMTZIN
 70
     8
  9
$DIMALTZ
 70
     0
  9
$DIMALTTZ
 70
     0
  9
$DIMFIT
 70
     3
  9
$DIMUPT
 70
     0
  9
$DIMUNIT
 70
     2
  9
$DIMDEC
 70
     3
  9
$DIMTDEC
 70
     3
  9
$DIMALTU
 70
     2
  9
$DIMALTTD
 70
     2
  9
$DIMTXSTY
  7
STANDARD
  9
$DIMAUNIT
 70
     0
  9
$LUNITS
 70
     2
  9
$LUPREC
 70
     3
  9
$SKETCHINC
 40
1.0
  9
$FILLETRAD
 40
1.6
  9
$AUNITS
 70
     0
  9
$AUPREC
 70
     3
  9
$MENU
  1
.
  9
$ELEVATION
 40
0.0
  9
$PELEVATION
 40
0.0
  9
$THICKNESS
 40
0.0
  9
$LIMCHECK
 70
     0
  9
$BLIPMODE
 70
     0
  9
$CHAMFERA
 40
10.0
  9
$CHAMFERB
 40
10.0
  9
$CHAMFERC
 40
0.0
  9
$CHAMFERD
 40
0.0
  9
$SKPOLY
 70
     0
  9
$TDCREATE
 40
2455140.643590127
  9
$TDUPDATE
 40
2455377.613289930
  9
$TDINDWG
 40
0.0314480324
  9
$TDUSRTIMER
 40
0.0314480324
  9
$USRTIMER
 70
     1
  9
$ANGBASE
 50
0.0
  9
$ANGDIR
 70
     0
  9
$PDMODE
 70
     1
  9
$PDSIZE
 40
-5.0
  9
$PLINEWID
 40
0.0
  9
$COORDS
 70
     0
  9
$SPLFRAME
 70
     0
  9
$SPLINETYPE
 70
     6
  9
$SPLINESEGS
 70
     8
  9
$ATTDIA
 70
     0
  9
$ATTREQ
 70
     1
  9
$HANDLING
 70
-16383
  9
$HANDSEED
  5
CEF
  9
$SURFTAB1
 70
     6
  9
$SURFTAB2
 70
     6
  9
$SURFTYPE
 70
     6
  9
$SURFU
 70
     6
  9
$SURFV
 70
     6
  9
$UCSNAME
  2

  9
$UCSORG
 10
0.0
 20
0.0
 30
0.0
  9
$UCSXDIR
 10
1.0
 20
0.0
 30
0.0
  9
$UCSYDIR
 10
0.0
 20
1.0
 30
0.0
  9
$PUCSNAME
  2

  9
$PUCSORG
 10
0.0
 20
0.0
 30
0.0
  9
$PUCSXDIR
 10
1.0
 20
0.0
 30
0.0
  9
$PUCSYDIR
 10
0.0
 20
1.0
 30
0.0
  9
$USERI1
 70
     1
  9
$USERI2
 70
     0
  9
$USERI3
 70
     0
  9
$USERI4
 70
     0
  9
$USERI5
 70
     0
  9
$USERR1
 40
0.0
  9
$USERR2
 40
0.0
  9
$USERR3
 40
0.0
  9
$USERR4
 40
0.0
  9
$USERR5
 40
0.0
  9
$WORLDVIEW
 70
     1
  9
$SHADEDGE
 70
     3
  9
$SHADEDIF
 70
    70
  9
$TILEMODE
 70
     1
  9
$MAXACTVP
 70
    16
  9
$PINSBASE
 10
0.0
 20
0.0
 30
0.0
  9
$PLIMCHECK
 70
     0
  9
$PEXTMIN
 10
1.00000000E+20
 20
1.00000000E+20
 30
1.00000000E+20
  9
$PEXTMAX
 10
-1.00000000E+20
 20
-1.00000000E+20
 30
-1.00000000E+20
  9
$PLIMMIN
 10
0.0
 20
0.0
  9
$PLIMMAX
 10
420.0
 20
297.0
  9
$UNITMODE
 70
     0
  9
$VISRETAIN
 70
     0
  9
$PLINEGEN
 70
     0
  9
$PSLTSCALE
 70
     1
  9
$TREEDEPTH
 70
  3020
  9
$PICKSTYLE
 70
     0
  9
$CMLSTYLE
  2
STANDARD
  9
$CMLJUST
 70
     0
  9
$CMLSCALE
 40
1.0
  9
$PROXYGRAPHICS
 70
     1
  9
$MEASUREMENT
 70
     1
  0
ENDSEC
  0
SECTION
  2
CLASSES
  0
CLASS
  1
XRECORD
  2
AcDbXrecord
  3
AutoCAD 2000
 90
        0
280
     0
281
     0
  0
CLASS
  1
ACDBDICTIONARYWDFLT
  2
AcDbDictionaryWithDefault
  3
AutoCAD 2000
 90
        0
280
     0
281
     0
  0
CLASS
  1
ACDBPLACEHOLDER
  2
AcDbPlaceHolder
  3
AutoCAD 2000
 90
        0
280
     0
281
     0
  0
CLASS
  1
LAYOUT
  2
AcDbLayout
  3
AutoCAD 2000
 90
        0
280
     0
281
     0
  0
CLASS
  1
PLOTSETTINGS
  2
AcDbPlotSettings
  3
AutoCAD 2000
 90
        0
280
     0
281
     0
  0
CLASS
  1
LONG_TRANSACTION
  2
AcDbLongTransaction
  3
AutoCAD 2000
 90
        0
280
     0
281
     0
  0
CLASS
  1
LWPOLYLINE
  2
AcDbPolyline
  3
AutoCAD 2000
 90
        0
280
     0
281
     1
  0
CLASS
  1
HATCH
  2
AcDbHatch
  3
AutoCAD 2000
 90
        0
280
     0
281
     1
  0
CLASS
  1
XRECORD
  2
AcDbXrecord
  3
AutoCAD 2000
 90
        0
280
     0
281
     0
  0
CLASS
  1
LONG_TRANSACTION
  2
AcDbLongTransaction
  3
AutoCAD 2000
 90
        0
280
     0
281
     0
  0
CLASS
  1
LWPOLYLINE
  2
AcDbPolyline
  3
AutoCAD 2000
 90
        0
280
     0
281
     1
  0
CLASS
  1
HATCH
  2
AcDbHatch
  3
AutoCAD 2000
 90
        0
280
     0
281
     1
  0
CLASS
  1
XRECORD
  2
AcDbXrecord
  3
AutoCAD 2000
 90
        0
280
     0
281
     0
  0
CLASS
  1
LONG_TRANSACTION
  2
AcDbLongTransaction
  3
AutoCAD 2000
 90
        0
280
     0
281
     0
  0
CLASS
  1
LWPOLYLINE
  2
AcDbPolyline
  3
AutoCAD 2000
 90
        0
280
     0
281
     1
  0
CLASS
  1
HATCH
  2
AcDbHatch
  3
AutoCAD 2000
 90
        0
280
     0
281
     1
  0
CLASS
  1
XRECORD
  2
AcDbXrecord
  3
AutoCAD 2000
 90
        0
280
     0
281
     0
  0
ENDSEC
  0
SECTION
  2
TABLES
  0
TABLE
  2
VPORT
  5
8
330
0
100
AcDbSymbolTable
 70
     4
  0
VPORT
  5
CCA
330
8
100
AcDbSymbolTableRecord
100
AcDbViewportTableRecord
  2
*ACTIVE
 70
     0
 10
0.0
 20
0.0
 11
1.0
 21
1.0
 12
40.7941416
 22
14.65275389
 13
0.0
 23
0.0
 14
7.0
 24
7.0
 15
7.0
 25
7.0
 16
0.0
 26
0.0
 36
1.0
 17
0.0
 27
0.0
 37
0.0
 40
148.05439877
 41
1.45595855
 42
50.0
 43
0.0
 44
0.0
 50
0.0
 51
0.0
 71
     0
 72
  2000
 73
     1
 74
     0
 75
     0
 76
     0
 77
     0
 78
     0
  0
ENDTAB
  0
TABLE
  2
LTYPE
  5
5
330
0
100
AcDbSymbolTable
 70
     4
  0
LTYPE
  5
14
330
5
100
AcDbSymbolTableRecord
100
AcDbLinetypeTableRecord
  2
BYBLOCK
 70
     0
  3

 72
    65
 73
     0
 40
0.0
  0
LTYPE
  5
15
330
5
100
AcDbSymbolTableRecord
100
AcDbLinetypeTableRecord
  2
BYLAYER
 70
     0
  3

 72
    65
 73
     0
 40
0.0
  0
LTYPE
  5
16
330
5
100
AcDbSymbolTableRecord
100
AcDbLinetypeTableRecord
  2
CONTINUOUS
 70
     0
  3
Solid line
 72
    65
 73
     0
 40
0.0
  0
LTYPE
  5
258
330
5
100
AcDbSymbolTableRecord
100
AcDbLinetypeTableRecord
  2
CENTER2
 70
     0
  3
___ _ ___ _ ___ _ ___ _ ___ _ ___ _ ___ _ ___ _
 72
    65
 73
     4
 40
1.125
 49
0.75
 74
     0
 49
-0.125
 74
     0
 49
0.125
 74
     0
 49
-0.125
 74
     0
  0
LTYPE
  5
25C
330
5
100
AcDbSymbolTableRecord
100
AcDbLinetypeTableRecord
  2
HIDDEN2
 70
     0
  3
_ _ _ _ _ _ _ _ _ _ _ _ _ _ _ _ _ _ _ _ _ _ _ _
 72
    65
 73
     2
 40
0.1875
 49
0.125
 74
     0
 49
-0.0625
 74
     0
  0
LTYPE
  5
25D
330
5
100
AcDbSymbolTableRecord
100
AcDbLinetypeTableRecord
  2
PHANTOM2
 70
     0
  3
___ _ _ ___ _ _ ___ _ _ ___ _ _ ___ _ _ ___ _ _
 72
    65
 73
     6
 40
1.25
 49
0.625
 74
     0
 49
-0.125
 74
     0
 49
0.125
 74
     0
 49
-0.125
 74
     0
 49
0.125
 74
     0
 49
-0.125
 74
     0
  0
ENDTAB
  0
TABLE
  2
LAYER
  5
2
330
0
100
AcDbSymbolTable
 70
     9
  0
LAYER
  5
F
330
2
100
AcDbSymbolTableRecord
100
AcDbLayerTableRecord
  2
0
 70
     0
 62
     7
  6
CONTINUOUS
  0
LAYER
  5
1AA
330
2
100
AcDbSymbolTableRecord
100
AcDbLayerTableRecord
  2
240
 70
     0
 62
     4
  6
CONTINUOUS
  0
LAYER
  5
1AB
330
2
100
AcDbSymbolTableRecord
100
AcDbLayerTableRecord
  2
241
 70
     0
 62
   211
  6
CONTINUOUS
  0
LAYER
  5
1AF
330
2
100
AcDbSymbolTableRecord
100
AcDbLayerTableRecord
  2
245
 70
     0
 62
     2
  6
CENTER2
  0
LAYER
  5
21A
330
2
100
AcDbSymbolTableRecord
100
AcDbLayerTableRecord
  2
246
 70
     0
 62
     3
  6
PHANTOM2
  0
LAYER
  5
21E
330
2
100
AcDbSymbolTableRecord
100
AcDbLayerTableRecord
  2
250
 70
     0
 62
     3
  6
CONTINUOUS
  0
LAYER
  5
5C4
330
2
100
AcDbSymbolTableRecord
100
AcDbLayerTableRecord
  2
DEFPOINTS
 70
     0
 62
     7
  6
CONTINUOUS
  0
ENDTAB
  0
TABLE
  2
STYLE
  5
3
330
0
100
AcDbSymbolTable
 70
     2
  0
STYLE
  5
10
330
3
100
AcDbSymbolTableRecord
100
AcDbTextStyleTableRecord
  2
STANDARD
 70
     0
 40
0.0
 41
1.0
 50
0.0
 71
     0
 42
3.0
  3
romans.shx
  4
BIGFONT.SHX
  0
STYLE
  5
339
330
3
100
AcDbSymbolTableRecord
100
AcDbTextStyleTableRecord
  2
YOKO
 70
     0
 40
0.0
 41
1.0
 50
0.0
 71
     0
 42
3.0
  3
romans.shx
  4
extfont.shx
  0
ENDTAB
  0
TABLE
  2
VIEW
  5
6
330
0
100
AcDbSymbolTable
 70
     1
  0
VIEW
  5
CC8
330
6
100
AcDbSymbolTableRecord
100
AcDbViewTableRecord
  2
OLE1
 70
     0
 40
148.05439877
 10
40.7941416
 20
14.65275389
 41
215.56106764
 11
0.0
 21
0.0
 31
1.0
 12
0.0
 22
0.0
 32
0.0
 42
50.0
 43
0.0
 44
0.0
 50
0.0
 71
     0
  0
ENDTAB
  0
TABLE
  2
UCS
  5
7
330
0
100
AcDbSymbolTable
 70
     0
  0
ENDTAB
  0
TABLE
  2
APPID
  5
9
330
0
100
AcDbSymbolTable
 70
    12
  0
APPID
  5
11
330
9
100
AcDbSymbolTableRecord
100
AcDbRegAppTableRecord
  2
ACAD
 70
     0
  0
APPID
  5
1B1
330
9
100
AcDbSymbolTableRecord
100
AcDbRegAppTableRecord
  2
GLOBAL
 70
     0
  0
APPID
  5
2A4
330
9
100
AcDbSymbolTableRecord
100
AcDbRegAppTableRecord
  2
DETAIL
 70
     0
  0
APPID
  5
5FD
330
9
100
AcDbSymbolTableRecord
100
AcDbRegAppTableRecord
  2
GRPNAME
 70
     0
  0
APPID
  5
5FE
330
9
100
AcDbSymbolTableRecord
100
AcDbRegAppTableRecord
  2
GPARA
 70
     0
  0
APPID
  5
6C4
330
9
100
AcDbSymbolTableRecord
100
AcDbRegAppTableRecord
  2
DCO15
 70
     0
  0
APPID
  5
6C5
330
9
100
AcDbSymbolTableRecord
100
AcDbRegAppTableRecord
  2
ITEMNAME
 70
     0
  0
APPID
  5
6C6
330
9
100
AcDbSymbolTableRecord
100
AcDbRegAppTableRecord
  2
GRADE_0
 70
     0
  0
APPID
  5
84A
330
9
100
AcDbSymbolTableRecord
100
AcDbRegAppTableRecord
  2
HATCH_TYPE
 70
     0
  0
APPID
  5
84B
330
9
100
AcDbSymbolTableRecord
100
AcDbRegAppTableRecord
  2
HATCH_DISPLAY
 70
     0
  0
APPID
  5
84C
330
9
100
AcDbSymbolTableRecord
100
AcDbRegAppTableRecord
  2
HATCH_DISTANCE
 70
     0
  0
APPID
  5
A7D
330
9
100
AcDbSymbolTableRecord
100
AcDbRegAppTableRecord
  2
CONTENTBLOCKICON
 70
     0
  0
ENDTAB
  0
TABLE
  2
DIMSTYLE
  5
A
330
0
100
AcDbSymbolTable
 70
     4
  0
DIMSTYLE
105
725
102
{ACAD_REACTORS
330
94F
330
95E
330
96D
330
97C
102
}
330
A
100
AcDbSymbolTableRecord
100
AcDbDimStyleTableRecord
  2
BIGT
 70
     0
  3

  4

  5

  6
OPEN
  7
OPEN
 40
1.0
 41
2.23
 42
0.5
 43
2.5
 44
1.0
 45
0.0
 46
0.0
 47
0.0
 48
0.0
140
2.8
141
0.0
142
0.0
143
25.4
144
1.0
145
0.0
146
1.0
147
1.0
 71
     0
 72
     0
 73
     0
 74
     0
 75
     0
 76
     0
 77
     3
 78
     8
170
     0
171
     2
172
     1
173
     1
174
     1
175
     0
176
   256
177
   256
178
    40
270
     2
271
     3
272
     3
273
     2
274
     2
340
10
275
     0
280
     0
281
     0
282
     0
283
     1
284
     8
285
     0
286
     0
287
     3
288
     0
  0
ENDTAB
  0
TABLE
  2
BLOCK_RECORD
  5
1
330
0
100
AcDbSymbolTable
 70
     8
  0
BLOCK_RECORD
  5
1A
102
{ACAD_XDICTIONARY
360
A7B
102
}
330
1
100
AcDbSymbolTableRecord
100
AcDbBlockTableRecord
  2
*MODEL_SPACE
  0
BLOCK_RECORD
  5
17
102
{ACAD_XDICTIONARY
360
A79
102
}
330
1
100
AcDbSymbolTableRecord
100
AcDbBlockTableRecord
  2
*PAPER_SPACE
  0
BLOCK_RECORD
  5
594
330
1
100
AcDbSymbolTableRecord
100
AcDbBlockTableRecord
  2
_OPEN
  0
BLOCK_RECORD
  5
6E3
330
1
100
AcDbSymbolTableRecord
100
AcDbBlockTableRecord
  2
矢印なし
  0
BLOCK_RECORD
  5
950
330
1
100
AcDbSymbolTableRecord
100
AcDbBlockTableRecord
  2
*D2
  0
BLOCK_RECORD
  5
95F
330
1
100
AcDbSymbolTableRecord
100
AcDbBlockTableRecord
  2
*D3
  0
BLOCK_RECORD
  5
96E
330
1
100
AcDbSymbolTableRecord
100
AcDbBlockTableRecord
  2
*D4
  0
BLOCK_RECORD
  5
97D
330
1
100
AcDbSymbolTableRecord
100
AcDbBlockTableRecord
  2
*D5
  0
BLOCK_RECORD
  5
9DB
330
1
100
AcDbSymbolTableRecord
100
AcDbBlockTableRecord
  2
1
1001
CONTENTBLOCKICON
1071
        0
1004
2800000020000000200000000100080000000000000400000000000000000000000000000000000000000000000080000080000000808000800000008000800080800000C0C0C000C0DCC000F0CAA6000020400000206000002080000020A0000020C0000020E00000400000004020000040400000406000004080000040A0
1004
000040C0000040E00000600000006020000060400000606000006080000060A0000060C0000060E00000800000008020000080400000806000008080000080A0000080C0000080E00000A0000000A0200000A0400000A0600000A0800000A0A00000A0C00000A0E00000C0000000C0200000C0400000C0600000C0800000C0
1004
A00000C0C00000C0E00000E0000000E0200000E0400000E0600000E0800000E0A00000E0C00000E0E00040000000400020004000400040006000400080004000A0004000C0004000E00040200000402020004020400040206000402080004020A0004020C0004020E000404000004040200040404000404060004040800040
1004
40A0004040C0004040E00040600000406020004060400040606000406080004060A0004060C0004060E00040800000408020004080400040806000408080004080A0004080C0004080E00040A0000040A0200040A0400040A0600040A0800040A0A00040A0C00040A0E00040C0000040C0200040C0400040C0600040C08000
1004
40C0A00040C0C00040C0E00040E0000040E0200040E0400040E0600040E0800040E0A00040E0C00040E0E00080000000800020008000400080006000800080008000A0008000C0008000E00080200000802020008020400080206000802080008020A0008020C0008020E00080400000804020008040400080406000804080
1004
008040A0008040C0008040E00080600000806020008060400080606000806080008060A0008060C0008060E00080800000808020008080400080806000808080008080A0008080C0008080E00080A0000080A0200080A0400080A0600080A0800080A0A00080A0C00080A0E00080C0000080C0200080C0400080C0600080C0
1004
800080C0A00080C0C00080C0E00080E0000080E0200080E0400080E0600080E0800080E0A00080E0C00080E0E000C0000000C0002000C0004000C0006000C0008000C000A000C000C000C000E000C0200000C0202000C0204000C0206000C0208000C020A000C020C000C020E000C0400000C0402000C0404000C0406000C0
1004
408000C040A000C040C000C040E000C0600000C0602000C0604000C0606000C0608000C060A000C060C000C060E000C0800000C0802000C0804000C0806000C0808000C080A000C080C000C080E000C0A00000C0A02000C0A04000C0A06000C0A08000C0A0A000C0A0C000C0A0E000C0C00000C0C02000C0C04000C0C06000
1004
C0C08000C0C0A000F0FBFF00A4A0A000808080000000FF0000FF000000FFFF00FF000000FF00FF00FFFF0000FFFFFF0000000000000000000000000000000000000000000000000000000000000000000000000000000000000000000000000000000000000000000000000000000000000000000000000000000000000000
1004
00000000000000000000000000000000000000000000000000000000000000000000000000000000000000000000000000000000000000000000000000000000000000000000000000000000000000000000000000000000000000000000000000000000000000000000000000000000000000000000000000000000000000
1004
00000000000000000000000000000000000000000000000000000000000000000000000000000000000000000000000000000000000000000000000000000000000000000000000000000000000000000000000000000000000000000000000000000000000000000000000000000000000000000000000000000000000000
1004
000000000000000000000000000000000000000000000000000000000000FEFEFBFE0000000000000000000000000000000000000000000000000000FEFEFEE7FEE7FE000000000000000000000000000000000000000000FEFEFEFE0000E7E7E7E700FEFE00000000000000000000000000000000FEFEFE000000000000E7
1004
E7E7E7000000FEFEFEFEFEFEFEFEFEFEFEFE00000000FE0000000000000000E7E7E7E7000000E70000000000000000E7E7FE000000FBFEFBFBFBFBFBFBFBFBE7E7E7E7FBFBFBE7FBFBFBFBFBFBFBFBE7E7E7FB000000FEFEFE000000000000E7E7E7E7000000E7FEFEFEFEFEFEFEFEFEFEFE00000000000000FEFEFEFE0000
1004
E7E7E7E70000FEFE00000000000000000000000000000000000000000000FEFEFEE7FEE7FEFE0000000000000000000000000000000000000000000000000000FEFEFBFE0000000000000000000000000000000000000000000000000000000000000000000000000000000000000000000000000000000000000000000000
1004
00000000000000000000000000000000000000000000000000000000000000000000000000000000000000000000000000000000000000000000000000000000000000000000000000000000000000000000000000000000000000000000000000000000000000000000000000000000000000000000000000000000000000
1004
00000000000000000000000000000000000000000000000000000000000000000000000000000000000000000000000000000000000000000000000000000000000000000000000000000000000000000000000000000000000000000000000000000000000000000000000000000000000000000000000000000000000000
1004
0000000000000000000000000000000000000000000000000000000000000000000000000000000000000000000000000000000000000000
  0
ENDTAB
  0
ENDSEC
  0
SECTION
  2
BLOCKS
  0
BLOCK
  5
1B
330
1A
100
AcDbEntity
  8
0
100
AcDbBlockBegin
  2
*MODEL_SPACE
 70
     0
 10
0.0
 20
0.0
 30
0.0
  3
*MODEL_SPACE
  1

  0
ENDBLK
  5
1C
330
1A
100
AcDbEntity
  8
0
100
AcDbBlockEnd
  0
BLOCK
  5
18
330
17
100
AcDbEntity
 67
     1
  8
0
100
AcDbBlockBegin
  2
*PAPER_SPACE
 70
     0
 10
0.0
 20
0.0
 30
0.0
  3
*PAPER_SPACE
  1

  0
ENDBLK
  5
19
330
17
100
AcDbEntity
 67
     1
  8
0
100
AcDbBlockEnd
  0
BLOCK
  5
598
330
594
100
AcDbEntity
  8
0
100
AcDbBlockBegin
  2
_OPEN
 70
     0
 10
0.0
 20
0.0
 30
0.0
  3
_OPEN
  1

  0
LINE
  5
595
330
594
100
AcDbEntity
  8
0
  6
BYBLOCK
 62
     0
100
AcDbLine
 10
-1.0
 20
0.16666667
 30
0.0
 11
0.0
 21
0.0
 31
0.0
  0
LINE
  5
596
330
594
100
AcDbEntity
  8
0
  6
BYBLOCK
 62
     0
100
AcDbLine
 10
-1.0
 20
-0.16666667
 30
0.0
 11
0.0
 21
0.0
 31
0.0
  0
LINE
  5
597
330
594
100
AcDbEntity
  8
0
  6
BYBLOCK
 62
     0
100
AcDbLine
 10
0.0
 20
0.0
 30
0.0
 11
-1.0
 21
0.0
 31
0.0
  0
ENDBLK
  5
599
330
594
100
AcDbEntity
  8
0
100
AcDbBlockEnd
  0
BLOCK
  5
6E4
330
6E3
100
AcDbEntity
  8
0
100
AcDbBlockBegin
  2
矢印なし
 70
     0
 10
0.0
 20
0.0
 30
0.0
  3
矢印なし
  1

  0
ENDBLK
  5
6E5
330
6E3
100
AcDbEntity
  8
0
100
AcDbBlockEnd
  0
BLOCK
  5
95A
330
950
100
AcDbEntity
  8
0
100
AcDbBlockBegin
  2
*D2
 70
     1
 10
0.0
 20
0.0
 30
0.0
  3
*D2
  1

  0
LINE
  5
9D2
330
950
100
AcDbEntity
  8
250
  6
CONTINUOUS
100
AcDbLine
 10
135.5
 20
-12.5
 30
0.0
 11
148.0
 21
-12.5
 31
0.0
  0
LINE
  5
9D3
330
950
100
AcDbEntity
  8
250
  6
CONTINUOUS
100
AcDbLine
 10
135.5
 20
12.5
 30
0.0
 11
148.0
 21
12.5
 31
0.0
  0
LINE
  5
9D4
330
950
100
AcDbEntity
  8
250
  6
CONTINUOUS
100
AcDbLine
 10
147.0
 20
-10.27
 30
0.0
 11
147.0
 21
10.27
 31
0.0
  0
INSERT
  5
9D5
330
950
100
AcDbEntity
  8
250
  6
CONTINUOUS
100
AcDbBlockReference
  2
_OPEN
 10
147.0
 20
-12.5
 30
0.0
 41
2.23
 42
2.23
 43
2.23
 50
270.0
  0
INSERT
  5
9D6
330
950
100
AcDbEntity
  8
250
  6
CONTINUOUS
100
AcDbBlockReference
  2
_OPEN
 10
147.0
 20
12.5
 30
0.0
 41
2.23
 42
2.23
 43
2.23
 50
90.0
  0
MTEXT
  5
9D7
330
950
100
AcDbEntity
  8
250
  6
CONTINUOUS
 62
    40
100
AcDbMText
 10
144.6
 20
0.0
 30
0.0
 40
2.8
 41
0.0
 71
     5
 72
     1
  1
\A1;{\H2.8;\U+2205}25
 11
0.0
 21
1.0
 31
0.0
1001
ACAD
1000
MTEXTBEGIN
1070
    73
1070
     1
1070
    44
1040
1.0
1070
    74
1070
     0
1000
MTEXTEND
1000
MTEXTBEGIN
1070
    73
1070
     1
1070
    44
1040
1.0
1070
    74
1070
     0
1000
MTEXTEND
1000
MTEXTBEGIN
1070
    73
1070
     1
1070
    44
1040
1.0
1070
    74
1070
     0
1000
MTEXTEND
  0
POINT
  5
9D8
330
950
100
AcDbEntity
  8
DEFPOINTS
  6
CONTINUOUS
 62
     0
100
AcDbPoint
 10
135.0
 20
-12.5
 30
0.0
  0
POINT
  5
9D9
330
950
100
AcDbEntity
  8
DEFPOINTS
  6
CONTINUOUS
 62
     0
100
AcDbPoint
 10
135.0
 20
12.5
 30
0.0
  0
POINT
  5
9DA
330
950
100
AcDbEntity
  8
DEFPOINTS
  6
CONTINUOUS
 62
     0
100
AcDbPoint
 10
147.0
 20
12.5
 30
0.0
  0
ENDBLK
  5
95B
330
950
100
AcDbEntity
  8
0
100
AcDbBlockEnd
  0
BLOCK
  5
969
330
95F
100
AcDbEntity
  8
0
100
AcDbBlockBegin
  2
*D3
 70
     1
 10
0.0
 20
0.0
 30
0.0
  3
*D3
  1

  0
LINE
  5
9C9
330
95F
100
AcDbEntity
  8
250
  6
CONTINUOUS
100
AcDbLine
 10
126.0
 20
13.0
 30
0.0
 11
126.0
 21
29.0
 31
0.0
  0
LINE
  5
9CA
330
95F
100
AcDbEntity
  8
250
  6
CONTINUOUS
100
AcDbLine
 10
135.0
 20
13.0
 30
0.0
 11
135.0
 21
29.0
 31
0.0
  0
LINE
  5
9CB
330
95F
100
AcDbEntity
  8
250
  6
CONTINUOUS
100
AcDbLine
 10
128.23
 20
28.0
 30
0.0
 11
132.77
 21
28.0
 31
0.0
  0
INSERT
  5
9CC
330
95F
100
AcDbEntity
  8
250
  6
CONTINUOUS
100
AcDbBlockReference
  2
_OPEN
 10
126.0
 20
28.0
 30
0.0
 41
2.23
 42
2.23
 43
2.23
 50
180.0
  0
INSERT
  5
9CD
330
95F
100
AcDbEntity
  8
250
  6
CONTINUOUS
100
AcDbBlockReference
  2
_OPEN
 10
135.0
 20
28.0
 30
0.0
 41
2.23
 42
2.23
 43
2.23
  0
MTEXT
  5
9CE
330
95F
100
AcDbEntity
  8
250
  6
CONTINUOUS
 62
    40
100
AcDbMText
 10
130.5
 20
30.4
 30
0.0
 40
2.8
 41
0.0
 71
     5
 72
     1
  1
\A1;9
1001
ACAD
1000
MTEXTBEGIN
1070
    73
1070
     1
1070
    44
1040
1.0
1070
    74
1070
     0
1000
MTEXTEND
1000
MTEXTBEGIN
1070
    73
1070
     1
1070
    44
1040
1.0
1070
    74
1070
     0
1000
MTEXTEND
1000
MTEXTBEGIN
1070
    73
1070
     1
1070
    44
1040
1.0
1070
    74
1070
     0
1000
MTEXTEND
  0
POINT
  5
9CF
330
95F
100
AcDbEntity
  8
DEFPOINTS
  6
CONTINUOUS
 62
     0
100
AcDbPoint
 10
126.0
 20
12.5
 30
0.0
  0
POINT
  5
9D0
330
95F
100
AcDbEntity
  8
DEFPOINTS
  6
CONTINUOUS
 62
     0
100
AcDbPoint
 10
135.0
 20
12.5
 30
0.0
  0
POINT
  5
9D1
330
95F
100
AcDbEntity
  8
DEFPOINTS
  6
CONTINUOUS
 62
     0
100
AcDbPoint
 10
135.0
 20
28.0
 30
0.0
  0
ENDBLK
  5
96A
330
95F
100
AcDbEntity
  8
0
100
AcDbBlockEnd
  0
BLOCK
  5
978
330
96E
100
AcDbEntity
  8
0
100
AcDbBlockBegin
  2
*D4
 70
     1
 10
0.0
 20
0.0
 30
0.0
  3
*D4
  1

  0
LINE
  5
9C0
330
96E
100
AcDbEntity
  8
250
  6
CONTINUOUS
100
AcDbLine
 10
60.0
 20
12.48187391
 30
0.0
 11
60.0
 21
36.0
 31
0.0
  0
LINE
  5
9C1
330
96E
100
AcDbEntity
  8
250
  6
CONTINUOUS
100
AcDbLine
 10
135.0
 20
13.0
 30
0.0
 11
135.0
 21
36.0
 31
0.0
  0
LINE
  5
9C2
330
96E
100
AcDbEntity
  8
250
  6
CONTINUOUS
100
AcDbLine
 10
62.23
 20
35.0
 30
0.0
 11
132.77
 21
35.0
 31
0.0
  0
INSERT
  5
9C3
330
96E
100
AcDbEntity
  8
250
  6
CONTINUOUS
100
AcDbBlockReference
  2
_OPEN
 10
60.0
 20
35.0
 30
0.0
 41
2.23
 42
2.23
 43
2.23
 50
180.0
  0
INSERT
  5
9C4
330
96E
100
AcDbEntity
  8
250
  6
CONTINUOUS
100
AcDbBlockReference
  2
_OPEN
 10
135.0
 20
35.0
 30
0.0
 41
2.23
 42
2.23
 43
2.23
  0
MTEXT
  5
9C5
330
96E
100
AcDbEntity
  8
250
  6
CONTINUOUS
 62
    40
100
AcDbMText
 10
97.5
 20
37.4
 30
0.0
 40
2.8
 41
0.0
 71
     5
 72
     1
  1
\A1;75
1001
ACAD
1000
MTEXTBEGIN
1070
    73
1070
     1
1070
    44
1040
1.0
1070
    74
1070
     0
1000
MTEXTEND
1000
MTEXTBEGIN
1070
    73
1070
     1
1070
    44
1040
1.0
1070
    74
1070
     0
1000
MTEXTEND
1000
MTEXTBEGIN
1070
    73
1070
     1
1070
    44
1040
1.0
1070
    74
1070
     0
1000
MTEXTEND
  0
POINT
  5
9C6
330
96E
100
AcDbEntity
  8
DEFPOINTS
  6
CONTINUOUS
 62
     0
100
AcDbPoint
 10
60.0
 20
11.98187391
 30
0.0
  0
POINT
  5
9C7
330
96E
100
AcDbEntity
  8
DEFPOINTS
  6
CONTINUOUS
 62
     0
100
AcDbPoint
 10
135.0
 20
12.5
 30
0.0
  0
POINT
  5
9C8
330
96E
100
AcDbEntity
  8
DEFPOINTS
  6
CONTINUOUS
 62
     0
100
AcDbPoint
 10
135.0
 20
35.0
 30
0.0
  0
ENDBLK
  5
979
330
96E
100
AcDbEntity
  8
0
100
AcDbBlockEnd
  0
BLOCK
  5
987
330
97D
100
AcDbEntity
  8
0
100
AcDbBlockBegin
  2
*D5
 70
     1
 10
0.0
 20
0.0
 30
0.0
  3
*D5
  1

  0
LINE
  5
C3F
330
97D
100
AcDbEntity
  8
250
  6
CONTINUOUS
100
AcDbLine
 10
0.0
 20
22.725
 30
0.0
 11
0.0
 21
43.0
 31
0.0
  0
LINE
  5
C40
330
97D
100
AcDbEntity
  8
250
  6
CONTINUOUS
100
AcDbLine
 10
135.0
 20
13.0
 30
0.0
 11
135.0
 21
43.0
 31
0.0
  0
LINE
  5
C41
330
97D
100
AcDbEntity
  8
250
  6
CONTINUOUS
100
AcDbLine
 10
2.23
 20
42.0
 30
0.0
 11
132.77
 21
42.0
 31
0.0
  0
INSERT
  5
C42
330
97D
100
AcDbEntity
  8
250
  6
CONTINUOUS
100
AcDbBlockReference
  2
_OPEN
 10
0.0
 20
42.0
 30
0.0
 41
2.23
 42
2.23
 43
2.23
 50
180.0
  0
INSERT
  5
C43
330
97D
100
AcDbEntity
  8
250
  6
CONTINUOUS
100
AcDbBlockReference
  2
_OPEN
 10
135.0
 20
42.0
 30
0.0
 41
2.23
 42
2.23
 43
2.23
  0
MTEXT
  5
C44
330
97D
100
AcDbEntity
  8
250
  6
CONTINUOUS
 62
    40
100
AcDbMText
 10
68.85479395
 20
44.4
 30
0.0
 40
2.8
 41
0.0
 71
     5
 72
     1
  1
\A1;135
1001
ACAD
1000
MTEXTBEGIN
1070
    73
1070
     1
1070
    44
1040
1.0
1070
    74
1070
     0
1000
MTEXTEND
  0
POINT
  5
C45
330
97D
100
AcDbEntity
  8
DEFPOINTS
  6
CONTINUOUS
 62
     0
100
AcDbPoint
 10
0.0
 20
22.225
 30
0.0
  0
POINT
  5
C46
330
97D
100
AcDbEntity
  8
DEFPOINTS
  6
CONTINUOUS
 62
     0
100
AcDbPoint
 10
135.0
 20
12.5
 30
0.0
  0
POINT
  5
C47
330
97D
100
AcDbEntity
  8
DEFPOINTS
  6
CONTINUOUS
 62
     0
100
AcDbPoint
 10
135.0
 20
42.0
 30
0.0
  0
ENDBLK
  5
988
330
97D
100
AcDbEntity
  8
0
100
AcDbBlockEnd
  0
BLOCK
  5
9DC
330
9DB
100
AcDbEntity
  8
0
100
AcDbBlockBegin
  2
1
 70
     0
 10
0.0
 20
0.0
 30
0.0
  3
1
  1

  0
LINE
  5
C56
330
9DB
100
AcDbEntity
  8
245
100
AcDbLine
 10
-66.4
 20
0.0
 30
0.0
 11
136.0
 21
0.0
 31
0.0
  0
LINE
  5
C57
330
9DB
100
AcDbEntity
  8
240
  6
CONTINUOUS
100
AcDbLine
 10
21.6
 20
-31.5
 30
0.0
 11
26.0
 21
-31.5
 31
0.0
  0
LINE
  5
C58
330
9DB
100
AcDbEntity
  8
240
  6
CONTINUOUS
100
AcDbLine
 10
21.6
 20
31.5
 30
0.0
 11
26.0
 21
31.5
 31
0.0
  0
LINE
  5
C59
330
9DB
100
AcDbEntity
  8
245
  6
CENTER2
100
AcDbLine
 10
16.6
 20
-31.5
 30
0.0
 11
16.6
 21
31.5
 31
0.0
  0
LINE
  5
C5A
330
9DB
100
AcDbEntity
  8
241
  6
CONTINUOUS
100
AcDbLine
 10
21.6
 20
0.0
 30
0.0
 11
21.6
 21
31.5
 31
0.0
  0
LINE
  5
C5B
330
9DB
100
AcDbEntity
  8
241
  6
CONTINUOUS
100
AcDbLine
 10
11.6
 20
31.5
 30
0.0
 11
11.6
 21
0.0
 31
0.0
  0
LINE
  5
C5C
330
9DB
100
AcDbEntity
  8
240
  6
CONTINUOUS
100
AcDbLine
 10
11.6
 20
31.5
 30
0.0
 11
14.48675135
 21
26.5
 31
0.0
  0
LINE
  5
C5D
330
9DB
100
AcDbEntity
  8
240
  6
CONTINUOUS
100
AcDbLine
 10
1.0
 20
22.225
 30
0.0
 11
1.0
 21
30.5
 31
0.0
  0
LINE
  5
C5E
330
9DB
100
AcDbEntity
  8
240
  6
CONTINUOUS
100
AcDbLine
 10
21.6
 20
31.5
 30
0.0
 11
18.71324865
 21
26.5
 31
0.0
  0
LINE
  5
C5F
330
9DB
100
AcDbEntity
  8
241
  6
HIDDEN2
100
AcDbLine
 10
23.0
 20
22.5
 30
0.0
 11
23.0
 21
31.5
 31
0.0
  0
LINE
  5
C60
330
9DB
100
AcDbEntity
  8
240
  6
CONTINUOUS
100
AcDbLine
 10
0.0
 20
22.225
 30
0.0
 11
-64.03089103
 21
12.88716173
 31
0.0
  0
LINE
  5
C61
330
9DB
100
AcDbEntity
  8
240
  6
CONTINUOUS
100
AcDbLine
 10
0.0
 20
-22.225
 30
0.0
 11
-64.03089103
 21
-12.88716173
 31
0.0
  0
LINE
  5
C62
330
9DB
100
AcDbEntity
  8
240
  6
CONTINUOUS
100
AcDbLine
 10
-65.4
 20
11.30390896
 30
0.0
 11
-65.4
 21
0.0
 31
0.0
  0
LINE
  5
C63
330
9DB
100
AcDbEntity
  8
240
  6
CONTINUOUS
100
AcDbLine
 10
-65.4
 20
-11.30390896
 30
0.0
 11
-65.4
 21
0.0
 31
0.0
  0
ARC
  5
C64
330
9DB
100
AcDbEntity
  8
240
  6
CONTINUOUS
100
AcDbCircle
 10
-63.8
 20
-11.30390896
 30
0.0
 40
1.6
100
AcDbArc
 50
180.0
 51
261.70285503
  0
ARC
  5
C65
330
9DB
100
AcDbEntity
  8
240
  6
CONTINUOUS
100
AcDbCircle
 10
-63.8
 20
11.30390896
 30
0.0
 40
1.6
100
AcDbArc
 50
98.29714497
 51
180.0
  0
LINE
  5
C66
330
9DB
100
AcDbEntity
  8
241
  6
CONTINUOUS
100
AcDbLine
 10
14.48675135
 20
-26.5
 30
0.0
 11
14.48675135
 21
0.0
 31
0.0
  0
LINE
  5
C67
330
9DB
100
AcDbEntity
  8
241
  6
CONTINUOUS
100
AcDbLine
 10
18.71324865
 20
-26.5
 30
0.0
 11
18.71324865
 21
0.0
 31
0.0
  0
LINE
  5
C68
330
9DB
100
AcDbEntity
  8
241
  6
CONTINUOUS
100
AcDbLine
 10
21.6
 20
0.0
 30
0.0
 11
21.6
 21
-31.5
 31
0.0
  0
LINE
  5
C69
330
9DB
100
AcDbEntity
  8
241
  6
CONTINUOUS
100
AcDbLine
 10
11.6
 20
-31.5
 30
0.0
 11
11.6
 21
0.0
 31
0.0
  0
LINE
  5
C6A
330
9DB
100
AcDbEntity
  8
241
100
AcDbLine
 10
1.0
 20
0.0
 30
0.0
 11
1.0
 21
-22.225
 31
0.0
  0
LINE
  5
C6B
330
9DB
100
AcDbEntity
  8
241
  6
CONTINUOUS
100
AcDbLine
 10
0.0
 20
-22.225
 30
0.0
 11
0.0
 21
0.0
 31
0.0
  0
LINE
  5
C6C
330
9DB
100
AcDbEntity
  8
240
  6
CONTINUOUS
100
AcDbLine
 10
2.0
 20
-31.5
 30
0.0
 11
11.6
 21
-31.5
 31
0.0
  0
LINE
  5
C6D
330
9DB
100
AcDbEntity
  8
241
  6
HIDDEN2
100
AcDbLine
 10
23.0
 20
-22.5
 30
0.0
 11
1.0
 21
-22.5
 31
0.0
  0
LINE
  5
C6E
330
9DB
100
AcDbEntity
  8
240
  6
CONTINUOUS
100
AcDbLine
 10
1.0
 20
-22.225
 30
0.0
 11
1.0
 21
-30.5
 31
0.0
  0
ARC
  5
C6F
330
9DB
100
AcDbEntity
  8
240
  6
CONTINUOUS
100
AcDbCircle
 10
2.0
 20
-30.5
 30
0.0
 40
1.0
100
AcDbArc
 50
180.0
 51
270.0
  0
LINE
  5
C70
330
9DB
100
AcDbEntity
  8
240
100
AcDbLine
 10
0.0
 20
-22.225
 30
0.0
 11
1.0
 21
-22.225
 31
0.0
  0
LINE
  5
C71
330
9DB
100
AcDbEntity
  8
240
  6
CONTINUOUS
100
AcDbLine
 10
18.71324865
 20
-26.5
 30
0.0
 11
14.48675135
 21
-26.5
 31
0.0
  0
LINE
  5
C72
330
9DB
100
AcDbEntity
  8
240
  6
CONTINUOUS
100
AcDbLine
 10
14.48675135
 20
-26.5
 30
0.0
 11
11.6
 21
-31.5
 31
0.0
  0
LINE
  5
C73
330
9DB
100
AcDbEntity
  8
241
  6
HIDDEN2
100
AcDbLine
 10
23.0
 20
-22.5
 30
0.0
 11
23.0
 21
-31.5
 31
0.0
  0
LINE
  5
C74
330
9DB
100
AcDbEntity
  8
240
  6
CONTINUOUS
100
AcDbLine
 10
18.71324865
 20
-26.5
 30
0.0
 11
21.6
 21
-31.5
 31
0.0
  0
LINE
  5
C75
330
9DB
100
AcDbEntity
  8
241
100
AcDbLine
 10
1.0
 20
0.0
 30
0.0
 11
1.0
 21
22.225
 31
0.0
  0
LINE
  5
C76
330
9DB
100
AcDbEntity
  8
241
  6
CONTINUOUS
100
AcDbLine
 10
0.0
 20
22.225
 30
0.0
 11
0.0
 21
0.0
 31
0.0
  0
LINE
  5
C77
330
9DB
100
AcDbEntity
  8
241
  6
CONTINUOUS
100
AcDbLine
 10
18.71324865
 20
26.5
 30
0.0
 11
18.71324865
 21
0.0
 31
0.0
  0
LINE
  5
C78
330
9DB
100
AcDbEntity
  8
241
  6
CONTINUOUS
100
AcDbLine
 10
14.48675135
 20
26.5
 30
0.0
 11
14.48675135
 21
0.0
 31
0.0
  0
LINE
  5
C79
330
9DB
100
AcDbEntity
  8
241
  6
HIDDEN2
100
AcDbLine
 10
23.0
 20
22.5
 30
0.0
 11
1.0
 21
22.5
 31
0.0
  0
LINE
  5
C7A
330
9DB
100
AcDbEntity
  8
240
100
AcDbLine
 10
0.0
 20
22.225
 30
0.0
 11
1.0
 21
22.225
 31
0.0
  0
LINE
  5
C7B
330
9DB
100
AcDbEntity
  8
240
  6
CONTINUOUS
100
AcDbLine
 10
18.71324865
 20
26.5
 30
0.0
 11
14.48675135
 21
26.5
 31
0.0
  0
LINE
  5
C7C
330
9DB
100
AcDbEntity
  8
240
  6
CONTINUOUS
100
AcDbLine
 10
2.0
 20
31.5
 30
0.0
 11
11.6
 21
31.5
 31
0.0
  0
ARC
  5
C7D
330
9DB
100
AcDbEntity
  8
240
  6
CONTINUOUS
100
AcDbCircle
 10
2.0
 20
30.5
 30
0.0
 40
1.0
100
AcDbArc
 50
90.0
 51
180.0
  0
ARC
  5
C7E
330
9DB
100
AcDbEntity
  8
240
  6
CONTINUOUS
100
AcDbCircle
 10
32.0
 20
30.0
 30
0.0
 40
5.0
100
AcDbArc
 50
180.0
 51
241.15627655
  0
LINE
  5
C7F
330
9DB
100
AcDbEntity
  8
241
  6
CONTINUOUS
100
AcDbLine
 10
27.0
 20
0.0
 30
0.0
 11
27.0
 21
30.0
 31
0.0
  0
LINE
  5
C80
330
9DB
100
AcDbEntity
  8
240
  6
CONTINUOUS
100
AcDbLine
 10
124.45050452
 20
-11.9
 30
0.0
 11
62.21488848
 21
-11.9
 31
0.0
1001
GRPNAME
1000
PASTMD06
  0
LINE
  5
C81
330
9DB
100
AcDbEntity
  8
240
  6
CONTINUOUS
100
AcDbLine
 10
124.45050452
 20
11.9
 30
0.0
 11
62.21488848
 21
11.9
 31
0.0
1001
GRPNAME
1000
PASTMD06
  0
LINE
  5
C82
330
9DB
100
AcDbEntity
  8
240
  6
CONTINUOUS
100
AcDbLine
 10
47.74222878
 20
-15.62183186
 30
0.0
 11
29.58789005
 21
-25.62030531
 31
0.0
  0
LINE
  5
C83
330
9DB
100
AcDbEntity
  8
241
  6
CONTINUOUS
100
AcDbLine
 10
27.0
 20
0.0
 30
0.0
 11
27.0
 21
-30.0
 31
0.0
  0
ARC
  5
C84
330
9DB
100
AcDbEntity
  8
240
  6
CONTINUOUS
100
AcDbCircle
 10
32.0
 20
-30.0
 30
0.0
 40
5.0
100
AcDbArc
 50
118.84372345
 51
180.0
  0
ARC
  5
C85
330
9DB
100
AcDbEntity
  8
240
  6
CONTINUOUS
100
AcDbCircle
 10
26.0
 20
-30.5
 30
0.0
 40
1.0
100
AcDbArc
 50
270.0
 51
0.0
  0
LINE
  5
C86
330
9DB
100
AcDbEntity
  8
240
  6
CONTINUOUS
100
AcDbLine
 10
27.0
 20
-30.5
 30
0.0
 11
27.0
 21
-30.0
 31
0.0
  0
LINE
  5
C87
330
9DB
100
AcDbEntity
  8
241
  6
CONTINUOUS
100
AcDbLine
 10
54.5
 20
11.9
 30
0.0
 11
54.5
 21
0.0
 31
0.0
  0
LINE
  5
C88
330
9DB
100
AcDbEntity
  8
241
  6
CONTINUOUS
100
AcDbLine
 10
54.5
 20
-11.9
 30
0.0
 11
54.5
 21
0.0
 31
0.0
  0
ARC
  5
C89
330
9DB
100
AcDbEntity
  8
240
  6
CONTINUOUS
100
AcDbCircle
 10
62.21488848
 20
-41.9
 30
0.0
 40
30.0
100
AcDbArc
 50
90.0
 51
118.84370585
  0
LINE
  5
C8A
330
9DB
100
AcDbEntity
  8
240
  6
CONTINUOUS
100
AcDbLine
 10
47.74222878
 20
15.62183186
 30
0.0
 11
29.58789005
 21
25.62030531
 31
0.0
  0
ARC
  5
C8B
330
9DB
100
AcDbEntity
  8
240
  6
CONTINUOUS
100
AcDbCircle
 10
62.21488848
 20
41.9
 30
0.0
 40
30.0
100
AcDbArc
 50
241.15629415
 51
270.0
  0
LINE
  5
C8C
330
9DB
100
AcDbEntity
  8
246
100
AcDbLine
 10
135.0
 20
12.5
 30
0.0
 11
135.0
 21
-12.5
 31
0.0
  0
LINE
  5
C8D
330
9DB
100
AcDbEntity
  8
240
  6
CONTINUOUS
100
AcDbLine
 10
134.5
 20
11.8
 30
0.0
 11
134.5
 21
1.15604058
 31
0.0
1001
GRPNAME
1000
PASTMD06
  0
LINE
  5
C8E
330
9DB
100
AcDbEntity
  8
241
  6
CONTINUOUS
100
AcDbLine
 10
116.77939208
 20
-4.90544291
 30
0.0
 11
134.5
 21
-10.69795326
 31
0.0
1001
GRPNAME
1000
PASTMD06
  0
LINE
  5
C8F
330
9DB
100
AcDbEntity
  8
241
  6
CONTINUOUS
100
AcDbLine
 10
118.38105503
 20
1.4943155
 30
0.0
 11
123.84602145
 21
0.53069447
 31
0.0
1001
GRPNAME
1000
PASTMD06
  0
ARC
  5
C90
330
9DB
100
AcDbEntity
  8
241
  6
CONTINUOUS
100
AcDbCircle
 10
117.80683002
 20
-1.76227634
 30
0.0
 40
3.306830020297971
100
AcDbArc
 50
79.99999998
 51
251.89845495
1001
GRPNAME
1000
PASTMD06
  0
LINE
  5
C91
330
9DB
100
AcDbEntity
  8
240
  6
CONTINUOUS
100
AcDbLine
 10
134.5
 20
-3.21801488
 30
0.0
 11
134.5
 21
-11.8
 31
0.0
1001
GRPNAME
1000
PASTMD06
  0
LINE
  5
C92
330
9DB
100
AcDbEntity
  8
246
100
AcDbLine
 10
126.0
 20
-12.5
 30
0.0
 11
135.0
 21
-12.5
 31
0.0
  0
LINE
  5
C93
330
9DB
100
AcDbEntity
  8
240
  6
CONTINUOUS
100
AcDbLine
 10
134.5
 20
-11.8
 30
0.0
 11
124.99999999
 21
-12.05
 31
0.0
1001
GRPNAME
1000
PASTMD06
  0
LINE
  5
C94
330
9DB
100
AcDbEntity
  8
240
  6
CONTINUOUS
100
AcDbLine
 10
124.45050452
 20
-11.9
 30
0.0
 11
124.99999999
 21
-12.05
 31
0.0
1001
GRPNAME
1000
PASTMD06
  0
LINE
  5
C95
330
9DB
100
AcDbEntity
  8
241
100
AcDbLine
 10
123.89946266
 20
0.64026518
 30
0.0
 11
134.5
 21
-3.21801488
 31
0.0
1001
GRPNAME
1000
PASTMD06
  0
LINE
  5
C96
330
9DB
100
AcDbEntity
  8
241
100
AcDbLine
 10
134.5
 20
1.15604058
 30
0.0
 11
124.97055901
 21
2.83633814
 31
0.0
1001
GRPNAME
1000
PASTMD06
  0
LINE
  5
C97
330
9DB
100
AcDbEntity
  8
241
100
AcDbLine
 10
124.97055901
 20
2.83633814
 30
0.0
 11
123.84602145
 21
0.53069447
 31
0.0
1001
GRPNAME
1000
PASTMD06
  0
LINE
  5
C98
330
9DB
100
AcDbEntity
  8
240
100
AcDbLine
 10
134.52154003
 20
1.15224249
 30
0.0
 11
135.0
 21
-3.4
 31
0.0
1001
GRPNAME
1000
PASTMD06
  0
LINE
  5
C99
330
9DB
100
AcDbEntity
  8
240
100
AcDbLine
 10
135.0
 20
-3.4
 30
0.0
 11
134.5
 21
-3.21801488
 31
0.0
1001
GRPNAME
1000
PASTMD06
  0
LINE
  5
C9A
330
9DB
100
AcDbEntity
  8
240
100
AcDbLine
 10
134.52154003
 20
1.15224249
 30
0.0
 11
134.5
 21
1.15604058
 31
0.0
1001
GRPNAME
1000
PASTMD06
  0
LWPOLYLINE
  5
C9B
330
9DB
100
AcDbEntity
  8
241
  6
CONTINUOUS
100
AcDbPolyline
 90
       70
 70
     0
 43
0.0
 10
128.93306905
 20
7.85977473
 10
128.91661898
 20
7.75749977
 10
128.90326452
 20
7.65489732
 10
128.89303332
 20
7.55218002
 10
128.8859466
 20
7.44956075
 10
128.88201904
 20
7.34725217
 10
128.88125879
 20
7.24546632
 10
128.88366741
 20
7.14441413
 10
128.88923992
 20
7.04430505
 10
128.89796477
 20
6.94534653
 10
128.90982388
 20
6.84774367
 10
128.92479266
 20
6.75169874
 10
128.9428401
 20
6.65741078
 10
128.96392879
 20
6.56507521
 10
128.98801504
 20
6.47488338
 10
129.01504891
 20
6.38702222
 10
129.04497439
 20
6.30167381
 10
129.07772946
 20
6.21901502
 10
129.11324623
 20
6.13921717
 10
129.15145109
 20
6.06244564
 10
129.19226488
 20
5.98885952
 10
129.235603
 20
5.91861132
 10
129.28137564
 20
5.85184662
 10
129.32948794
 20
5.7887038
 10
129.37984019
 20
5.72931371
 10
129.43232803
 20
5.67379943
 10
129.48684269
 20
5.62227602
 10
129.54327119
 20
5.57485025
 10
129.60149659
 20
5.53162042
 10
129.66139821
 20
5.49267611
 10
129.72285191
 20
5.45809803
 10
129.78573033
 20
5.42795784
 10
129.84990316
 20
5.40231801
 10
129.91523741
 20
5.38123168
 10
129.98159768
 20
5.36474254
 10
130.04884643
 20
5.35288477
 10
130.1168443
 20
5.34568295
 10
130.18545036
 20
5.34315199
 10
130.25452243
 20
5.34529714
 10
130.32391738
 20
5.35211397
 10
130.39349136
 20
5.36358833
 10
130.46310021
 20
5.37969645
 10
130.53259966
 20
5.40040495
 10
130.60184567
 20
5.42567091
 10
130.67069474
 20
5.45544197
 10
130.73900418
 20
5.48965643
 10
130.80663242
 20
5.52824337
 10
130.87343931
 20
5.57112284
 10
130.9392864
 20
5.61820597
 10
131.00403721
 20
5.66939517
 10
131.06755756
 20
5.72458437
 10
131.1297158
 20
5.78365918
 10
131.19038312
 20
5.84649718
 10
131.24943378
 20
5.91296814
 10
131.30674541
 20
5.98293429
 10
131.36219923
 20
6.05625065
 10
131.41568032
 20
6.13276527
 10
131.46707783
 20
6.21231956
 10
131.51628526
 20
6.29474867
 10
131.56320062
 20
6.37988176
 10
131.60772668
 20
6.4675424
 10
131.64977116
 20
6.55754891
 10
131.68924693
 20
6.64971477
 10
131.72607217
 20
6.74384896
 10
131.76017058
 20
6.8397564
 10
131.79147148
 20
6.93723832
 10
131.81991
 20
7.03609269
 10
131.84542721
 20
7.13611466
 10
131.86797022
 20
7.23709692
 10
131.88749231
 20
7.3388302
1001
GRPNAME
1000
PASTMD06
  0
LINE
  5
C9C
330
9DB
100
AcDbEntity
  8
246
100
AcDbLine
 10
126.0
 20
12.5
 30
0.0
 11
135.0
 21
12.5
 31
0.0
  0
LWPOLYLINE
  5
C9D
330
9DB
100
AcDbEntity
  8
241
  6
CONTINUOUS
100
AcDbPolyline
 90
       70
 70
     0
 43
0.0
 10
131.88749231
 20
7.3388302
 10
131.89781979
 20
7.40637395
 10
131.90506431
 20
7.47431737
 10
131.90921086
 20
7.54251965
 10
131.91025085
 20
7.61083944
 10
131.9081821
 20
7.67913514
 10
131.90300893
 20
7.74726522
 10
131.89474204
 20
7.81508846
 10
131.88339857
 20
7.88246432
 10
131.86900203
 20
7.94925315
 10
131.85158225
 20
8.01531653
 10
131.83117535
 20
8.08051754
 10
131.8078236
 20
8.14472106
 10
131.78157541
 20
8.20779403
 10
131.75248518
 20
8.26960572
 10
131.7206132
 20
8.33002803
 10
131.68602552
 20
8.38893574
 10
131.64879383
 20
8.44620675
 10
131.60899528
 20
8.50172238
 10
131.56671236
 20
8.55536757
 10
131.5220327
 20
8.60703113
 10
131.47504891
 20
8.656606
 10
131.42585835
 20
8.70398943
 10
131.37456297
 20
8.74908322
 10
131.32126908
 20
8.79179392
 10
131.26608714
 20
8.83203299
 10
131.2091315
 20
8.86971706
 10
131.15052021
 20
8.90476801
 10
131.09037475
 20
8.93711321
 10
131.02881976
 20
8.96668562
 10
130.96598281
 20
8.99342395
 10
130.90199414
 20
9.01727279
 10
130.83698636
 20
9.0381827
 10
130.7710942
 20
9.05611035
 10
130.70445422
 20
9.0710186
 10
130.63720454
 20
9.08287653
 10
130.56948452
 20
9.09165958
 10
130.50143453
 20
9.09734954
 10
130.43319558
 20
9.09993462
 10
130.36490912
 20
9.09940946
 10
130.29671666
 20
9.09577515
 10
130.22875952
 20
9.08903922
 10
130.16117856
 20
9.07921564
 10
130.09411384
 20
9.06632476
 10
130.02770434
 20
9.05039329
 10
129.9620877
 20
9.03145427
 10
129.89739991
 20
9.00954693
 10
129.83377503
 20
8.98471668
 10
129.77134494
 20
8.95701498
 10
129.71023901
 20
8.92649924
 10
129.65058389
 20
8.89323271
 10
129.59250321
 20
8.85728434
 10
129.53611734
 20
8.81872862
 10
129.48154315
 20
8.77764546
 10
129.42889374
 20
8.73412
 10
129.37827822
 20
8.68824246
 10
129.32980151
 20
8.64010792
 10
129.28356405
 20
8.58981613
 10
129.23966169
 20
8.53747132
 10
129.19818541
 20
8.48318198
 10
129.15922117
 20
8.42706062
 10
129.12284973
 20
8.36922356
 10
129.08914645
 20
8.30979066
 10
129.0581812
 20
8.2488851
 10
129.03001815
 20
8.1866331
 10
129.00471566
 20
8.12316369
 10
128.98232618
 20
8.05860839
 10
128.96289611
 20
7.99310101
 10
128.94646571
 20
7.9267773
 10
128.93306905
 20
7.85977473
1001
GRPNAME
1000
PASTMD06
  0
LINE
  5
C9E
330
9DB
100
AcDbEntity
  8
240
  6
CONTINUOUS
100
AcDbLine
 10
134.5
 20
11.8
 30
0.0
 11
124.99999999
 21
12.05
 31
0.0
1001
GRPNAME
1000
PASTMD06
  0
LINE
  5
C9F
330
9DB
100
AcDbEntity
  8
240
  6
CONTINUOUS
100
AcDbLine
 10
124.45050452
 20
11.9
 30
0.0
 11
124.99999999
 21
12.05
 31
0.0
1001
GRPNAME
1000
PASTMD06
  0
ARC
  5
CA0
330
9DB
100
AcDbEntity
  8
240
  6
CONTINUOUS
100
AcDbCircle
 10
26.0
 20
30.5
 30
0.0
 40
1.0
100
AcDbArc
 50
0.0
 51
90.0
  0
LINE
  5
CA1
330
9DB
100
AcDbEntity
  8
240
  6
CONTINUOUS
100
AcDbLine
 10
27.0
 20
30.5
 30
0.0
 11
27.0
 21
30.0
 31
0.0
  0
ENDBLK
  5
9DD
330
9DB
100
AcDbEntity
  8
0
100
AcDbBlockEnd
  0
ENDSEC
  0
SECTION
  2
ENTITIES
  0
INSERT
  5
6E6
330
1A
100
AcDbEntity
  8
245
100
AcDbBlockReference
  2
矢印なし
 10
175.62382697
 20
90.55123572
 30
0.0
  0
TEXT
  5
885
330
1A
100
AcDbEntity
  8
241
100
AcDbText
 10
-65.4
 20
56.0
 30
0.0
 40
5.0
  1
BBT40-FCM25092L-135
  7
YOKO
 11
-65.4
 21
56.0
 31
0.0
100
AcDbText
 73
     1
  0
DIMENSION
  5
94F
330
1A
100
AcDbEntity
  8
250
  6
CONTINUOUS
100
AcDbDimension
  2
*D2
 10
147.0
 20
12.5
 30
0.0
 11
144.6
 21
0.0
 31
0.0
 70
    32
  1
{\H2.8;\U+2205}<>
  3
BIGT
100
AcDbAlignedDimension
 13
135.0
 23
-12.5
 33
0.0
 14
135.0
 24
12.5
 34
0.0
 50
90.0
100
AcDbRotatedDimension
  0
DIMENSION
  5
95E
330
1A
100
AcDbEntity
  8
250
  6
CONTINUOUS
100
AcDbDimension
  2
*D3
 10
135.0
 20
28.0
 30
0.0
 11
130.5
 21
30.4
 31
0.0
 70
    32
  3
BIGT
100
AcDbAlignedDimension
 13
126.0
 23
12.5
 33
0.0
 14
135.0
 24
12.5
 34
0.0
100
AcDbRotatedDimension
  0
DIMENSION
  5
96D
330
1A
100
AcDbEntity
  8
250
  6
CONTINUOUS
100
AcDbDimension
  2
*D4
 10
135.0
 20
35.0
 30
0.0
 11
97.5
 21
37.4
 31
0.0
 70
    32
  3
BIGT
100
AcDbAlignedDimension
 13
60.0
 23
11.98187391
 33
0.0
 14
135.0
 24
12.5
 34
0.0
100
AcDbRotatedDimension
  0
DIMENSION
  5
97C
330
1A
100
AcDbEntity
  8
250
  6
CONTINUOUS
100
AcDbDimension
  2
*D5
 10
135.0
 20
42.0
 30
0.0
 11
68.85479395
 21
42.0
 31
0.0
 70
   160
  3
BIGT
100
AcDbAlignedDimension
 13
0.0
 23
22.225
 33
0.0
 14
135.0
 24
12.5
 34
0.0
100
AcDbRotatedDimension
  0
LEADER
  5
B17
330
1A
100
AcDbEntity
  8
250
  6
CONTINUOUS
100
AcDbLeader
  3
BIGT
 76
     2
 10
-26.64442081
 20
-18.3393553
 30
0.0
 10
-32.4583971
 20
-28.40945762
 30
0.0
1001
ACAD
1000
DSTYLE
1002
{
1070
     6
1000
OPEN
1070
   343
1005
594
1002
}
  0
MTEXT
  5
B18
330
1A
100
AcDbEntity
  8
250
  6
CONTINUOUS
 62
    40
100
AcDbMText
 10
-47.39173044
 20
-27.40945762
 30
0.0
 40
2.8
 41
0.0
 71
     7
 72
     1
  1
BBT40
  7
YOKO
1001
ITEMNAME
1000
LNSP3
1001
ACAD
1000
MTEXTBEGIN
1070
    73
1070
     1
1070
    44
1040
1.0
1070
    74
1070
     0
1000
MTEXTEND
1000
MTEXTBEGIN
1070
    73
1070
     1
1070
    44
1040
1.0
1070
    74
1070
     0
1000
MTEXTEND
1000
MTEXTBEGIN
1070
    73
1070
     1
1070
    44
1040
1.0
1070
    74
1070
     0
1000
MTEXTEND
  0
LINE
  5
B1B
330
1A
100
AcDbEntity
  8
250
  6
CONTINUOUS
100
AcDbLine
 10
-32.4583971
 20
-28.40945762
 30
0.0
 11
-50.19173044
 21
-28.40945762
 31
0.0
1001
ITEMNAME
1000
LNSP2
  0
INSERT
  5
CA2
330
1A
100
AcDbEntity
  8
245
100
AcDbBlockReference
  2
1
 10
0.0
 20
0.0
 30
0.0
  0
VIEWPORT
  5
22
330
17
100
AcDbEntity
 67
     1
  8
0
100
AcDbViewport
 10
261.51769912
 20
148.5
 30
0.0
 40
523.03539823
 41
297.0
 68
     1
 69
     1
1001
ACAD
1000
MVIEW
1002
{
1070
    16
1010
0.0
1020
0.0
1030
0.0
1010
0.0
1020
0.0
1030
1.0
1040
0.0
1040
297.0
1040
261.51769912
1040
148.5
1040
50.0
1040
0.0
1040
0.0
1070
     0
1070
   100
1070
     1
1070
     1
1070
     0
1070
     0
1070
     0
1070
     0
1040
0.0
1040
0.0
1040
0.0
1040
1.0
1040
1.0
1040
10.0
1040
10.0
1070
     0
1002
{
1002
}
1002
}
  0
ENDSEC
  0
SECTION
  2
OBJECTS
  0
DICTIONARY
  5
C
330
0
100
AcDbDictionary
  3
ACAD_GROUP
350
D
  3
ACAD_LAYOUT
350
565
  3
ACAD_MLINESTYLE
350
E
  3
ACAD_PLOTSETTINGS
350
566
  3
ACAD_PLOTSTYLENAME
350
563
  3
ACDBHEADERROUNDTRIPXREC
350
CCB
  3
GRADE_DWG
350
540
  0
DICTIONARY
  5
A7B
330
1A
100
AcDbDictionary
280
     1
  3
ACAD_LAYOUTSELFREF
360
CED
  0
DICTIONARY
  5
A79
330
17
100
AcDbDictionary
280
     1
  3
ACAD_LAYOUTSELFREF
360
CEC
  0
DICTIONARY
  5
D
102
{ACAD_REACTORS
330
C
102
}
330
C
100
AcDbDictionary
  3
*A1
350
6C7
  3
*A2
350
6C8
  3
*A3
350
6D4
  3
*A4
350
6D5
  3
DREC-1
350
5FC
  3
DREC-2
350
654
  3
DREC-3
350
673
  0
DICTIONARY
  5
565
102
{ACAD_REACTORS
330
C
102
}
330
C
100
AcDbDictionary
  0
DICTIONARY
  5
E
102
{ACAD_REACTORS
330
C
102
}
330
C
100
AcDbDictionary
  3
STANDARD
350
13
  0
DICTIONARY
  5
566
102
{ACAD_REACTORS
330
C
102
}
330
C
100
AcDbDictionary
  3
A3_0_5倍_
350
758
  3
A3_1倍_
350
757
  3
A3_1倍__2000_
350
707
  3
A3_2倍_
350
759
  3
A4_0_5倍_
350
755
  3
A4_1倍_
350
754
  3
A4_1倍__2000_
350
708
  3
A4_2倍_
350
756
  0
ACDBDICTIONARYWDFLT
  5
563
102
{ACAD_REACTORS
330
C
102
}
330
C
100
AcDbDictionary
281
     1
  3
Normal
350
564
100
AcDbDictionaryWithDefault
340
564
  0
DICTIONARY
  5
CCB
102
{ACAD_REACTORS
330
C
102
}
330
C
100
AcDbDictionary
  3
CEPSNTYPE
350
CD5
  3
DIMSTYLEDATA
350
CD9
  3
FINGERPRINTGUID
350
CD6
  3
HYPERLINKBASE
350
CCE
  3
INSUNITS
350
CD4
  3
LAYOUTDICT
350
CD0
  3
LWETCUNION
350
CD3
  3
PLOTSETDICT
350
CD1
  3
PLOTSTYLNAMDICT
350
CD2
  3
PSVPSCALE
350
CD8
  3
PUCSBASE
350
CDC
  3
PUCSORGBACK
350
CE2
  3
PUCSORGBOTTOM
350
CDE
  3
PUCSORGFRONT
350
CE1
  3
PUCSORGLEFT
350
CDF
  3
PUCSORGRIGHT
350
CE0
  3
PUCSORGTOP
350
CDD
  3
PUCSORTHOREF
350
CDA
  3
PUCSORTHOVIEW
350
CDB
  3
STYLESHEET
350
CCF
  3
TSTACKALIGN
350
CCC
  3
TSTACKSIZE
350
CCD
  3
UCSBASE
350
CE5
  3
UCSORGBACK
350
CEB
  3
UCSORGBOTTOM
350
CE7
  3
UCSORGFRONT
350
CEA
  3
UCSORGLEFT
350
CE8
  3
UCSORGRIGHT
350
CE9
  3
UCSORGTOP
350
CE6
  3
UCSORTHOREF
350
CE3
  3
UCSORTHOVIEW
350
CE4
  3
VERSIONGUID
350
CD7
  0
DICTIONARY
  5
540
102
{ACAD_REACTORS
330
C
102
}
330
C
100
AcDbDictionary
  3
VERSION
350
560
  0
XRECORD
  5
CED
102
{ACAD_REACTORS
330
A7B
102
}
330
A7B
100
AcDbXrecord
340
1A
  0
XRECORD
  5
CEC
102
{ACAD_REACTORS
330
A79
102
}
330
A79
100
AcDbXrecord
340
17
  0
GROUP
  5
6C7
102
{ACAD_REACTORS
330
D
102
}
330
D
100
AcDbGroup
300

 70
     0
 71
     1
1001
GRPNAME
1000
DMA00
  0
GROUP
  5
6C8
102
{ACAD_REACTORS
330
D
102
}
330
D
100
AcDbGroup
300

 70
     0
 71
     1
1001
GRPNAME
1000
DMA00
  0
GROUP
  5
6D4
102
{ACAD_REACTORS
330
D
102
}
330
D
100
AcDbGroup
300

 70
     0
 71
     1
1001
GRPNAME
1000
DMA00
  0
GROUP
  5
6D5
102
{ACAD_REACTORS
330
D
102
}
330
D
100
AcDbGroup
300

 70
     0
 71
     1
1001
GRPNAME
1000
DMA00
  0
GROUP
  5
5FC
102
{ACAD_REACTORS
330
D
102
}
330
D
100
AcDbGroup
300

 70
     0
 71
     1
1001
GRPNAME
1000
DREC-
1001
GPARA
1000
xsiz
1000
44.182
1000
ysiz
1000
40.677
1000
angl
1000
0
1000
ctyp
1000
0
1000
csiz
1000
5
1000
lfnt
1000
cont
1000
hcnt
1000
hoff
1000
vcnt
1000
voff
1000
opnt
1000
4
1000
dxpt
1000
0
1000
dypt
1000
0
  0
GROUP
  5
654
102
{ACAD_REACTORS
330
D
102
}
330
D
100
AcDbGroup
300

 70
     0
 71
     1
1001
GRPNAME
1000
DREC-
1001
GPARA
1000
xsiz
1000
54.592
1000
ysiz
1000
53.036
1000
angl
1000
0
1000
ctyp
1000
0
1000
csiz
1000
5
1000
lfnt
1000
cont
1000
hcnt
1000
hoff
1000
vcnt
1000
voff
1000
opnt
1000
4
1000
dxpt
1000
0
1000
dypt
1000
0
  0
GROUP
  5
673
102
{ACAD_REACTORS
330
D
102
}
330
D
100
AcDbGroup
300

 70
     0
 71
     1
1001
GRPNAME
1000
DREC-
1001
GPARA
1000
xsiz
1000
30.363
1000
ysiz
1000
36.175
1000
angl
1000
0
1000
ctyp
1000
0
1000
csiz
1000
5
1000
lfnt
1000
cont
1000
hcnt
1000
hoff
1000
vcnt
1000
voff
1000
opnt
1000
4
1000
dxpt
1000
0
1000
dypt
1000
0
  0
MLINESTYLE
  5
13
102
{ACAD_REACTORS
330
E
102
}
330
E
100
AcDbMlineStyle
  2
STANDARD
 70
     0
  3

 62
     0
 51
90.0
 52
90.0
 71
     2
 49
0.5
 62
   256
  6
BYLAYER
 49
-0.5
 62
   256
  6
BYLAYER
  0
PLOTSETTINGS
  5
758
102
{ACAD_REACTORS
330
566
102
}
330
566
100
AcDbPlotSettings
  1
A3(0.5倍)
  2
\\AWTECPC05\HP DeskJet 1120C
  4
A3
  6

 40
5.95841646
 41
13.49375153
 42
6.04309082
 43
3.67242432
 44
296.92599487
 45
419.94665527
 46
89.96
 47
127.14
 48
0.0
 49
0.0
140
0.0
141
0.0
142
1.0
143
2.0
 70
  1716
 72
     1
 73
     1
 74
     2
  7
big.ctb
 75
    17
147
0.5
148
0.0
149
0.0
  0
PLOTSETTINGS
  5
757
102
{ACAD_REACTORS
330
566
102
}
330
566
100
AcDbPlotSettings
  1
A3(1倍)
  2
\\AWTECPC05\HP DeskJet 1120C
  4
A3
  6

 40
5.95841646
 41
13.49375153
 42
6.04309082
 43
3.67242432
 44
296.92599487
 45
419.94665527
 46
37.46
 47
52.89
 48
0.0
 49
0.0
140
0.0
141
0.0
142
1.0
143
1.0
 70
  1716
 72
     1
 73
     1
 74
     2
  7
big.ctb
 75
    16
147
1.0
148
0.0
149
0.0
  0
PLOTSETTINGS
  5
707
102
{ACAD_REACTORS
330
566
102
}
330
566
100
AcDbPlotSettings
  1
A3(1倍)(2000)
  2
SII LS-1300 (D-SCAN)
  4
User258
  6

 40
3.17499995
 41
3.17499995
 42
3.17498779
 43
3.17498779
 44
419.98898315
 45
296.98950195
 46
58.32
 47
40.32
 48
0.0
 49
0.0
140
0.0
141
0.0
142
1.0
143
1.0
 70
  1716
 72
     1
 73
     0
 74
     2
  7
big.ctb
 75
    16
147
1.0
148
0.0
149
0.0
  0
PLOTSETTINGS
  5
759
102
{ACAD_REACTORS
330
566
102
}
330
566
100
AcDbPlotSettings
  1
A3(2倍)
  2
\\AWTECPC05\HP DeskJet 1120C
  4
A3
  6

 40
5.95841646
 41
13.49375153
 42
6.04309082
 43
3.67242432
 44
296.92599487
 45
419.94665527
 46
-67.54
 47
-95.61
 48
0.0
 49
0.0
140
0.0
141
0.0
142
1.0
143
0.5
 70
  1716
 72
     1
 73
     1
 74
     2
  7
big.ctb
 75
    27
147
2.0
148
0.0
149
0.0
  0
PLOTSETTINGS
  5
755
102
{ACAD_REACTORS
330
566
102
}
330
566
100
AcDbPlotSettings
  1
A4(0.5倍)
  2
\\AWTECPC05\HP DeskJet 1120C
  4
A4
  6

 40
4.18041658
 41
13.49374962
 42
4.18040466
 43
3.92642212
 44
209.97332764
 45
296.92599487
 46
48.31
 47
65.5
 48
0.0
 49
0.0
140
0.0
141
0.0
142
1.0
143
2.0
 70
  1716
 72
     1
 73
     1
 74
     2
  7
big.ctb
 75
    17
147
0.5
148
0.0
149
0.0
  0
PLOTSETTINGS
  5
754
102
{ACAD_REACTORS
330
566
102
}
330
566
100
AcDbPlotSettings
  1
A4(1倍)
  2
\\AWTECPC05\HP DeskJet 1120C
  4
A4
  6

 40
4.18041658
 41
13.49374962
 42
4.18040466
 43
3.92642212
 44
209.97332764
 45
296.92599487
 46
-4.19
 47
-8.75
 48
0.0
 49
0.0
140
0.0
141
0.0
142
1.0
143
1.0
 70
  1716
 72
     1
 73
     1
 74
     2
  7
big.ctb
 75
    16
147
1.0
148
0.0
149
0.0
  0
PLOTSETTINGS
  5
708
102
{ACAD_REACTORS
330
566
102
}
330
566
100
AcDbPlotSettings
  1
A4(1倍)(2000)
  2
SII LS-1300 (D-SCAN)
  4
User259
  6

 40
3.17499995
 41
3.17499995
 42
3.17498779
 43
3.17500305
 44
296.98950195
 45
209.99449158
 46
-3.18
 47
-3.18
 48
0.0
 49
0.0
140
0.0
141
0.0
142
1.0
143
1.0
 70
  1716
 72
     1
 73
     0
 74
     2
  7
big.ctb
 75
    16
147
1.0
148
0.0
149
0.0
  0
PLOTSETTINGS
  5
756
102
{ACAD_REACTORS
330
566
102
}
330
566
100
AcDbPlotSettings
  1
A4(2倍)
  2
\\AWTECPC05\HP DeskJet 1120C
  4
A4
  6

 40
4.18041658
 41
13.49374962
 42
4.18040466
 43
3.92642212
 44
209.97332764
 45
296.92599487
 46
-109.19
 47
-157.25
 48
0.0
 49
0.0
140
0.0
141
0.0
142
1.0
143
0.5
 70
  1716
 72
     1
 73
     1
 74
     2
  7
big.ctb
 75
    27
147
2.0
148
0.0
149
0.0
  0
ACDBPLACEHOLDER
  5
564
102
{ACAD_REACTORS
330
563
102
}
330
563
100
AcDbPlaceHolder
280
     0
  0
XRECORD
  5
CD5
102
{ACAD_REACTORS
330
CCB
102
}
330
CCB
100
AcDbXrecord
 90
        0
  0
XRECORD
  5
CD9
102
{ACAD_REACTORS
330
CCB
102
}
330
CCB
100
AcDbXrecord
1000
DSTYLE
1002
{
1070
    79
 70
     2
1070
   179
 70
     3
1070
   341
340
594
1070
   343
340
594
1070
   344
340
594
1070
   371
 70
    -1
1070
   372
 70
    -1
1002
}
  0
XRECORD
  5
CD6
102
{ACAD_REACTORS
330
CCB
102
}
330
CCB
100
AcDbXrecord
  1
{51294030-9CB4-11D3-8E18-00A0C925D94D}
  0
XRECORD
  5
CCE
102
{ACAD_REACTORS
330
CCB
102
}
330
CCB
100
AcDbXrecord
  1

  0
XRECORD
  5
CD4
102
{ACAD_REACTORS
330
CCB
102
}
330
CCB
100
AcDbXrecord
 90
        0
  0
XRECORD
  5
CD0
102
{ACAD_REACTORS
330
CCB
102
}
330
CCB
100
AcDbXrecord
340
565
  0
XRECORD
  5
CD3
102
{ACAD_REACTORS
330
CCB
102
}
330
CCB
100
AcDbXrecord
 90
    10781
  0
XRECORD
  5
CD1
102
{ACAD_REACTORS
330
CCB
102
}
330
CCB
100
AcDbXrecord
340
566
  0
XRECORD
  5
CD2
102
{ACAD_REACTORS
330
CCB
102
}
330
CCB
100
AcDbXrecord
340
563
  0
XRECORD
  5
CD8
102
{ACAD_REACTORS
330
CCB
102
}
330
CCB
100
AcDbXrecord
 40
0.0
  0
XRECORD
  5
CDC
102
{ACAD_REACTORS
330
CCB
102
}
330
CCB
100
AcDbXrecord
340
0
  0
XRECORD
  5
CE2
102
{ACAD_REACTORS
330
CCB
102
}
330
CCB
100
AcDbXrecord
 10
0.0
 20
0.0
 30
0.0
  0
XRECORD
  5
CDE
102
{ACAD_REACTORS
330
CCB
102
}
330
CCB
100
AcDbXrecord
 10
0.0
 20
0.0
 30
0.0
  0
XRECORD
  5
CE1
102
{ACAD_REACTORS
330
CCB
102
}
330
CCB
100
AcDbXrecord
 10
0.0
 20
0.0
 30
0.0
  0
XRECORD
  5
CDF
102
{ACAD_REACTORS
330
CCB
102
}
330
CCB
100
AcDbXrecord
 10
0.0
 20
0.0
 30
0.0
  0
XRECORD
  5
CE0
102
{ACAD_REACTORS
330
CCB
102
}
330
CCB
100
AcDbXrecord
 10
0.0
 20
0.0
 30
0.0
  0
XRECORD
  5
CDD
102
{ACAD_REACTORS
330
CCB
102
}
330
CCB
100
AcDbXrecord
 10
0.0
 20
0.0
 30
0.0
  0
XRECORD
  5
CDA
102
{ACAD_REACTORS
330
CCB
102
}
330
CCB
100
AcDbXrecord
340
0
  0
XRECORD
  5
CDB
102
{ACAD_REACTORS
330
CCB
102
}
330
CCB
100
AcDbXrecord
 70
     0
  0
XRECORD
  5
CCF
102
{ACAD_REACTORS
330
CCB
102
}
330
CCB
100
AcDbXrecord
  1
big.ctb
  0
XRECORD
  5
CCC
102
{ACAD_REACTORS
330
CCB
102
}
330
CCB
100
AcDbXrecord
 90
        1
  0
XRECORD
  5
CCD
102
{ACAD_REACTORS
330
CCB
102
}
330
CCB
100
AcDbXrecord
 90
       70
  0
XRECORD
  5
CE5
102
{ACAD_REACTORS
330
CCB
102
}
330
CCB
100
AcDbXrecord
340
0
  0
XRECORD
  5
CEB
102
{ACAD_REACTORS
330
CCB
102
}
330
CCB
100
AcDbXrecord
 10
0.0
 20
0.0
 30
0.0
  0
XRECORD
  5
CE7
102
{ACAD_REACTORS
330
CCB
102
}
330
CCB
100
AcDbXrecord
 10
0.0
 20
0.0
 30
0.0
  0
XRECORD
  5
CEA
102
{ACAD_REACTORS
330
CCB
102
}
330
CCB
100
AcDbXrecord
 10
0.0
 20
0.0
 30
0.0
  0
XRECORD
  5
CE8
102
{ACAD_REACTORS
330
CCB
102
}
330
CCB
100
AcDbXrecord
 10
0.0
 20
0.0
 30
0.0
  0
XRECORD
  5
CE9
102
{ACAD_REACTORS
330
CCB
102
}
330
CCB
100
AcDbXrecord
 10
0.0
 20
0.0
 30
0.0
  0
XRECORD
  5
CE6
102
{ACAD_REACTORS
330
CCB
102
}
330
CCB
100
AcDbXrecord
 10
0.0
 20
0.0
 30
0.0
  0
XRECORD
  5
CE3
102
{ACAD_REACTORS
330
CCB
102
}
330
CCB
100
AcDbXrecord
340
0
  0
XRECORD
  5
CE4
102
{ACAD_REACTORS
330
CCB
102
}
330
CCB
100
AcDbXrecord
 70
     0
  0
XRECORD
  5
CD7
102
{ACAD_REACTORS
330
CCB
102
}
330
CCB
100
AcDbXrecord
  1
{E4994FB6-AD65-416A-BDFE-F5B57EB45A4B}
  0
XRECORD
  5
560
102
{ACAD_REACTORS
330
540
102
}
330
540
100
AcDbXrecord
  1
2.0.0
  0
ENDSEC
  0
EOF
