  0
SECTION
  2
HEADER
  9
$ACADVER
  1
AC1014
  9
$ACADMAINTVER
 70
     9
  9
$DWGCODEPAGE
  3
ANSI_932
  9
$INSBASE
 10
0.0
 20
0.0
 30
0.0
  9
$EXTMIN
 10
-49.41432386
 20
-23.17545536
 30
-0.00152582
  9
$EXTMAX
 10
121.01678236
 20
61.02339062
 30
0.00000003
  9
$LIMMIN
 10
0.0
 20
0.0
  9
$LIMMAX
 10
420.0
 20
297.0
  9
$ORTHOMODE
 70
     1
  9
$REGENMODE
 70
     1
  9
$FILLMODE
 70
     1
  9
$QTEXTMODE
 70
     0
  9
$MIRRTEXT
 70
     1
  9
$DRAGMODE
 70
     2
  9
$LTSCALE
 40
10.0
  9
$OSMODE
 70
   549
  9
$ATTMODE
 70
     1
  9
$TEXTSIZE
 40
3.0
  9
$TRACEWID
 40
1.0
  9
$TEXTSTYLE
  7
YOKO
  9
$CLAYER
  8
245
  9
$CELTYPE
  6
BYLAYER
  9
$CECOLOR
 62
   256
  9
$CELTSCALE
 40
1.0
  9
$DELOBJ
 70
     1
  9
$DISPSILH
 70
     0
  9
$DIMSCALE
 40
1.0
  9
$DIMASZ
 40
2.0
  9
$DIMEXO
 40
2.0
  9
$DIMDLI
 40
2.5
  9
$DIMRND
 40
0.0
  9
$DIMDLE
 40
0.0
  9
$DIMEXE
 40
2.0
  9
$DIMTP
 40
0.0
  9
$DIMTM
 40
0.0
  9
$DIMTXT
 40
4.0
  9
$DIMCEN
 40
0.0
  9
$DIMTSZ
 40
0.0
  9
$DIMTOL
 70
     0
  9
$DIMLIM
 70
     0
  9
$DIMTIH
 70
     0
  9
$DIMTOH
 70
     0
  9
$DIMSE1
 70
     0
  9
$DIMSE2
 70
     0
  9
$DIMTAD
 70
     3
  9
$DIMZIN
 70
     8
  9
$DIMBLK
  1

  9
$DIMASO
 70
     1
  9
$DIMSHO
 70
     1
  9
$DIMPOST
  1

  9
$DIMAPOST
  1

  9
$DIMALT
 70
     0
  9
$DIMALTD
 70
     2
  9
$DIMALTF
 40
25.4
  9
$DIMLFAC
 40
1.0
  9
$DIMTOFL
 70
     1
  9
$DIMTVP
 40
0.0
  9
$DIMTIX
 70
     1
  9
$DIMSOXD
 70
     0
  9
$DIMSAH
 70
     1
  9
$DIMBLK1
  1
OPEN
  9
$DIMBLK2
  1
OPEN
  9
$DIMSTYLE
  2
BIGT
  9
$DIMCLRD
 70
   256
  9
$DIMCLRE
 70
   256
  9
$DIMCLRT
 70
    40
  9
$DIMTFAC
 40
1.0
  9
$DIMGAP
 40
1.0
  9
$DIMJUST
 70
     0
  9
$DIMSD1
 70
     0
  9
$DIMSD2
 70
     0
  9
$DIMTOLJ
 70
     1
  9
$DIMTZIN
 70
     8
  9
$DIMALTZ
 70
     0
  9
$DIMALTTZ
 70
     0
  9
$DIMFIT
 70
     3
  9
$DIMUPT
 70
     0
  9
$DIMUNIT
 70
     2
  9
$DIMDEC
 70
     3
  9
$DIMTDEC
 70
     3
  9
$DIMALTU
 70
     2
  9
$DIMALTTD
 70
     2
  9
$DIMTXSTY
  7
STANDARD
  9
$DIMAUNIT
 70
     0
  9
$LUNITS
 70
     2
  9
$LUPREC
 70
     3
  9
$SKETCHINC
 40
1.0
  9
$FILLETRAD
 40
10.0
  9
$AUNITS
 70
     0
  9
$AUPREC
 70
     3
  9
$MENU
  1
.
  9
$ELEVATION
 40
0.0
  9
$PELEVATION
 40
0.0
  9
$THICKNESS
 40
0.0
  9
$LIMCHECK
 70
     0
  9
$BLIPMODE
 70
     0
  9
$CHAMFERA
 40
10.0
  9
$CHAMFERB
 40
10.0
  9
$CHAMFERC
 40
0.0
  9
$CHAMFERD
 40
0.0
  9
$SKPOLY
 70
     0
  9
$TDCREATE
 40
2455112.368714548
  9
$TDUPDATE
 40
2455204.568398611
  9
$TDINDWG
 40
0.0265293981
  9
$TDUSRTIMER
 40
0.0265293981
  9
$USRTIMER
 70
     1
  9
$ANGBASE
 50
0.0
  9
$ANGDIR
 70
     0
  9
$PDMODE
 70
    35
  9
$PDSIZE
 40
-5.0
  9
$PLINEWID
 40
0.0
  9
$COORDS
 70
     2
  9
$SPLFRAME
 70
     0
  9
$SPLINETYPE
 70
     6
  9
$SPLINESEGS
 70
     8
  9
$ATTDIA
 70
     0
  9
$ATTREQ
 70
     1
  9
$HANDLING
 70
-16383
  9
$HANDSEED
  5
12C7
  9
$SURFTAB1
 70
     6
  9
$SURFTAB2
 70
     6
  9
$SURFTYPE
 70
     6
  9
$SURFU
 70
     6
  9
$SURFV
 70
     6
  9
$UCSNAME
  2

  9
$UCSORG
 10
0.0
 20
0.0
 30
0.0
  9
$UCSXDIR
 10
1.0
 20
0.0
 30
0.0
  9
$UCSYDIR
 10
0.0
 20
1.0
 30
0.0
  9
$PUCSNAME
  2

  9
$PUCSORG
 10
0.0
 20
0.0
 30
0.0
  9
$PUCSXDIR
 10
1.0
 20
0.0
 30
0.0
  9
$PUCSYDIR
 10
0.0
 20
1.0
 30
0.0
  9
$USERI1
 70
     1
  9
$USERI2
 70
     0
  9
$USERI3
 70
     0
  9
$USERI4
 70
     0
  9
$USERI5
 70
     0
  9
$USERR1
 40
0.0
  9
$USERR2
 40
0.0
  9
$USERR3
 40
0.0
  9
$USERR4
 40
0.0
  9
$USERR5
 40
0.0
  9
$WORLDVIEW
 70
     1
  9
$SHADEDGE
 70
     3
  9
$SHADEDIF
 70
    70
  9
$TILEMODE
 70
     1
  9
$MAXACTVP
 70
    16
  9
$PINSBASE
 10
0.0
 20
0.0
 30
0.0
  9
$PLIMCHECK
 70
     0
  9
$PEXTMIN
 10
1.00000000E+20
 20
1.00000000E+20
 30
1.00000000E+20
  9
$PEXTMAX
 10
-1.00000000E+20
 20
-1.00000000E+20
 30
-1.00000000E+20
  9
$PLIMMIN
 10
0.0
 20
0.0
  9
$PLIMMAX
 10
420.0
 20
297.0
  9
$UNITMODE
 70
     0
  9
$VISRETAIN
 70
     0
  9
$PLINEGEN
 70
     0
  9
$PSLTSCALE
 70
     1
  9
$TREEDEPTH
 70
  3020
  9
$PICKSTYLE
 70
     0
  9
$CMLSTYLE
  2
STANDARD
  9
$CMLJUST
 70
     0
  9
$CMLSCALE
 40
1.0
  9
$PROXYGRAPHICS
 70
     1
  9
$MEASUREMENT
 70
     1
  0
ENDSEC
  0
SECTION
  2
CLASSES
  0
CLASS
  1
XRECORD
  2
AcDbXrecord
  3
AutoCAD 2000
 90
        0
280
     0
281
     0
  0
CLASS
  1
ACDBDICTIONARYWDFLT
  2
AcDbDictionaryWithDefault
  3
AutoCAD 2000
 90
        0
280
     0
281
     0
  0
CLASS
  1
ACDBPLACEHOLDER
  2
AcDbPlaceHolder
  3
AutoCAD 2000
 90
        0
280
     0
281
     0
  0
CLASS
  1
LAYOUT
  2
AcDbLayout
  3
AutoCAD 2000
 90
        0
280
     0
281
     0
  0
CLASS
  1
PLOTSETTINGS
  2
AcDbPlotSettings
  3
AutoCAD 2000
 90
        0
280
     0
281
     0
  0
CLASS
  1
LONG_TRANSACTION
  2
AcDbLongTransaction
  3
AutoCAD 2000
 90
        0
280
     0
281
     0
  0
CLASS
  1
LWPOLYLINE
  2
AcDbPolyline
  3
AutoCAD 2000
 90
        0
280
     0
281
     1
  0
CLASS
  1
HATCH
  2
AcDbHatch
  3
AutoCAD 2000
 90
        0
280
     0
281
     1
  0
CLASS
  1
XRECORD
  2
AcDbXrecord
  3
AutoCAD 2000
 90
        0
280
     0
281
     0
  0
CLASS
  1
LONG_TRANSACTION
  2
AcDbLongTransaction
  3
AutoCAD 2000
 90
        0
280
     0
281
     0
  0
CLASS
  1
LWPOLYLINE
  2
AcDbPolyline
  3
AutoCAD 2000
 90
        0
280
     0
281
     1
  0
CLASS
  1
HATCH
  2
AcDbHatch
  3
AutoCAD 2000
 90
        0
280
     0
281
     1
  0
CLASS
  1
XRECORD
  2
AcDbXrecord
  3
AutoCAD 2000
 90
        0
280
     0
281
     0
  0
CLASS
  1
LONG_TRANSACTION
  2
AcDbLongTransaction
  3
AutoCAD 2000
 90
        0
280
     0
281
     0
  0
CLASS
  1
LWPOLYLINE
  2
AcDbPolyline
  3
AutoCAD 2000
 90
        0
280
     0
281
     1
  0
CLASS
  1
HATCH
  2
AcDbHatch
  3
AutoCAD 2000
 90
        0
280
     0
281
     1
  0
CLASS
  1
XRECORD
  2
AcDbXrecord
  3
AutoCAD 2000
 90
        0
280
     0
281
     0
  0
CLASS
  1
LONG_TRANSACTION
  2
AcDbLongTransaction
  3
AutoCAD 2000
 90
        0
280
     0
281
     0
  0
CLASS
  1
LWPOLYLINE
  2
AcDbPolyline
  3
AutoCAD 2000
 90
        0
280
     0
281
     1
  0
CLASS
  1
HATCH
  2
AcDbHatch
  3
AutoCAD 2000
 90
        0
280
     0
281
     1
  0
CLASS
  1
XRECORD
  2
AcDbXrecord
  3
AutoCAD 2000
 90
        0
280
     0
281
     0
  0
CLASS
  1
LONG_TRANSACTION
  2
AcDbLongTransaction
  3
AutoCAD 2000
 90
        0
280
     0
281
     0
  0
CLASS
  1
LWPOLYLINE
  2
AcDbPolyline
  3
AutoCAD 2000
 90
        0
280
     0
281
     1
  0
CLASS
  1
HATCH
  2
AcDbHatch
  3
AutoCAD 2000
 90
        0
280
     0
281
     1
  0
CLASS
  1
XRECORD
  2
AcDbXrecord
  3
AutoCAD 2000
 90
        0
280
     0
281
     0
  0
CLASS
  1
LONG_TRANSACTION
  2
AcDbLongTransaction
  3
AutoCAD 2000
 90
        0
280
     0
281
     0
  0
CLASS
  1
LWPOLYLINE
  2
AcDbPolyline
  3
AutoCAD 2000
 90
        0
280
     0
281
     1
  0
CLASS
  1
HATCH
  2
AcDbHatch
  3
AutoCAD 2000
 90
        0
280
     0
281
     1
  0
CLASS
  1
XRECORD
  2
AcDbXrecord
  3
AutoCAD 2000
 90
        0
280
     0
281
     0
  0
CLASS
  1
LONG_TRANSACTION
  2
AcDbLongTransaction
  3
AutoCAD 2000
 90
        0
280
     0
281
     0
  0
CLASS
  1
LWPOLYLINE
  2
AcDbPolyline
  3
AutoCAD 2000
 90
        0
280
     0
281
     1
  0
CLASS
  1
HATCH
  2
AcDbHatch
  3
AutoCAD 2000
 90
        0
280
     0
281
     1
  0
CLASS
  1
XRECORD
  2
AcDbXrecord
  3
AutoCAD 2000
 90
        0
280
     0
281
     0
  0
ENDSEC
  0
SECTION
  2
TABLES
  0
TABLE
  2
VPORT
  5
8
330
0
100
AcDbSymbolTable
 70
     3
  0
VPORT
  5
12A2
330
8
100
AcDbSymbolTableRecord
100
AcDbViewportTableRecord
  2
*ACTIVE
 70
     0
 10
0.0
 20
0.0
 11
1.0
 21
1.0
 12
35.80122925
 22
18.92396763
 13
0.0
 23
0.0
 14
7.0
 24
7.0
 15
7.0
 25
7.0
 16
0.0
 26
0.0
 36
1.0
 17
0.0
 27
0.0
 37
0.0
 40
119.66341888
 41
1.43184713
 42
50.0
 43
0.0
 44
0.0
 50
0.0
 51
0.0
 71
     0
 72
  2000
 73
     1
 74
     0
 75
     0
 76
     0
 77
     0
 78
     0
  0
ENDTAB
  0
TABLE
  2
LTYPE
  5
5
330
0
100
AcDbSymbolTable
 70
     3
  0
LTYPE
  5
14
330
5
100
AcDbSymbolTableRecord
100
AcDbLinetypeTableRecord
  2
BYBLOCK
 70
     0
  3

 72
    65
 73
     0
 40
0.0
  0
LTYPE
  5
15
330
5
100
AcDbSymbolTableRecord
100
AcDbLinetypeTableRecord
  2
BYLAYER
 70
     0
  3

 72
    65
 73
     0
 40
0.0
  0
LTYPE
  5
16
330
5
100
AcDbSymbolTableRecord
100
AcDbLinetypeTableRecord
  2
CONTINUOUS
 70
     0
  3
Solid line
 72
    65
 73
     0
 40
0.0
  0
LTYPE
  5
258
330
5
100
AcDbSymbolTableRecord
100
AcDbLinetypeTableRecord
  2
CENTER2
 70
     0
  3
___ _ ___ _ ___ _ ___ _ ___ _ ___ _ ___ _ ___ _
 72
    65
 73
     4
 40
1.125
 49
0.75
 74
     0
 49
-0.125
 74
     0
 49
0.125
 74
     0
 49
-0.125
 74
     0
  0
LTYPE
  5
25C
330
5
100
AcDbSymbolTableRecord
100
AcDbLinetypeTableRecord
  2
HIDDEN2
 70
     0
  3
_ _ _ _ _ _ _ _ _ _ _ _ _ _ _ _ _ _ _ _ _ _ _ _
 72
    65
 73
     2
 40
0.1875
 49
0.125
 74
     0
 49
-0.0625
 74
     0
  0
ENDTAB
  0
TABLE
  2
LAYER
  5
2
330
0
100
AcDbSymbolTable
 70
    10
  0
LAYER
  5
F
330
2
100
AcDbSymbolTableRecord
100
AcDbLayerTableRecord
  2
0
 70
     0
 62
     7
  6
CONTINUOUS
  0
LAYER
  5
1AA
330
2
100
AcDbSymbolTableRecord
100
AcDbLayerTableRecord
  2
240
 70
     0
 62
     4
  6
CONTINUOUS
  0
LAYER
  5
1AB
330
2
100
AcDbSymbolTableRecord
100
AcDbLayerTableRecord
  2
241
 70
     0
 62
   211
  6
CONTINUOUS
  0
LAYER
  5
1AD
330
2
100
AcDbSymbolTableRecord
100
AcDbLayerTableRecord
  2
243
 70
     0
 62
   211
  6
HIDDEN2
  0
LAYER
  5
1AF
330
2
100
AcDbSymbolTableRecord
100
AcDbLayerTableRecord
  2
245
 70
     0
 62
     2
  6
CENTER2
  0
LAYER
  5
21E
330
2
100
AcDbSymbolTableRecord
100
AcDbLayerTableRecord
  2
250
 70
     0
 62
     3
  6
CONTINUOUS
  0
LAYER
  5
21F
330
2
100
AcDbSymbolTableRecord
100
AcDbLayerTableRecord
  2
251
 70
     0
 62
    40
  6
CONTINUOUS
  0
LAYER
  5
5C4
330
2
100
AcDbSymbolTableRecord
100
AcDbLayerTableRecord
  2
DEFPOINTS
 70
     0
 62
     7
  6
CONTINUOUS
  0
LAYER
  5
DBA
330
2
100
AcDbSymbolTableRecord
100
AcDbLayerTableRecord
  2
242
 70
     0
 62
     3
  6
CONTINUOUS
  0
ENDTAB
  0
TABLE
  2
STYLE
  5
3
330
0
100
AcDbSymbolTable
 70
     2
  0
STYLE
  5
10
330
3
100
AcDbSymbolTableRecord
100
AcDbTextStyleTableRecord
  2
STANDARD
 70
     0
 40
0.0
 41
1.0
 50
0.0
 71
     0
 42
3.0
  3
romans.shx
  4
BIGFONT.SHX
  0
STYLE
  5
339
330
3
100
AcDbSymbolTableRecord
100
AcDbTextStyleTableRecord
  2
YOKO
 70
     0
 40
0.0
 41
1.0
 50
0.0
 71
     0
 42
3.0
  3
romans.shx
  4
extfont.shx
  0
ENDTAB
  0
TABLE
  2
VIEW
  5
6
330
0
100
AcDbSymbolTable
 70
     0
  0
ENDTAB
  0
TABLE
  2
UCS
  5
7
330
0
100
AcDbSymbolTable
 70
     0
  0
ENDTAB
  0
TABLE
  2
APPID
  5
9
330
0
100
AcDbSymbolTable
 70
     9
  0
APPID
  5
11
330
9
100
AcDbSymbolTableRecord
100
AcDbRegAppTableRecord
  2
ACAD
 70
     0
  0
APPID
  5
1B1
330
9
100
AcDbSymbolTableRecord
100
AcDbRegAppTableRecord
  2
GLOBAL
 70
     0
  0
APPID
  5
2A4
330
9
100
AcDbSymbolTableRecord
100
AcDbRegAppTableRecord
  2
DETAIL
 70
     0
  0
APPID
  5
5FD
330
9
100
AcDbSymbolTableRecord
100
AcDbRegAppTableRecord
  2
GRPNAME
 70
     0
  0
APPID
  5
5FE
330
9
100
AcDbSymbolTableRecord
100
AcDbRegAppTableRecord
  2
GPARA
 70
     0
  0
APPID
  5
6C4
330
9
100
AcDbSymbolTableRecord
100
AcDbRegAppTableRecord
  2
DCO15
 70
     0
  0
APPID
  5
6C5
330
9
100
AcDbSymbolTableRecord
100
AcDbRegAppTableRecord
  2
ITEMNAME
 70
     0
  0
APPID
  5
6C6
330
9
100
AcDbSymbolTableRecord
100
AcDbRegAppTableRecord
  2
GRADE_0
 70
     0
  0
APPID
  5
AAE
330
9
100
AcDbSymbolTableRecord
100
AcDbRegAppTableRecord
  2
CONTENTBLOCKICON
 70
     0
  0
ENDTAB
  0
TABLE
  2
DIMSTYLE
  5
A
330
0
100
AcDbSymbolTable
 70
     2
  0
DIMSTYLE
105
725
330
A
100
AcDbSymbolTableRecord
100
AcDbDimStyleTableRecord
  2
BIGT
 70
     0
  3

  4

  5

  6
OPEN
  7
OPEN
 40
1.0
 41
2.23
 42
0.5
 43
2.5
 44
1.0
 45
0.0
 46
0.0
 47
0.0
 48
0.0
140
2.8
141
0.0
142
0.0
143
25.4
144
1.0
145
0.0
146
1.0
147
1.0
 71
     0
 72
     0
 73
     0
 74
     0
 75
     0
 76
     0
 77
     3
 78
     8
170
     0
171
     2
172
     1
173
     1
174
     1
175
     0
176
   256
177
   256
178
    40
270
     2
271
     3
272
     3
273
     2
274
     2
340
10
275
     0
280
     0
281
     0
282
     0
283
     1
284
     8
285
     0
286
     0
287
     3
288
     0
  0
DIMSTYLE
105
7F2
102
{ACAD_REACTORS
330
804
330
805
330
1094
330
1095
330
10FF
102
}
330
A
100
AcDbSymbolTableRecord
100
AcDbDimStyleTableRecord
  2
BIGT$0
 70
     0
  3

  4
"
  5
OPEN
  6

  7

 40
1.0
 41
2.23
 42
0.5
 43
7.0
 44
1.0
 45
0.0
 46
0.0
 47
0.1
 48
0.1
140
3.0
141
0.0
142
0.0
143
0.0393701
144
1.0
145
0.0
146
0.71
147
1.0
 71
     0
 72
     0
 73
     0
 74
     0
 75
     0
 76
     0
 77
     3
 78
     8
170
     0
171
     2
172
     1
173
     0
174
     0
175
     0
176
     3
177
     3
178
    40
270
     2
271
     3
272
     3
273
     2
274
     2
340
10
275
     0
280
     0
281
     0
282
     0
283
     1
284
     8
285
     0
286
     0
287
     3
288
     0
  0
ENDTAB
  0
TABLE
  2
BLOCK_RECORD
  5
1
330
0
100
AcDbSymbolTable
 70
     9
  0
BLOCK_RECORD
  5
1A
102
{ACAD_XDICTIONARY
360
AAC
102
}
330
1
100
AcDbSymbolTableRecord
100
AcDbBlockTableRecord
  2
*MODEL_SPACE
  0
BLOCK_RECORD
  5
17
102
{ACAD_XDICTIONARY
360
AAA
102
}
330
1
100
AcDbSymbolTableRecord
100
AcDbBlockTableRecord
  2
*PAPER_SPACE
  0
BLOCK_RECORD
  5
594
330
1
100
AcDbSymbolTableRecord
100
AcDbBlockTableRecord
  2
_OPEN
  0
BLOCK_RECORD
  5
6E3
330
1
100
AcDbSymbolTableRecord
100
AcDbBlockTableRecord
  2
矢印なし
  0
BLOCK_RECORD
  5
790
330
1
100
AcDbSymbolTableRecord
100
AcDbBlockTableRecord
  2
1
1001
CONTENTBLOCKICON
1071
        0
1004
2800000020000000200000000100080000000000000400000000000000000000000000000000000000000000000080000080000000808000800000008000800080800000C0C0C000C0DCC000F0CAA6000020400000206000002080000020A0000020C0000020E00000400000004020000040400000406000004080000040A0
1004
000040C0000040E00000600000006020000060400000606000006080000060A0000060C0000060E00000800000008020000080400000806000008080000080A0000080C0000080E00000A0000000A0200000A0400000A0600000A0800000A0A00000A0C00000A0E00000C0000000C0200000C0400000C0600000C0800000C0
1004
A00000C0C00000C0E00000E0000000E0200000E0400000E0600000E0800000E0A00000E0C00000E0E00040000000400020004000400040006000400080004000A0004000C0004000E00040200000402020004020400040206000402080004020A0004020C0004020E000404000004040200040404000404060004040800040
1004
40A0004040C0004040E00040600000406020004060400040606000406080004060A0004060C0004060E00040800000408020004080400040806000408080004080A0004080C0004080E00040A0000040A0200040A0400040A0600040A0800040A0A00040A0C00040A0E00040C0000040C0200040C0400040C0600040C08000
1004
40C0A00040C0C00040C0E00040E0000040E0200040E0400040E0600040E0800040E0A00040E0C00040E0E00080000000800020008000400080006000800080008000A0008000C0008000E00080200000802020008020400080206000802080008020A0008020C0008020E00080400000804020008040400080406000804080
1004
008040A0008040C0008040E00080600000806020008060400080606000806080008060A0008060C0008060E00080800000808020008080400080806000808080008080A0008080C0008080E00080A0000080A0200080A0400080A0600080A0800080A0A00080A0C00080A0E00080C0000080C0200080C0400080C0600080C0
1004
800080C0A00080C0C00080C0E00080E0000080E0200080E0400080E0600080E0800080E0A00080E0C00080E0E000C0000000C0002000C0004000C0006000C0008000C000A000C000C000C000E000C0200000C0202000C0204000C0206000C0208000C020A000C020C000C020E000C0400000C0402000C0404000C0406000C0
1004
408000C040A000C040C000C040E000C0600000C0602000C0604000C0606000C0608000C060A000C060C000C060E000C0800000C0802000C0804000C0806000C0808000C080A000C080C000C080E000C0A00000C0A02000C0A04000C0A06000C0A08000C0A0A000C0A0C000C0A0E000C0C00000C0C02000C0C04000C0C06000
1004
C0C08000C0C0A000F0FBFF00A4A0A000808080000000FF0000FF000000FFFF00FF000000FF00FF00FFFF0000FFFFFF0000000000000000000000000000000000000000000000000000000000000000000000000000000000000000000000000000000000000000000000000000000000000000000000000000000000000000
1004
00000000000000000000000000000000000000000000000000000000000000000000000000000000000000000000000000000000000000000000000000000000000000000000000000000000000000000000000000000000000000000000000000000000000000000000000000000000000000000000000000000000000000
1004
00000000000000000000000000000000000000000000000000000000000000000000000000000000000000000000000000000000000000000000000000000000000000000000000000000000000000000000000000000000000000000000000000000000000000000000000000000000000000000000000000000000000000
1004
0000000000000000000000000000000000000000000000000000000000FEFEFEFBFE000000000000000000000000000000000000000000000000000000FE00FEFEFE000000000000000000000000000000000000000000000000FEFEFEFEE7E7E7E7FE0000000000000000000000000000000000FEFEFEFEFEFE000000E700
1004
E7E7E7FEFEFEFEFEFEFEFEFEFEFEFEFEFEFEFE0000FE0000000000000000E700E7E7E70000000000000000000000E7E70000FE0000FE0000000000000000E700E7E7E70000E7E7E7E7FAFAFAE7E7E7E7E7E7E70000FEFEFEFEFE00000000E700E7E7E7FEFEFEFEFEFEFEFEFEFEFEFEFEFEFEFE00000000000000FEFEFEFEFE
1004
E7E7E7E7FE0000000000000000000000000000000000000000000000000000FE00FEFEFE000000000000000000000000000000000000000000000000000000FEFEFEFBFE0000000000000000000000000000000000000000000000000000000000000000000000000000000000000000000000000000000000000000000000
1004
00000000000000000000000000000000000000000000000000000000000000000000000000000000000000000000000000000000000000000000000000000000000000000000000000000000000000000000000000000000000000000000000000000000000000000000000000000000000000000000000000000000000000
1004
00000000000000000000000000000000000000000000000000000000000000000000000000000000000000000000000000000000000000000000000000000000000000000000000000000000000000000000000000000000000000000000000000000000000000000000000000000000000000000000000000000000000000
1004
0000000000000000000000000000000000000000000000000000000000000000000000000000000000000000000000000000000000000000
  0
BLOCK_RECORD
  5
80F
330
1
100
AcDbSymbolTableRecord
100
AcDbBlockTableRecord
  2
*D3
  0
BLOCK_RECORD
  5
81B
330
1
100
AcDbSymbolTableRecord
100
AcDbBlockTableRecord
  2
*D4
  0
BLOCK_RECORD
  5
8C0
330
1
100
AcDbSymbolTableRecord
100
AcDbBlockTableRecord
  2
_NONE
  0
BLOCK_RECORD
  5
109E
330
1
100
AcDbSymbolTableRecord
100
AcDbBlockTableRecord
  2
*D6
  0
BLOCK_RECORD
  5
10A8
330
1
100
AcDbSymbolTableRecord
100
AcDbBlockTableRecord
  2
*D7
  0
BLOCK_RECORD
  5
1100
330
1
100
AcDbSymbolTableRecord
100
AcDbBlockTableRecord
  2
*D8
  0
ENDTAB
  0
ENDSEC
  0
SECTION
  2
BLOCKS
  0
BLOCK
  5
1B
330
1A
100
AcDbEntity
  8
0
100
AcDbBlockBegin
  2
*MODEL_SPACE
 70
     0
 10
0.0
 20
0.0
 30
0.0
  3
*MODEL_SPACE
  1

  0
ENDBLK
  5
1C
330
1A
100
AcDbEntity
  8
0
100
AcDbBlockEnd
  0
BLOCK
  5
18
330
17
100
AcDbEntity
 67
     1
  8
0
100
AcDbBlockBegin
  2
*PAPER_SPACE
 70
     0
 10
0.0
 20
0.0
 30
0.0
  3
*PAPER_SPACE
  1

  0
ENDBLK
  5
19
330
17
100
AcDbEntity
 67
     1
  8
0
100
AcDbBlockEnd
  0
BLOCK
  5
598
330
594
100
AcDbEntity
  8
0
100
AcDbBlockBegin
  2
_OPEN
 70
     0
 10
0.0
 20
0.0
 30
0.0
  3
_OPEN
  1

  0
LINE
  5
595
330
594
100
AcDbEntity
  8
0
  6
BYBLOCK
 62
     0
100
AcDbLine
 10
-1.0
 20
0.16666667
 30
0.0
 11
0.0
 21
0.0
 31
0.0
  0
LINE
  5
596
330
594
100
AcDbEntity
  8
0
  6
BYBLOCK
 62
     0
100
AcDbLine
 10
-1.0
 20
-0.16666667
 30
0.0
 11
0.0
 21
0.0
 31
0.0
  0
LINE
  5
597
330
594
100
AcDbEntity
  8
0
  6
BYBLOCK
 62
     0
100
AcDbLine
 10
0.0
 20
0.0
 30
0.0
 11
-1.0
 21
0.0
 31
0.0
  0
ENDBLK
  5
599
330
594
100
AcDbEntity
  8
0
100
AcDbBlockEnd
  0
BLOCK
  5
6E4
330
6E3
100
AcDbEntity
  8
0
100
AcDbBlockBegin
  2
矢印なし
 70
     0
 10
0.0
 20
0.0
 30
0.0
  3
矢印なし
  1

  0
ENDBLK
  5
6E5
330
6E3
100
AcDbEntity
  8
0
100
AcDbBlockEnd
  0
BLOCK
  5
7F0
330
790
100
AcDbEntity
  8
0
100
AcDbBlockBegin
  2
1
 70
     0
 10
0.0
 20
0.0
 30
0.0
  3
1
  1

  0
LINE
  5
1213
330
790
100
AcDbEntity
  8
240
100
AcDbLine
 10
32.0
 20
-7.0
 30
0.0
 11
86.59830912
 21
-7.0
 31
0.0
  0
LINE
  5
1214
330
790
100
AcDbEntity
  8
240
100
AcDbLine
 10
32.0
 20
7.0
 30
0.0
 11
86.59830912
 21
7.0
 31
0.0
  0
LINE
  5
1215
330
790
100
AcDbEntity
  8
241
  6
HIDDEN2
100
AcDbLine
 10
38.01999696
 20
3.2
 30
0.0
 11
76.51999696
 21
3.2
 31
0.0
  0
LINE
  5
1216
330
790
100
AcDbEntity
  8
240
  6
CONTINUOUS
100
AcDbLine
 10
-47.54431023
 20
8.94129104
 30
0.0
 11
0.0
 21
15.875
 31
0.0
  0
LINE
  5
1217
330
790
100
AcDbEntity
  8
240
  6
CONTINUOUS
100
AcDbLine
 10
-47.54431023
 20
-8.94129104
 30
0.0
 11
0.0
 21
-15.875
 31
0.0
  0
LINE
  5
1218
330
790
100
AcDbEntity
  8
240
  6
CONTINUOUS
100
AcDbLine
 10
-48.4
 20
-7.95175854
 30
0.0
 11
-48.4
 21
0.0
 31
0.0
  0
ARC
  5
1219
330
790
100
AcDbEntity
  8
240
  6
CONTINUOUS
100
AcDbCircle
 10
-47.4
 20
-7.95175854
 30
0.0
 40
1.0
100
AcDbArc
 50
180.0
 51
261.70266184
  0
LINE
  5
121A
330
790
100
AcDbEntity
  8
240
  6
CONTINUOUS
100
AcDbLine
 10
-48.4
 20
7.95175854
 30
0.0
 11
-48.4
 21
0.0
 31
0.0
  0
ARC
  5
121B
330
790
100
AcDbEntity
  8
240
  6
CONTINUOUS
100
AcDbCircle
 10
-47.4
 20
7.95175854
 30
0.0
 40
1.0
100
AcDbArc
 50
98.29733816
 51
180.0
  0
LINE
  5
121C
330
790
100
AcDbEntity
  8
245
  6
CENTER2
100
AcDbLine
 10
13.6
 20
-23.0
 30
0.0
 11
13.6
 21
23.0
 31
0.0
  0
LINE
  5
121D
330
790
100
AcDbEntity
  8
241
100
AcDbLine
 10
1.0
 20
0.0
 30
0.0
 11
1.0
 21
-15.875
 31
0.0
  0
LINE
  5
121E
330
790
100
AcDbEntity
  8
241
100
AcDbLine
 10
0.0
 20
-15.875
 30
0.0
 11
0.0
 21
0.0
 31
0.0
  0
ARC
  5
121F
330
790
100
AcDbEntity
  8
240
100
AcDbCircle
 10
32.0
 20
-17.0
 30
0.0
 40
10.0
100
AcDbArc
 50
90.0
 51
180.0
  0
LINE
  5
1220
330
790
100
AcDbEntity
  8
241
100
AcDbLine
 10
22.0
 20
-17.0
 30
0.0
 11
22.0
 21
0.0
 31
0.0
  0
LINE
  5
1221
330
790
100
AcDbEntity
  8
241
  6
CONTINUOUS
100
AcDbLine
 10
9.6
 20
-23.0
 30
0.0
 11
9.6
 21
0.0
 31
0.0
  0
LINE
  5
1222
330
790
100
AcDbEntity
  8
241
  6
CONTINUOUS
100
AcDbLine
 10
11.90940108
 20
-19.0
 30
0.0
 11
11.90940108
 21
0.04377196
 31
0.0
  0
LINE
  5
1223
330
790
100
AcDbEntity
  8
241
  6
CONTINUOUS
100
AcDbLine
 10
17.6
 20
0.0
 30
0.0
 11
17.6
 21
-23.0
 31
0.0
  0
LINE
  5
1224
330
790
100
AcDbEntity
  8
241
  6
CONTINUOUS
100
AcDbLine
 10
15.29059892
 20
-19.0
 30
0.0
 11
15.29059892
 21
0.04377196
 31
0.0
  0
LINE
  5
1225
330
790
100
AcDbEntity
  8
243
  6
HIDDEN2
100
AcDbLine
 10
19.0
 20
-16.3
 30
0.0
 11
1.0
 21
-16.3
 31
0.0
  0
LINE
  5
1226
330
790
100
AcDbEntity
  8
240
  6
CONTINUOUS
100
AcDbLine
 10
9.6
 20
-23.0
 30
0.0
 11
1.8
 21
-23.0
 31
0.0
  0
LINE
  5
1227
330
790
100
AcDbEntity
  8
240
  6
CONTINUOUS
100
AcDbLine
 10
1.0
 20
-15.875
 30
0.0
 11
1.0
 21
-22.2
 31
0.0
  0
ARC
  5
1228
330
790
100
AcDbEntity
  8
240
  6
CONTINUOUS
100
AcDbCircle
 10
1.8
 20
-22.2
 30
0.0
 40
0.8
100
AcDbArc
 50
180.0
 51
270.0
  0
LINE
  5
1229
330
790
100
AcDbEntity
  8
240
100
AcDbLine
 10
0.0
 20
-15.875
 30
0.0
 11
1.0
 21
-15.875
 31
0.0
  0
LINE
  5
122A
330
790
100
AcDbEntity
  8
240
  6
CONTINUOUS
100
AcDbLine
 10
17.6
 20
-23.0
 30
0.0
 11
21.2
 21
-23.0
 31
0.0
  0
LINE
  5
122B
330
790
100
AcDbEntity
  8
240
  6
CONTINUOUS
100
AcDbLine
 10
11.90940108
 20
-19.0
 30
0.0
 11
9.6
 21
-23.0
 31
0.0
  0
LINE
  5
122C
330
790
100
AcDbEntity
  8
243
  6
HIDDEN2
100
AcDbLine
 10
19.0
 20
-16.3
 30
0.0
 11
19.0
 21
-23.0
 31
0.0
  0
LINE
  5
122D
330
790
100
AcDbEntity
  8
240
  6
CONTINUOUS
100
AcDbLine
 10
15.29059892
 20
-19.0
 30
0.0
 11
17.6
 21
-23.0
 31
0.0
  0
LINE
  5
122E
330
790
100
AcDbEntity
  8
240
  6
CONTINUOUS
100
AcDbLine
 10
11.90940108
 20
-19.0
 30
0.0
 11
15.29059892
 21
-19.0
 31
0.0
  0
LINE
  5
122F
330
790
100
AcDbEntity
  8
240
  6
CONTINUOUS
100
AcDbLine
 10
22.0
 20
-22.2
 30
0.0
 11
22.0
 21
-17.0
 31
0.0
  0
ARC
  5
1230
330
790
100
AcDbEntity
  8
240
  6
CONTINUOUS
100
AcDbCircle
 10
21.2
 20
-22.2
 30
0.0
 40
0.8
100
AcDbArc
 50
270.0
 51
0.0
  0
LINE
  5
1231
330
790
100
AcDbEntity
  8
241
  6
HIDDEN2
100
AcDbLine
 10
19.0
 20
16.3
 30
0.0
 11
1.0
 21
16.3
 31
0.0
  0
LINE
  5
1232
330
790
100
AcDbEntity
  8
240
  6
CONTINUOUS
100
AcDbLine
 10
9.6
 20
23.0
 30
0.0
 11
1.8
 21
23.0
 31
0.0
  0
LINE
  5
1233
330
790
100
AcDbEntity
  8
241
100
AcDbLine
 10
1.0
 20
0.0
 30
0.0
 11
1.0
 21
15.875
 31
0.0
  0
LINE
  5
1234
330
790
100
AcDbEntity
  8
241
100
AcDbLine
 10
0.0
 20
15.875
 30
0.0
 11
0.0
 21
0.0
 31
0.0
  0
LINE
  5
1235
330
790
100
AcDbEntity
  8
240
  6
CONTINUOUS
100
AcDbLine
 10
1.0
 20
15.875
 30
0.0
 11
1.0
 21
22.2
 31
0.0
  0
LINE
  5
1236
330
790
100
AcDbEntity
  8
240
100
AcDbLine
 10
0.0
 20
15.875
 30
0.0
 11
1.0
 21
15.875
 31
0.0
  0
ARC
  5
1237
330
790
100
AcDbEntity
  8
240
  6
CONTINUOUS
100
AcDbCircle
 10
1.8
 20
22.2
 30
0.0
 40
0.8
100
AcDbArc
 50
90.0
 51
180.0
  0
ARC
  5
1238
330
790
100
AcDbEntity
  8
240
100
AcDbCircle
 10
32.0
 20
17.0
 30
0.0
 40
10.0
100
AcDbArc
 50
180.0
 51
270.0
  0
LINE
  5
1239
330
790
100
AcDbEntity
  8
241
100
AcDbLine
 10
22.0
 20
17.0
 30
0.0
 11
22.0
 21
0.0
 31
0.0
  0
LINE
  5
123A
330
790
100
AcDbEntity
  8
241
  6
CONTINUOUS
100
AcDbLine
 10
9.6
 20
23.0
 30
0.0
 11
9.6
 21
0.0
 31
0.0
  0
LINE
  5
123B
330
790
100
AcDbEntity
  8
241
  6
CONTINUOUS
100
AcDbLine
 10
17.6
 20
0.0
 30
0.0
 11
17.6
 21
23.0
 31
0.0
  0
LINE
  5
123C
330
790
100
AcDbEntity
  8
241
  6
CONTINUOUS
100
AcDbLine
 10
15.29059892
 20
19.0
 30
0.0
 11
15.29059892
 21
-0.04377196
 31
0.0
  0
LINE
  5
123D
330
790
100
AcDbEntity
  8
241
  6
CONTINUOUS
100
AcDbLine
 10
11.90940108
 20
19.0
 30
0.0
 11
11.90940108
 21
-0.04377196
 31
0.0
  0
LINE
  5
123E
330
790
100
AcDbEntity
  8
240
  6
CONTINUOUS
100
AcDbLine
 10
17.6
 20
23.0
 30
0.0
 11
21.2
 21
23.0
 31
0.0
  0
LINE
  5
123F
330
790
100
AcDbEntity
  8
240
  6
CONTINUOUS
100
AcDbLine
 10
11.90940108
 20
19.0
 30
0.0
 11
9.6
 21
23.0
 31
0.0
  0
LINE
  5
1240
330
790
100
AcDbEntity
  8
241
  6
HIDDEN2
100
AcDbLine
 10
19.0
 20
16.3
 30
0.0
 11
19.0
 21
23.0
 31
0.0
  0
LINE
  5
1241
330
790
100
AcDbEntity
  8
240
  6
CONTINUOUS
100
AcDbLine
 10
15.29059892
 20
19.0
 30
0.0
 11
17.6
 21
23.0
 31
0.0
  0
LINE
  5
1242
330
790
100
AcDbEntity
  8
240
  6
CONTINUOUS
100
AcDbLine
 10
11.90940108
 20
19.0
 30
0.0
 11
15.29059892
 21
19.0
 31
0.0
  0
LINE
  5
1243
330
790
100
AcDbEntity
  8
240
  6
CONTINUOUS
100
AcDbLine
 10
22.0
 20
22.2
 30
0.0
 11
22.0
 21
17.0
 31
0.0
  0
ARC
  5
1244
330
790
100
AcDbEntity
  8
240
  6
CONTINUOUS
100
AcDbCircle
 10
21.2
 20
22.2
 30
0.0
 40
0.8
100
AcDbArc
 50
0.0
 51
90.0
  0
LINE
  5
1245
330
790
100
AcDbEntity
  8
242
  6
HIDDEN2
100
AcDbLine
 10
56.01999696
 20
3.5
 30
0.0
 11
76.51999696
 21
3.5
 31
0.0
  0
LINE
  5
1246
330
790
100
AcDbEntity
  8
242
  6
HIDDEN2
100
AcDbLine
 10
56.01999696
 20
0.0
 30
0.0
 11
56.01999696
 21
3.5
 31
0.0
  0
LINE
  5
1247
330
790
100
AcDbEntity
  8
242
  6
HIDDEN2
100
AcDbLine
 10
101.01999696
 20
5.5000001
 30
0.0
 11
93.01999696
 21
5.5000001
 31
0.0
1001
GRPNAME
1000
PASTMD08
  0
LINE
  5
1248
330
790
100
AcDbEntity
  8
241
  6
HIDDEN2
100
AcDbLine
 10
100.51999696
 20
6.0000001
 30
0.0
 11
92.51999696
 21
6.0000001
 31
0.0
1001
GRPNAME
1000
PASTMD08
  0
LINE
  5
1249
330
790
100
AcDbEntity
  8
241
  6
HIDDEN2
100
AcDbLine
 10
92.49999696
 20
3.0000001
 30
0.0
 11
103.49999696
 21
3.0000001
 31
0.0
1001
GRPNAME
1000
PASTMD08
  0
LINE
  5
124A
330
790
100
AcDbEntity
  8
240
  6
CONTINUOUS
100
AcDbLine
 10
103.99999696
 20
-6.9999999
 30
0.0
 11
90.25980458
 21
-6.9999999
 31
0.0
1001
GRPNAME
1000
PASTMD08
  0
LINE
  5
124B
330
790
100
AcDbEntity
  8
240
  6
CONTINUOUS
100
AcDbLine
 10
103.99999696
 20
7.0000001
 30
0.0
 11
90.25980424
 21
7.0000001
 31
0.0
1001
GRPNAME
1000
PASTMD08
  0
LINE
  5
124C
330
790
100
AcDbEntity
  8
241
  6
HIDDEN2
100
AcDbLine
 10
91.87595399
 20
3.69999705
 30
0.0
 11
101.55738753
 21
4.547021
 31
0.0
1001
GRPNAME
1000
PASTMD08
  0
LINE
  5
124D
330
790
100
AcDbEntity
  8
241
  6
CONTINUOUS
100
AcDbLine
 10
91.19999696
 20
-7.0000001
 30
0.0
 11
91.19999696
 21
0.0
 31
0.0
1001
GRPNAME
1000
PASTMD09
  0
LINE
  5
124E
330
790
100
AcDbEntity
  8
241
  6
CONTINUOUS
100
AcDbLine
 10
86.88698426
 20
-6.90824829
 30
0.0
 11
86.88698426
 21
0.0
 31
0.0
  0
LINE
  5
124F
330
790
100
AcDbEntity
  8
241
  6
CONTINUOUS
100
AcDbLine
 10
89.99999696
 20
-7.1499999
 30
0.0
 11
89.99999696
 21
0.0
 31
0.0
1001
GRPNAME
1000
PASTMD0B
  0
LINE
  5
1250
330
790
100
AcDbEntity
  8
241
  6
CONTINUOUS
100
AcDbLine
 10
87.31999696
 20
-6.2500001
 30
0.0
 11
87.31999696
 21
0.0
 31
0.0
  0
LINE
  5
1251
330
790
100
AcDbEntity
  8
241
100
AcDbLine
 10
87.99999696
 20
0.0
 30
0.0
 11
87.99999696
 21
-6.2500001
 31
0.0
  0
ARC
  5
1252
330
790
100
AcDbEntity
  8
240
  6
CONTINUOUS
100
AcDbCircle
 10
88.30000001
 20
-6.84999685
 30
0.0
 40
0.3000030517578125
100
AcDbArc
 50
180.00000001
 51
270.00000069
1001
GRPNAME
1000
PASTMD0B
  0
ARC
  5
1253
330
790
100
AcDbEntity
  8
240
  6
CONTINUOUS
100
AcDbCircle
 10
86.59830912
 20
-6.5
 30
0.0
 40
0.5
100
AcDbArc
 50
270.0
 51
329.99999902
  0
LINE
  5
1254
330
790
100
AcDbEntity
  8
240
  6
CONTINUOUS
100
AcDbLine
 10
89.99999696
 20
-7.1499999
 30
0.0
 11
88.30000001
 21
-7.1499999
 31
0.0
1001
GRPNAME
1000
PASTMD0B
  0
LINE
  5
1255
330
790
100
AcDbEntity
  8
240
100
AcDbLine
 10
90.25980458
 20
-6.9999999
 30
0.0
 11
89.99999696
 21
-7.1499999
 31
0.0
  0
LINE
  5
1256
330
790
100
AcDbEntity
  8
240
  6
CONTINUOUS
100
AcDbLine
 10
87.99999696
 20
-6.2500001
 30
0.0
 11
87.99999696
 21
-6.84999685
 31
0.0
1001
GRPNAME
1000
PASTMD08
  0
LINE
  5
1257
330
790
100
AcDbEntity
  8
240
  6
CONTINUOUS
100
AcDbLine
 10
87.31999691
 20
-6.2500001
 30
0.0
 11
87.99999696
 21
-6.2500001
 31
0.0
1001
GRPNAME
1000
PASTMD08
  0
LINE
  5
1258
330
790
100
AcDbEntity
  8
240
  6
CONTINUOUS
100
AcDbLine
 10
87.31999691
 20
-6.2500001
 30
0.0
 11
87.03132182
 21
-6.75000001
 31
0.0
  0
LINE
  5
1259
330
790
100
AcDbEntity
  8
241
  6
HIDDEN2
100
AcDbLine
 10
91.87595399
 20
3.69999705
 30
0.0
 11
79.01999696
 21
3.69999705
 31
0.0
1001
GRPNAME
1000
PASTMD08
  0
LINE
  5
125A
330
790
100
AcDbEntity
  8
241
  6
HIDDEN2
100
AcDbLine
 10
92.4422577
 20
3.1000062
 30
0.0
 11
79.01999696
 21
3.1000062
 31
0.0
1001
GRPNAME
1000
PASTMD08
  0
LINE
  5
125B
330
790
100
AcDbEntity
  8
241
  6
HIDDEN2
100
AcDbLine
 10
79.01999696
 20
4.0000001
 30
0.0
 11
79.01999696
 21
0.0
 31
0.0
  0
LINE
  5
125C
330
790
100
AcDbEntity
  8
241
  6
HIDDEN2
100
AcDbLine
 10
76.51999696
 20
4.0000001
 30
0.0
 11
76.51999696
 21
0.0
 31
0.0
1001
GRPNAME
1000
PASTMD08
  0
LINE
  5
125D
330
790
100
AcDbEntity
  8
241
  6
HIDDEN2
100
AcDbLine
 10
76.51999696
 20
4.0000001
 30
0.0
 11
79.01999696
 21
4.0000001
 31
0.0
1001
GRPNAME
1000
PASTMD08
  0
LINE
  5
125E
330
790
100
AcDbEntity
  8
242
  6
HIDDEN2
100
AcDbLine
 10
92.51999696
 20
6.0000001
 30
0.0
 11
93.01999696
 21
5.5000001
 31
0.0
1001
GRPNAME
1000
PASTMD08
  0
LINE
  5
125F
330
790
100
AcDbEntity
  8
241
100
AcDbLine
 10
87.99999696
 20
0.0
 30
0.0
 11
87.99999696
 21
6.2500001
 31
0.0
  0
LINE
  5
1260
330
790
100
AcDbEntity
  8
241
  6
CONTINUOUS
100
AcDbLine
 10
87.31999696
 20
6.2500001
 30
0.0
 11
87.31999696
 21
0.0
 31
0.0
  0
LINE
  5
1261
330
790
100
AcDbEntity
  8
241
  6
CONTINUOUS
100
AcDbLine
 10
89.99999696
 20
7.1499999
 30
0.0
 11
89.99999696
 21
0.0
 31
0.0
1001
GRPNAME
1000
PASTMD0B
  0
LINE
  5
1262
330
790
100
AcDbEntity
  8
241
  6
CONTINUOUS
100
AcDbLine
 10
86.88698426
 20
6.90824829
 30
0.0
 11
86.88698426
 21
0.0
 31
0.0
  0
LINE
  5
1263
330
790
100
AcDbEntity
  8
241
  6
CONTINUOUS
100
AcDbLine
 10
91.19999696
 20
7.0000001
 30
0.0
 11
91.19999696
 21
0.0
 31
0.0
1001
GRPNAME
1000
PASTMD09
  0
LINE
  5
1264
330
790
100
AcDbEntity
  8
241
  6
HIDDEN2
100
AcDbLine
 10
92.4422577
 20
3.1000062
 30
0.0
 11
92.49999696
 21
3.0000001
 31
0.0
1001
GRPNAME
1000
PASTMD08
  0
LINE
  5
1265
330
790
100
AcDbEntity
  8
240
  6
CONTINUOUS
100
AcDbLine
 10
89.99999696
 20
7.1499999
 30
0.0
 11
88.30000001
 21
7.1499999
 31
0.0
1001
GRPNAME
1000
PASTMD0B
  0
LINE
  5
1266
330
790
100
AcDbEntity
  8
241
  6
HIDDEN2
100
AcDbLine
 10
92.26999696
 20
6.2500001
 30
0.0
 11
87.99999696
 21
6.2500001
 31
0.0
1001
GRPNAME
1000
PASTMD08
  0
ARC
  5
1267
330
790
100
AcDbEntity
  8
240
  6
CONTINUOUS
100
AcDbCircle
 10
86.59830912
 20
6.5
 30
0.0
 40
0.5
100
AcDbArc
 50
30.00000098
 51
90.0
  0
LINE
  5
1268
330
790
100
AcDbEntity
  8
240
  6
CONTINUOUS
100
AcDbLine
 10
87.31999691
 20
6.2500001
 30
0.0
 11
87.03132182
 21
6.75000001
 31
0.0
  0
ARC
  5
1269
330
790
100
AcDbEntity
  8
240
  6
CONTINUOUS
100
AcDbCircle
 10
88.30000001
 20
6.84999685
 30
0.0
 40
0.3000030517578125
100
AcDbArc
 50
89.99999931
 51
179.99999999
1001
GRPNAME
1000
PASTMD0B
  0
LINE
  5
126A
330
790
100
AcDbEntity
  8
240
  6
CONTINUOUS
100
AcDbLine
 10
87.31999691
 20
6.2500001
 30
0.0
 11
87.99999696
 21
6.2500001
 31
0.0
1001
GRPNAME
1000
PASTMD08
  0
LINE
  5
126B
330
790
100
AcDbEntity
  8
240
  6
CONTINUOUS
100
AcDbLine
 10
87.99999696
 20
6.2500001
 30
0.0
 11
87.99999696
 21
6.84999685
 31
0.0
1001
GRPNAME
1000
PASTMD08
  0
LINE
  5
126C
330
790
100
AcDbEntity
  8
241
  6
HIDDEN2
100
AcDbLine
 10
92.26999696
 20
6.2500001
 30
0.0
 11
92.51999696
 21
6.0000001
 31
0.0
1001
GRPNAME
1000
PASTMD08
  0
LINE
  5
126D
330
790
100
AcDbEntity
  8
240
100
AcDbLine
 10
90.25980424
 20
7.0000001
 30
0.0
 11
89.99999696
 21
7.1499999
 31
0.0
  0
LINE
  5
126E
330
790
100
AcDbEntity
  8
240
  6
CONTINUOUS
100
AcDbLine
 10
104.99999696
 20
-5.9999999
 30
0.0
 11
104.99999696
 21
0.0
 31
0.0
1001
GRPNAME
1000
PASTMD08
  0
ARC
  5
126F
330
790
100
AcDbEntity
  8
240
  6
CONTINUOUS
100
AcDbCircle
 10
103.99999696
 20
-5.9999999
 30
0.0
 40
1.0
100
AcDbArc
 50
270.0
 51
0.0
1001
GRPNAME
1000
PASTMD08
  0
LINE
  5
1270
330
790
100
AcDbEntity
  8
241
  6
HIDDEN2
100
AcDbLine
 10
102.69999391
 20
4.69999705
 30
0.0
 11
103.10000306
 21
4.69999705
 31
0.0
1001
GRPNAME
1000
PASTMD08
  0
LINE
  5
1271
330
790
100
AcDbEntity
  8
241
  6
HIDDEN2
100
AcDbLine
 10
100.51999696
 20
6.0000001
 30
0.0
 11
101.01999696
 21
5.5000001
 31
0.0
1001
GRPNAME
1000
PASTMD08
  0
LINE
  5
1272
330
790
100
AcDbEntity
  8
241
  6
HIDDEN2
100
AcDbLine
 10
101.69999391
 20
4.30000315
 30
0.0
 11
102.30000001
 21
4.30000315
 31
0.0
1001
GRPNAME
1000
PASTMD08
  0
LINE
  5
1273
330
790
100
AcDbEntity
  8
241
  6
HIDDEN2
100
AcDbLine
 10
101.55738753
 20
4.547021
 30
0.0
 11
101.69999391
 21
4.30000315
 31
0.0
1001
GRPNAME
1000
PASTMD08
  0
LINE
  5
1274
330
790
100
AcDbEntity
  8
241
  6
HIDDEN2
100
AcDbLine
 10
102.69999391
 20
4.69999705
 30
0.0
 11
102.30000001
 21
4.30000315
 31
0.0
1001
GRPNAME
1000
PASTMD08
  0
LINE
  5
1275
330
790
100
AcDbEntity
  8
241
  6
HIDDEN2
100
AcDbLine
 10
101.01999696
 20
5.5000001
 30
0.0
 11
101.01999696
 21
4.5000001
 31
0.0
1001
GRPNAME
1000
PASTMD08
  0
LINE
  5
1276
330
790
100
AcDbEntity
  8
240
  6
CONTINUOUS
100
AcDbLine
 10
104.99999696
 20
6.0000001
 30
0.0
 11
104.99999696
 21
0.0
 31
0.0
1001
GRPNAME
1000
PASTMD08
  0
LINE
  5
1277
330
790
100
AcDbEntity
  8
241
  6
HIDDEN2
100
AcDbLine
 10
103.10000306
 20
4.69999705
 30
0.0
 11
103.49999696
 21
4.30000315
 31
0.0
1001
GRPNAME
1000
PASTMD08
  0
LINE
  5
1278
330
790
100
AcDbEntity
  8
241
  6
HIDDEN2
100
AcDbLine
 10
104.49999696
 20
3.05000315
 30
0.0
 11
104.99999696
 21
3.55000315
 31
0.0
1001
GRPNAME
1000
PASTMD08
  0
LINE
  5
1279
330
790
100
AcDbEntity
  8
241
  6
HIDDEN2
100
AcDbLine
 10
104.49999696
 20
3.05000315
 30
0.0
 11
103.49999696
 21
3.05000315
 31
0.0
1001
GRPNAME
1000
PASTMD08
  0
LINE
  5
127A
330
790
100
AcDbEntity
  8
241
  6
HIDDEN2
100
AcDbLine
 10
103.49999696
 20
0.0
 30
0.0
 11
103.49999696
 21
4.30000315
 31
0.0
1001
GRPNAME
1000
PASTMD08
  0
ARC
  5
127B
330
790
100
AcDbEntity
  8
240
  6
CONTINUOUS
100
AcDbCircle
 10
103.99999696
 20
6.0000001
 30
0.0
 40
1.0
100
AcDbArc
 50
0.0
 51
90.0
1001
GRPNAME
1000
PASTMD08
  0
ENDBLK
  5
7F1
330
790
100
AcDbEntity
  8
0
100
AcDbBlockEnd
  0
BLOCK
  5
819
330
80F
100
AcDbEntity
  8
0
100
AcDbBlockBegin
  2
*D3
 70
     1
 10
0.0
 20
0.0
 30
0.0
  3
*D3
  1

  0
LINE
  5
10F4
330
80F
100
AcDbEntity
  8
250
  6
CONTINUOUS
 62
     3
100
AcDbLine
 10
0.0
 20
16.375
 30
0.0
 11
0.0
 21
36.0
 31
0.0
  0
LINE
  5
10F5
330
80F
100
AcDbEntity
  8
250
  6
CONTINUOUS
 62
     3
100
AcDbLine
 10
104.99999696
 20
6.5000001
 30
0.0
 11
104.99999696
 21
36.0
 31
0.0
  0
LINE
  5
10F6
330
80F
100
AcDbEntity
  8
250
  6
CONTINUOUS
 62
     3
100
AcDbLine
 10
2.23
 20
35.0
 30
0.0
 11
102.76999696
 21
35.0
 31
0.0
  0
INSERT
  5
10F7
330
80F
100
AcDbEntity
  8
250
  6
CONTINUOUS
 62
     3
100
AcDbBlockReference
  2
_OPEN
 10
0.0
 20
35.0
 30
0.0
 41
2.23
 42
2.23
 43
2.23
 50
180.0
  0
INSERT
  5
10F8
330
80F
100
AcDbEntity
  8
250
  6
CONTINUOUS
 62
     3
100
AcDbBlockReference
  2
_OPEN
 10
104.99999696
 20
35.0
 30
0.0
 41
2.23
 42
2.23
 43
2.23
  0
MTEXT
  5
10F9
330
80F
100
AcDbEntity
  8
250
  6
CONTINUOUS
 62
    40
100
AcDbMText
 10
52.49999848
 20
37.5
 30
0.0
 40
3.0
 41
0.0
 71
     5
 72
     1
  1
\A1;105
1001
ACAD
1000
MTEXTBEGIN
1070
    73
1070
     1
1070
    44
1040
1.0
1070
    74
1070
     0
1000
MTEXTEND
1000
MTEXTBEGIN
1070
    73
1070
     1
1070
    44
1040
1.0
1070
    74
1070
     0
1000
MTEXTEND
  0
POINT
  5
10FA
330
80F
100
AcDbEntity
  8
DEFPOINTS
  6
CONTINUOUS
 62
     0
100
AcDbPoint
 10
0.0
 20
15.875
 30
0.0
  0
POINT
  5
10FB
330
80F
100
AcDbEntity
  8
DEFPOINTS
  6
CONTINUOUS
 62
     0
100
AcDbPoint
 10
104.99999696
 20
6.0000001
 30
0.0
  0
POINT
  5
10FC
330
80F
100
AcDbEntity
  8
DEFPOINTS
  6
CONTINUOUS
 62
     0
100
AcDbPoint
 10
104.99999696
 20
35.0
 30
0.0
  0
ENDBLK
  5
81A
330
80F
100
AcDbEntity
  8
0
100
AcDbBlockEnd
  0
BLOCK
  5
825
330
81B
100
AcDbEntity
  8
0
100
AcDbBlockBegin
  2
*D4
 70
     1
 10
0.0
 20
0.0
 30
0.0
  3
*D4
  1

  0
LINE
  5
10EB
330
81B
100
AcDbEntity
  8
250
  6
CONTINUOUS
 62
     3
100
AcDbLine
 10
-24.0
 20
4.7
 30
0.0
 11
-24.0
 21
43.0
 31
0.0
  0
LINE
  5
10EC
330
81B
100
AcDbEntity
  8
250
  6
CONTINUOUS
 62
     3
100
AcDbLine
 10
104.99999696
 20
6.5000001
 30
0.0
 11
104.99999696
 21
43.0
 31
0.0
  0
LINE
  5
10ED
330
81B
100
AcDbEntity
  8
250
  6
CONTINUOUS
 62
     3
100
AcDbLine
 10
-21.77
 20
42.0
 30
0.0
 11
102.76999696
 21
42.0
 31
0.0
  0
INSERT
  5
10EE
330
81B
100
AcDbEntity
  8
250
  6
CONTINUOUS
 62
     3
100
AcDbBlockReference
  2
_OPEN
 10
-24.0
 20
42.0
 30
0.0
 41
2.23
 42
2.23
 43
2.23
 50
180.0
  0
INSERT
  5
10EF
330
81B
100
AcDbEntity
  8
250
  6
CONTINUOUS
 62
     3
100
AcDbBlockReference
  2
_OPEN
 10
104.99999696
 20
42.0
 30
0.0
 41
2.23
 42
2.23
 43
2.23
  0
MTEXT
  5
10F0
330
81B
100
AcDbEntity
  8
250
  6
CONTINUOUS
 62
    40
100
AcDbMText
 10
40.49999848
 20
44.5
 30
0.0
 40
3.0
 41
0.0
 71
     5
 72
     1
  1
\A1;（max.129）
1001
ACAD
1000
MTEXTBEGIN
1070
    73
1070
     1
1070
    44
1040
1.0
1070
    74
1070
     0
1000
MTEXTEND
1000
MTEXTBEGIN
1070
    73
1070
     1
1070
    44
1040
1.0
1070
    74
1070
     0
1000
MTEXTEND
  0
POINT
  5
10F1
330
81B
100
AcDbEntity
  8
DEFPOINTS
  6
CONTINUOUS
 62
     0
100
AcDbPoint
 10
-24.0
 20
4.2
 30
0.0
  0
POINT
  5
10F2
330
81B
100
AcDbEntity
  8
DEFPOINTS
  6
CONTINUOUS
 62
     0
100
AcDbPoint
 10
104.99999696
 20
6.0000001
 30
0.0
  0
POINT
  5
10F3
330
81B
100
AcDbEntity
  8
DEFPOINTS
  6
CONTINUOUS
 62
     0
100
AcDbPoint
 10
104.99999696
 20
42.0
 30
0.0
  0
ENDBLK
  5
826
330
81B
100
AcDbEntity
  8
0
100
AcDbBlockEnd
  0
BLOCK
  5
8C1
330
8C0
100
AcDbEntity
  8
0
100
AcDbBlockBegin
  2
_NONE
 70
     0
 10
0.0
 20
0.0
 30
0.0
  3
_NONE
  1

  0
ENDBLK
  5
8C2
330
8C0
100
AcDbEntity
  8
0
100
AcDbBlockEnd
  0
BLOCK
  5
10A6
330
109E
100
AcDbEntity
  8
0
100
AcDbBlockBegin
  2
*D6
 70
     1
 10
0.0
 20
0.0
 30
0.0
  3
*D6
  1

  0
LINE
  5
10B4
330
109E
100
AcDbEntity
  8
250
  6
CONTINUOUS
 62
     3
100
AcDbLine
 10
103.99999696
 20
3.0000001
 30
0.0
 11
113.99999696
 21
3.0000001
 31
0.0
  0
LINE
  5
10B5
330
109E
100
AcDbEntity
  8
250
  6
CONTINUOUS
 62
     3
100
AcDbLine
 10
112.99999696
 20
-3.00000314
 30
0.0
 11
112.99999696
 21
0.7700001
 31
0.0
  0
INSERT
  5
10B6
330
109E
100
AcDbEntity
  8
250
  6
CONTINUOUS
 62
     3
100
AcDbBlockReference
  2
_OPEN
 10
112.99999696
 20
3.0000001
 30
0.0
 41
2.23
 42
2.23
 43
2.23
 50
90.0
  0
MTEXT
  5
10B7
330
109E
100
AcDbEntity
  8
250
  6
CONTINUOUS
 62
    40
100
AcDbMText
 10
110.49999696
 20
-1.11500152
 30
0.0
 40
2.8
 41
0.0
 71
     5
 72
     1
  1
\A1;max.{\H3;\U+2205}6
 11
0.0
 21
1.0
 31
0.0
1001
ACAD
1000
MTEXTBEGIN
1070
    73
1070
     1
1070
    44
1040
1.0
1070
    74
1070
     0
1000
MTEXTEND
1000
MTEXTBEGIN
1070
    73
1070
     1
1070
    44
1040
1.0
1070
    74
1070
     0
1000
MTEXTEND
  0
POINT
  5
10B8
330
109E
100
AcDbEntity
  8
DEFPOINTS
  6
CONTINUOUS
 62
     0
100
AcDbPoint
 10
103.19999392
 20
-3.00000314
 30
0.0
  0
POINT
  5
10B9
330
109E
100
AcDbEntity
  8
DEFPOINTS
  6
CONTINUOUS
 62
     0
100
AcDbPoint
 10
103.49999696
 20
3.0000001
 30
0.0
  0
POINT
  5
10BA
330
109E
100
AcDbEntity
  8
DEFPOINTS
  6
CONTINUOUS
 62
     0
100
AcDbPoint
 10
112.99999696
 20
3.0000001
 30
0.0
  0
ENDBLK
  5
10A7
330
109E
100
AcDbEntity
  8
0
100
AcDbBlockEnd
  0
BLOCK
  5
10B2
330
10A8
100
AcDbEntity
  8
0
100
AcDbBlockBegin
  2
*D7
 70
     1
 10
0.0
 20
0.0
 30
0.0
  3
*D7
  1

  0
LINE
  5
10BB
330
10A8
100
AcDbEntity
  8
250
  6
CONTINUOUS
 62
     3
100
AcDbLine
 10
104.49999696
 20
-6.9999999
 30
0.0
 11
120.99999696
 21
-6.9999999
 31
0.0
  0
LINE
  5
10BC
330
10A8
100
AcDbEntity
  8
250
  6
CONTINUOUS
 62
     3
100
AcDbLine
 10
104.49999696
 20
7.0000001
 30
0.0
 11
120.99999696
 21
7.0000001
 31
0.0
  0
LINE
  5
10BD
330
10A8
100
AcDbEntity
  8
250
  6
CONTINUOUS
 62
     3
100
AcDbLine
 10
119.99999696
 20
-4.7699999
 30
0.0
 11
119.99999696
 21
4.7700001
 31
0.0
  0
INSERT
  5
10BE
330
10A8
100
AcDbEntity
  8
250
  6
CONTINUOUS
 62
     3
100
AcDbBlockReference
  2
_OPEN
 10
119.99999696
 20
-6.9999999
 30
0.0
 41
2.23
 42
2.23
 43
2.23
 50
270.0
  0
INSERT
  5
10BF
330
10A8
100
AcDbEntity
  8
250
  6
CONTINUOUS
 62
     3
100
AcDbBlockReference
  2
_OPEN
 10
119.99999696
 20
7.0000001
 30
0.0
 41
2.23
 42
2.23
 43
2.23
 50
90.0
  0
MTEXT
  5
10C0
330
10A8
100
AcDbEntity
  8
250
  6
CONTINUOUS
 62
    40
100
AcDbMText
 10
117.49999696
 20
0.0000001
 30
0.0
 40
2.8
 41
0.0
 71
     5
 72
     1
  1
\A1;{\H3;\U+2205}14
 11
0.0
 21
1.0
 31
0.0
1001
ACAD
1000
MTEXTBEGIN
1070
    73
1070
     1
1070
    44
1040
1.0
1070
    74
1070
     0
1000
MTEXTEND
1000
MTEXTBEGIN
1070
    73
1070
     1
1070
    44
1040
1.0
1070
    74
1070
     0
1000
MTEXTEND
  0
POINT
  5
10C1
330
10A8
100
AcDbEntity
  8
DEFPOINTS
  6
CONTINUOUS
 62
     0
100
AcDbPoint
 10
103.99999696
 20
-6.9999999
 30
0.0
  0
POINT
  5
10C2
330
10A8
100
AcDbEntity
  8
DEFPOINTS
  6
CONTINUOUS
 62
     0
100
AcDbPoint
 10
103.99999696
 20
7.0000001
 30
0.0
  0
POINT
  5
10C3
330
10A8
100
AcDbEntity
  8
DEFPOINTS
  6
CONTINUOUS
 62
     0
100
AcDbPoint
 10
119.99999696
 20
7.0000001
 30
0.0
  0
ENDBLK
  5
10B3
330
10A8
100
AcDbEntity
  8
0
100
AcDbBlockEnd
  0
BLOCK
  5
110A
330
1100
100
AcDbEntity
  8
0
100
AcDbBlockBegin
  2
*D8
 70
     1
 10
0.0
 20
0.0
 30
0.0
  3
*D8
  1

  0
LINE
  5
1101
330
1100
100
AcDbEntity
  8
250
  6
CONTINUOUS
 62
     3
100
AcDbLine
 10
22.0
 20
22.7
 30
0.0
 11
22.0
 21
29.0
 31
0.0
  0
LINE
  5
1102
330
1100
100
AcDbEntity
  8
250
  6
CONTINUOUS
 62
     3
100
AcDbLine
 10
104.99999696
 20
6.5000001
 30
0.0
 11
104.99999696
 21
29.0
 31
0.0
  0
LINE
  5
1103
330
1100
100
AcDbEntity
  8
250
  6
CONTINUOUS
 62
     3
100
AcDbLine
 10
24.23
 20
28.0
 30
0.0
 11
102.76999696
 21
28.0
 31
0.0
  0
INSERT
  5
1104
330
1100
100
AcDbEntity
  8
250
  6
CONTINUOUS
 62
     3
100
AcDbBlockReference
  2
_OPEN
 10
22.0
 20
28.0
 30
0.0
 41
2.23
 42
2.23
 43
2.23
 50
180.0
  0
INSERT
  5
1105
330
1100
100
AcDbEntity
  8
250
  6
CONTINUOUS
 62
     3
100
AcDbBlockReference
  2
_OPEN
 10
104.99999696
 20
28.0
 30
0.0
 41
2.23
 42
2.23
 43
2.23
  0
MTEXT
  5
1106
330
1100
100
AcDbEntity
  8
250
  6
CONTINUOUS
 62
    40
100
AcDbMText
 10
63.49999848
 20
30.5
 30
0.0
 40
3.0
 41
0.0
 71
     5
 72
     1
  1
\A1;83
1001
ACAD
1000
MTEXTBEGIN
1070
    73
1070
     1
1070
    44
1040
1.0
1070
    74
1070
     0
1000
MTEXTEND
1000
MTEXTBEGIN
1070
    73
1070
     1
1070
    44
1040
1.0
1070
    74
1070
     0
1000
MTEXTEND
  0
POINT
  5
1107
330
1100
100
AcDbEntity
  8
DEFPOINTS
  6
CONTINUOUS
 62
     0
100
AcDbPoint
 10
22.0
 20
22.2
 30
0.0
  0
POINT
  5
1108
330
1100
100
AcDbEntity
  8
DEFPOINTS
  6
CONTINUOUS
 62
     0
100
AcDbPoint
 10
104.99999696
 20
6.0000001
 30
0.0
  0
POINT
  5
1109
330
1100
100
AcDbEntity
  8
DEFPOINTS
  6
CONTINUOUS
 62
     0
100
AcDbPoint
 10
104.99999696
 20
28.0
 30
0.0
  0
ENDBLK
  5
110B
330
1100
100
AcDbEntity
  8
0
100
AcDbBlockEnd
  0
ENDSEC
  0
SECTION
  2
ENTITIES
  0
INSERT
  5
6E6
330
1A
100
AcDbEntity
  8
245
100
AcDbBlockReference
  2
矢印なし
 10
175.62382697
 20
90.55123572
 30
0.0
  0
DIMENSION
  5
804
330
1A
100
AcDbEntity
  8
250
  6
CONTINUOUS
100
AcDbDimension
  2
*D3
 10
104.99999696
 20
35.0
 30
0.0
 11
52.49999848
 21
37.5
 31
0.0
 70
    32
  3
BIGT$0
100
AcDbAlignedDimension
 13
0.0
 23
15.875
 33
0.0
 14
104.99999696
 24
6.0000001
 34
0.0
100
AcDbRotatedDimension
  0
DIMENSION
  5
805
330
1A
100
AcDbEntity
  8
250
  6
CONTINUOUS
100
AcDbDimension
  2
*D4
 10
104.99999696
 20
42.0
 30
0.0
 11
40.49999848
 21
42.0
 31
0.0
 70
   160
  1
（max.<>）
  3
BIGT$0
100
AcDbAlignedDimension
 13
-24.0
 23
4.2
 33
0.0
 14
104.99999696
 24
6.0000001
 34
0.0
100
AcDbRotatedDimension
  0
TEXT
  5
809
330
1A
100
AcDbEntity
  8
241
100
AcDbText
 10
-48.4
 20
56.0
 30
0.0
 40
5.0
  1
BBT30-MEGA6S-105
  7
YOKO
 11
-48.4
 21
56.0
 31
0.0
100
AcDbText
 73
     1
  0
MTEXT
  5
FE3
330
1A
100
AcDbEntity
  8
251
  6
CONTINUOUS
100
AcDbMText
 10
-42.44207074
 20
-20.23884234
 30
0.0
 40
2.8
 41
0.0
 71
     7
 72
     1
  1
BBT30
  7
YOKO
1001
ITEMNAME
1000
LNSP3
1001
ACAD
1000
MTEXTBEGIN
1070
    73
1070
     1
1070
    44
1040
1.0
1070
    74
1070
     0
1000
MTEXTEND
1000
MTEXTBEGIN
1070
    73
1070
     1
1070
    44
1040
1.0
1070
    74
1070
     0
1000
MTEXTEND
1000
MTEXTBEGIN
1070
    73
1070
     1
1070
    44
1040
1.0
1070
    74
1070
     0
1000
MTEXTEND
1000
MTEXTBEGIN
1070
    73
1070
     1
1070
    44
1040
1.0
1070
    74
1070
     0
1000
MTEXTEND
  0
LEADER
  5
FE4
330
1A
100
AcDbEntity
  8
250
  6
CONTINUOUS
100
AcDbLeader
  3
BIGT
 76
     2
 10
-22.51609141
 20
-12.5913258
 30
0.0
 10
-27.50873741
 20
-21.23884234
 30
0.0
1001
ACAD
1000
DSTYLE
1002
{
1070
     6
1000
OPEN
1070
   343
1005
594
1002
}
  0
LINE
  5
FE5
330
1A
100
AcDbEntity
  8
250
  6
CONTINUOUS
100
AcDbLine
 10
-27.50873741
 20
-21.23884234
 30
0.0
 11
-45.24207074
 21
-21.23884234
 31
0.0
1001
ITEMNAME
1000
LNSP2
  0
DIMENSION
  5
1094
330
1A
100
AcDbEntity
  8
250
  6
CONTINUOUS
100
AcDbDimension
  2
*D6
 10
112.99999696
 20
3.0000001
 30
0.0
 11
112.99999696
 21
-1.11500152
 31
0.0
 70
   160
  1
max.{\H3;\U+2205}<>
  3
BIGT$0
100
AcDbAlignedDimension
 13
103.19999392
 23
-3.00000314
 33
0.0
 14
103.49999696
 24
3.0000001
 34
0.0
 50
90.0
100
AcDbRotatedDimension
1001
ACAD
1000
DSTYLE
1002
{
1070
   140
1040
2.8
1070
    75
1070
     1
1070
   173
1070
     1
1070
     5
1000

1070
     6
1000
NONE
1070
     7
1000
OPEN
1002
}
  0
DIMENSION
  5
1095
330
1A
100
AcDbEntity
  8
250
  6
CONTINUOUS
100
AcDbDimension
  2
*D7
 10
119.99999696
 20
7.0000001
 30
0.0
 11
117.49999696
 21
0.0000001
 31
0.0
 70
    32
  1
{\H3;\U+2205}<>
  3
BIGT$0
100
AcDbAlignedDimension
 13
103.99999696
 23
-6.9999999
 33
0.0
 14
103.99999696
 24
7.0000001
 34
0.0
 50
90.0
100
AcDbRotatedDimension
1001
ACAD
1000
DSTYLE
1002
{
1070
   140
1040
2.8
1002
}
  0
DIMENSION
  5
10FF
330
1A
100
AcDbEntity
  8
250
  6
CONTINUOUS
100
AcDbDimension
  2
*D8
 10
104.99999696
 20
28.0
 30
0.0
 11
63.49999848
 21
30.5
 31
0.0
 70
    32
  3
BIGT$0
100
AcDbAlignedDimension
 13
22.0
 23
22.2
 33
0.0
 14
104.99999696
 24
6.0000001
 34
0.0
100
AcDbRotatedDimension
  0
LINE
  5
11AC
330
1A
100
AcDbEntity
  8
245
  6
CENTER2
100
AcDbLine
 10
-49.4
 20
0.0
 30
0.0
 11
106.0
 21
0.0
 31
0.0
  0
INSERT
  5
127C
330
1A
100
AcDbEntity
  8
245
100
AcDbBlockReference
  2
1
 10
0.0
 20
0.0
 30
0.0
  0
VIEWPORT
  5
22
330
17
100
AcDbEntity
 67
     1
  8
0
100
AcDbViewport
 10
261.51769912
 20
148.5
 30
0.0
 40
523.03539823
 41
297.0
 68
     1
 69
     1
1001
ACAD
1000
MVIEW
1002
{
1070
    16
1010
0.0
1020
0.0
1030
0.0
1010
0.0
1020
0.0
1030
1.0
1040
0.0
1040
297.0
1040
261.51769912
1040
148.5
1040
50.0
1040
0.0
1040
0.0
1070
     0
1070
   100
1070
     1
1070
     1
1070
     0
1070
     0
1070
     0
1070
     0
1040
0.0
1040
0.0
1040
0.0
1040
1.0
1040
1.0
1040
10.0
1040
10.0
1070
     0
1002
{
1002
}
1002
}
  0
ENDSEC
  0
SECTION
  2
OBJECTS
  0
DICTIONARY
  5
C
330
0
100
AcDbDictionary
  3
ACAD_GROUP
350
D
  3
ACAD_LAYOUT
350
565
  3
ACAD_MLINESTYLE
350
E
  3
ACAD_PLOTSETTINGS
350
566
  3
ACAD_PLOTSTYLENAME
350
563
  3
ACDBHEADERROUNDTRIPXREC
350
12A3
  3
GRADE_DWG
350
540
  0
DICTIONARY
  5
AAC
330
1A
100
AcDbDictionary
280
     1
  3
ACAD_LAYOUTSELFREF
360
12C5
  0
DICTIONARY
  5
AAA
330
17
100
AcDbDictionary
280
     1
  3
ACAD_LAYOUTSELFREF
360
12C4
  0
DICTIONARY
  5
D
102
{ACAD_REACTORS
330
C
102
}
330
C
100
AcDbDictionary
  3
*A1
350
6C7
  3
*A2
350
6C8
  3
*A3
350
6D4
  3
*A4
350
6D5
  3
DREC-1
350
5FC
  3
DREC-2
350
654
  3
DREC-3
350
673
  0
DICTIONARY
  5
565
102
{ACAD_REACTORS
330
C
102
}
330
C
100
AcDbDictionary
  0
DICTIONARY
  5
E
102
{ACAD_REACTORS
330
C
102
}
330
C
100
AcDbDictionary
  3
STANDARD
350
13
  0
DICTIONARY
  5
566
102
{ACAD_REACTORS
330
C
102
}
330
C
100
AcDbDictionary
  3
A3_0_5倍_
350
758
  3
A3_1倍_
350
757
  3
A3_1倍__2000_
350
707
  3
A3_2倍_
350
759
  3
A4_0_5倍_
350
755
  3
A4_1倍_
350
754
  3
A4_1倍__2000_
350
708
  3
A4_2倍_
350
756
  0
ACDBDICTIONARYWDFLT
  5
563
102
{ACAD_REACTORS
330
C
102
}
330
C
100
AcDbDictionary
281
     1
  3
Normal
350
564
100
AcDbDictionaryWithDefault
340
564
  0
DICTIONARY
  5
12A3
102
{ACAD_REACTORS
330
C
102
}
330
C
100
AcDbDictionary
  3
CEPSNTYPE
350
12AD
  3
DIMSTYLEDATA
350
12B1
  3
FINGERPRINTGUID
350
12AE
  3
HYPERLINKBASE
350
12A6
  3
INSUNITS
350
12AC
  3
LAYOUTDICT
350
12A8
  3
LWETCUNION
350
12AB
  3
PLOTSETDICT
350
12A9
  3
PLOTSTYLNAMDICT
350
12AA
  3
PSVPSCALE
350
12B0
  3
PUCSBASE
350
12B4
  3
PUCSORGBACK
350
12BA
  3
PUCSORGBOTTOM
350
12B6
  3
PUCSORGFRONT
350
12B9
  3
PUCSORGLEFT
350
12B7
  3
PUCSORGRIGHT
350
12B8
  3
PUCSORGTOP
350
12B5
  3
PUCSORTHOREF
350
12B2
  3
PUCSORTHOVIEW
350
12B3
  3
STYLESHEET
350
12A7
  3
TSTACKALIGN
350
12A4
  3
TSTACKSIZE
350
12A5
  3
UCSBASE
350
12BD
  3
UCSORGBACK
350
12C3
  3
UCSORGBOTTOM
350
12BF
  3
UCSORGFRONT
350
12C2
  3
UCSORGLEFT
350
12C0
  3
UCSORGRIGHT
350
12C1
  3
UCSORGTOP
350
12BE
  3
UCSORTHOREF
350
12BB
  3
UCSORTHOVIEW
350
12BC
  3
VERSIONGUID
350
12AF
  0
DICTIONARY
  5
540
102
{ACAD_REACTORS
330
C
102
}
330
C
100
AcDbDictionary
  3
VERSION
350
560
  0
XRECORD
  5
12C5
102
{ACAD_REACTORS
330
AAC
102
}
330
AAC
100
AcDbXrecord
340
1A
  0
XRECORD
  5
12C4
102
{ACAD_REACTORS
330
AAA
102
}
330
AAA
100
AcDbXrecord
340
17
  0
GROUP
  5
6C7
102
{ACAD_REACTORS
330
D
102
}
330
D
100
AcDbGroup
300

 70
     0
 71
     1
1001
GRPNAME
1000
DMA00
  0
GROUP
  5
6C8
102
{ACAD_REACTORS
330
D
102
}
330
D
100
AcDbGroup
300

 70
     0
 71
     1
1001
GRPNAME
1000
DMA00
  0
GROUP
  5
6D4
102
{ACAD_REACTORS
330
D
102
}
330
D
100
AcDbGroup
300

 70
     0
 71
     1
1001
GRPNAME
1000
DMA00
  0
GROUP
  5
6D5
102
{ACAD_REACTORS
330
D
102
}
330
D
100
AcDbGroup
300

 70
     0
 71
     1
1001
GRPNAME
1000
DMA00
  0
GROUP
  5
5FC
102
{ACAD_REACTORS
330
D
102
}
330
D
100
AcDbGroup
300

 70
     0
 71
     1
1001
GRPNAME
1000
DREC-
1001
GPARA
1000
xsiz
1000
44.182
1000
ysiz
1000
40.677
1000
angl
1000
0
1000
ctyp
1000
0
1000
csiz
1000
5
1000
lfnt
1000
cont
1000
hcnt
1000
hoff
1000
vcnt
1000
voff
1000
opnt
1000
4
1000
dxpt
1000
0
1000
dypt
1000
0
  0
GROUP
  5
654
102
{ACAD_REACTORS
330
D
102
}
330
D
100
AcDbGroup
300

 70
     0
 71
     1
1001
GRPNAME
1000
DREC-
1001
GPARA
1000
xsiz
1000
54.592
1000
ysiz
1000
53.036
1000
angl
1000
0
1000
ctyp
1000
0
1000
csiz
1000
5
1000
lfnt
1000
cont
1000
hcnt
1000
hoff
1000
vcnt
1000
voff
1000
opnt
1000
4
1000
dxpt
1000
0
1000
dypt
1000
0
  0
GROUP
  5
673
102
{ACAD_REACTORS
330
D
102
}
330
D
100
AcDbGroup
300

 70
     0
 71
     1
1001
GRPNAME
1000
DREC-
1001
GPARA
1000
xsiz
1000
30.363
1000
ysiz
1000
36.175
1000
angl
1000
0
1000
ctyp
1000
0
1000
csiz
1000
5
1000
lfnt
1000
cont
1000
hcnt
1000
hoff
1000
vcnt
1000
voff
1000
opnt
1000
4
1000
dxpt
1000
0
1000
dypt
1000
0
  0
MLINESTYLE
  5
13
102
{ACAD_REACTORS
330
E
102
}
330
E
100
AcDbMlineStyle
  2
STANDARD
 70
     0
  3

 62
     0
 51
90.0
 52
90.0
 71
     2
 49
0.5
 62
   256
  6
BYLAYER
 49
-0.5
 62
   256
  6
BYLAYER
  0
PLOTSETTINGS
  5
758
102
{ACAD_REACTORS
330
566
102
}
330
566
100
AcDbPlotSettings
  1
A3(0.5倍)
  2
\\AWTECPC05\HP DeskJet 1120C
  4
A3
  6

 40
5.95841646
 41
13.49375153
 42
6.04309082
 43
3.67242432
 44
296.92599487
 45
419.94665527
 46
89.96
 47
127.14
 48
0.0
 49
0.0
140
0.0
141
0.0
142
1.0
143
2.0
 70
  1716
 72
     1
 73
     1
 74
     2
  7
big.ctb
 75
    17
147
0.5
148
0.0
149
0.0
  0
PLOTSETTINGS
  5
757
102
{ACAD_REACTORS
330
566
102
}
330
566
100
AcDbPlotSettings
  1
A3(1倍)
  2
\\AWTECPC05\HP DeskJet 1120C
  4
A3
  6

 40
5.95841646
 41
13.49375153
 42
6.04309082
 43
3.67242432
 44
296.92599487
 45
419.94665527
 46
37.46
 47
52.89
 48
0.0
 49
0.0
140
0.0
141
0.0
142
1.0
143
1.0
 70
  1716
 72
     1
 73
     1
 74
     2
  7
big.ctb
 75
    16
147
1.0
148
0.0
149
0.0
  0
PLOTSETTINGS
  5
707
102
{ACAD_REACTORS
330
566
102
}
330
566
100
AcDbPlotSettings
  1
A3(1倍)(2000)
  2
SII LS-1300 (D-SCAN)
  4
User258
  6

 40
3.17499995
 41
3.17499995
 42
3.17498779
 43
3.17498779
 44
419.98898315
 45
296.98950195
 46
58.32
 47
40.32
 48
0.0
 49
0.0
140
0.0
141
0.0
142
1.0
143
1.0
 70
  1716
 72
     1
 73
     0
 74
     2
  7
big.ctb
 75
    16
147
1.0
148
0.0
149
0.0
  0
PLOTSETTINGS
  5
759
102
{ACAD_REACTORS
330
566
102
}
330
566
100
AcDbPlotSettings
  1
A3(2倍)
  2
\\AWTECPC05\HP DeskJet 1120C
  4
A3
  6

 40
5.95841646
 41
13.49375153
 42
6.04309082
 43
3.67242432
 44
296.92599487
 45
419.94665527
 46
-67.54
 47
-95.61
 48
0.0
 49
0.0
140
0.0
141
0.0
142
1.0
143
0.5
 70
  1716
 72
     1
 73
     1
 74
     2
  7
big.ctb
 75
    27
147
2.0
148
0.0
149
0.0
  0
PLOTSETTINGS
  5
755
102
{ACAD_REACTORS
330
566
102
}
330
566
100
AcDbPlotSettings
  1
A4(0.5倍)
  2
\\AWTECPC05\HP DeskJet 1120C
  4
A4
  6

 40
4.18041658
 41
13.49374962
 42
4.18040466
 43
3.92642212
 44
209.97332764
 45
296.92599487
 46
48.31
 47
65.5
 48
0.0
 49
0.0
140
0.0
141
0.0
142
1.0
143
2.0
 70
  1716
 72
     1
 73
     1
 74
     2
  7
big.ctb
 75
    17
147
0.5
148
0.0
149
0.0
  0
PLOTSETTINGS
  5
754
102
{ACAD_REACTORS
330
566
102
}
330
566
100
AcDbPlotSettings
  1
A4(1倍)
  2
\\AWTECPC05\HP DeskJet 1120C
  4
A4
  6

 40
4.18041658
 41
13.49374962
 42
4.18040466
 43
3.92642212
 44
209.97332764
 45
296.92599487
 46
-4.19
 47
-8.75
 48
0.0
 49
0.0
140
0.0
141
0.0
142
1.0
143
1.0
 70
  1716
 72
     1
 73
     1
 74
     2
  7
big.ctb
 75
    16
147
1.0
148
0.0
149
0.0
  0
PLOTSETTINGS
  5
708
102
{ACAD_REACTORS
330
566
102
}
330
566
100
AcDbPlotSettings
  1
A4(1倍)(2000)
  2
SII LS-1300 (D-SCAN)
  4
User259
  6

 40
3.17499995
 41
3.17499995
 42
3.17498779
 43
3.17500305
 44
296.98950195
 45
209.99449158
 46
-3.18
 47
-3.18
 48
0.0
 49
0.0
140
0.0
141
0.0
142
1.0
143
1.0
 70
  1716
 72
     1
 73
     0
 74
     2
  7
big.ctb
 75
    16
147
1.0
148
0.0
149
0.0
  0
PLOTSETTINGS
  5
756
102
{ACAD_REACTORS
330
566
102
}
330
566
100
AcDbPlotSettings
  1
A4(2倍)
  2
\\AWTECPC05\HP DeskJet 1120C
  4
A4
  6

 40
4.18041658
 41
13.49374962
 42
4.18040466
 43
3.92642212
 44
209.97332764
 45
296.92599487
 46
-109.19
 47
-157.25
 48
0.0
 49
0.0
140
0.0
141
0.0
142
1.0
143
0.5
 70
  1716
 72
     1
 73
     1
 74
     2
  7
big.ctb
 75
    27
147
2.0
148
0.0
149
0.0
  0
ACDBPLACEHOLDER
  5
564
102
{ACAD_REACTORS
330
563
102
}
330
563
100
AcDbPlaceHolder
280
     0
  0
XRECORD
  5
12AD
102
{ACAD_REACTORS
330
12A3
102
}
330
12A3
100
AcDbXrecord
 90
        0
  0
XRECORD
  5
12B1
102
{ACAD_REACTORS
330
12A3
102
}
330
12A3
100
AcDbXrecord
1000
DSTYLE
1002
{
1070
   341
340
594
1070
   343
340
594
1070
   344
340
594
1002
}
  0
XRECORD
  5
12AE
102
{ACAD_REACTORS
330
12A3
102
}
330
12A3
100
AcDbXrecord
  1
{51294030-9CB4-11D3-8E18-00A0C925D94D}
  0
XRECORD
  5
12A6
102
{ACAD_REACTORS
330
12A3
102
}
330
12A3
100
AcDbXrecord
  1

  0
XRECORD
  5
12AC
102
{ACAD_REACTORS
330
12A3
102
}
330
12A3
100
AcDbXrecord
 90
        0
  0
XRECORD
  5
12A8
102
{ACAD_REACTORS
330
12A3
102
}
330
12A3
100
AcDbXrecord
340
565
  0
XRECORD
  5
12AB
102
{ACAD_REACTORS
330
12A3
102
}
330
12A3
100
AcDbXrecord
 90
    10781
  0
XRECORD
  5
12A9
102
{ACAD_REACTORS
330
12A3
102
}
330
12A3
100
AcDbXrecord
340
566
  0
XRECORD
  5
12AA
102
{ACAD_REACTORS
330
12A3
102
}
330
12A3
100
AcDbXrecord
340
563
  0
XRECORD
  5
12B0
102
{ACAD_REACTORS
330
12A3
102
}
330
12A3
100
AcDbXrecord
 40
0.0
  0
XRECORD
  5
12B4
102
{ACAD_REACTORS
330
12A3
102
}
330
12A3
100
AcDbXrecord
340
0
  0
XRECORD
  5
12BA
102
{ACAD_REACTORS
330
12A3
102
}
330
12A3
100
AcDbXrecord
 10
0.0
 20
0.0
 30
0.0
  0
XRECORD
  5
12B6
102
{ACAD_REACTORS
330
12A3
102
}
330
12A3
100
AcDbXrecord
 10
0.0
 20
0.0
 30
0.0
  0
XRECORD
  5
12B9
102
{ACAD_REACTORS
330
12A3
102
}
330
12A3
100
AcDbXrecord
 10
0.0
 20
0.0
 30
0.0
  0
XRECORD
  5
12B7
102
{ACAD_REACTORS
330
12A3
102
}
330
12A3
100
AcDbXrecord
 10
0.0
 20
0.0
 30
0.0
  0
XRECORD
  5
12B8
102
{ACAD_REACTORS
330
12A3
102
}
330
12A3
100
AcDbXrecord
 10
0.0
 20
0.0
 30
0.0
  0
XRECORD
  5
12B5
102
{ACAD_REACTORS
330
12A3
102
}
330
12A3
100
AcDbXrecord
 10
0.0
 20
0.0
 30
0.0
  0
XRECORD
  5
12B2
102
{ACAD_REACTORS
330
12A3
102
}
330
12A3
100
AcDbXrecord
340
0
  0
XRECORD
  5
12B3
102
{ACAD_REACTORS
330
12A3
102
}
330
12A3
100
AcDbXrecord
 70
     0
  0
XRECORD
  5
12A7
102
{ACAD_REACTORS
330
12A3
102
}
330
12A3
100
AcDbXrecord
  1
big.ctb
  0
XRECORD
  5
12A4
102
{ACAD_REACTORS
330
12A3
102
}
330
12A3
100
AcDbXrecord
 90
        1
  0
XRECORD
  5
12A5
102
{ACAD_REACTORS
330
12A3
102
}
330
12A3
100
AcDbXrecord
 90
       70
  0
XRECORD
  5
12BD
102
{ACAD_REACTORS
330
12A3
102
}
330
12A3
100
AcDbXrecord
340
0
  0
XRECORD
  5
12C3
102
{ACAD_REACTORS
330
12A3
102
}
330
12A3
100
AcDbXrecord
 10
0.0
 20
0.0
 30
0.0
  0
XRECORD
  5
12BF
102
{ACAD_REACTORS
330
12A3
102
}
330
12A3
100
AcDbXrecord
 10
0.0
 20
0.0
 30
0.0
  0
XRECORD
  5
12C2
102
{ACAD_REACTORS
330
12A3
102
}
330
12A3
100
AcDbXrecord
 10
0.0
 20
0.0
 30
0.0
  0
XRECORD
  5
12C0
102
{ACAD_REACTORS
330
12A3
102
}
330
12A3
100
AcDbXrecord
 10
0.0
 20
0.0
 30
0.0
  0
XRECORD
  5
12C1
102
{ACAD_REACTORS
330
12A3
102
}
330
12A3
100
AcDbXrecord
 10
0.0
 20
0.0
 30
0.0
  0
XRECORD
  5
12BE
102
{ACAD_REACTORS
330
12A3
102
}
330
12A3
100
AcDbXrecord
 10
0.0
 20
0.0
 30
0.0
  0
XRECORD
  5
12BB
102
{ACAD_REACTORS
330
12A3
102
}
330
12A3
100
AcDbXrecord
340
0
  0
XRECORD
  5
12BC
102
{ACAD_REACTORS
330
12A3
102
}
330
12A3
100
AcDbXrecord
 70
     0
  0
XRECORD
  5
12AF
102
{ACAD_REACTORS
330
12A3
102
}
330
12A3
100
AcDbXrecord
  1
{AAAA02A7-5D9C-4321-9F03-4BA35215528C}
  0
XRECORD
  5
560
102
{ACAD_REACTORS
330
540
102
}
330
540
100
AcDbXrecord
  1
2.0.0
  0
ENDSEC
  0
EOF
