  0
SECTION
  2
HEADER
  9
$ACADVER
  1
AC1014
  9
$ACADMAINTVER
 70
     9
  9
$DWGCODEPAGE
  3
ANSI_932
  9
$INSBASE
 10
0.0
 20
0.0
 30
0.0
  9
$EXTMIN
 10
-49.41432386
 20
-23.00976488
 30
-0.00152582
  9
$EXTMAX
 10
99.02798229
 20
61.02343797
 30
0.00000003
  9
$LIMMIN
 10
0.0
 20
0.0
  9
$LIMMAX
 10
420.0
 20
297.0
  9
$ORTHOMODE
 70
     0
  9
$REGENMODE
 70
     1
  9
$FILLMODE
 70
     1
  9
$QTEXTMODE
 70
     0
  9
$MIRRTEXT
 70
     1
  9
$DRAGMODE
 70
     2
  9
$LTSCALE
 40
10.0
  9
$OSMODE
 70
   549
  9
$ATTMODE
 70
     1
  9
$TEXTSIZE
 40
3.0
  9
$TRACEWID
 40
1.0
  9
$TEXTSTYLE
  7
YOKO
  9
$CLAYER
  8
245
  9
$CELTYPE
  6
BYLAYER
  9
$CECOLOR
 62
   256
  9
$CELTSCALE
 40
1.0
  9
$DELOBJ
 70
     1
  9
$DISPSILH
 70
     0
  9
$DIMSCALE
 40
1.0
  9
$DIMASZ
 40
2.23
  9
$DIMEXO
 40
0.5
  9
$DIMDLI
 40
2.5
  9
$DIMRND
 40
0.0
  9
$DIMDLE
 40
0.0
  9
$DIMEXE
 40
1.0
  9
$DIMTP
 40
0.0
  9
$DIMTM
 40
0.0
  9
$DIMTXT
 40
2.8
  9
$DIMCEN
 40
0.0
  9
$DIMTSZ
 40
0.0
  9
$DIMTOL
 70
     0
  9
$DIMLIM
 70
     0
  9
$DIMTIH
 70
     0
  9
$DIMTOH
 70
     0
  9
$DIMSE1
 70
     0
  9
$DIMSE2
 70
     0
  9
$DIMTAD
 70
     3
  9
$DIMZIN
 70
     8
  9
$DIMBLK
  1

  9
$DIMASO
 70
     1
  9
$DIMSHO
 70
     1
  9
$DIMPOST
  1

  9
$DIMAPOST
  1

  9
$DIMALT
 70
     0
  9
$DIMALTD
 70
     2
  9
$DIMALTF
 40
25.4
  9
$DIMLFAC
 40
1.0
  9
$DIMTOFL
 70
     1
  9
$DIMTVP
 40
0.0
  9
$DIMTIX
 70
     1
  9
$DIMSOXD
 70
     0
  9
$DIMSAH
 70
     1
  9
$DIMBLK1
  1
OPEN
  9
$DIMBLK2
  1
OPEN
  9
$DIMSTYLE
  2
BIGT
  9
$DIMCLRD
 70
   256
  9
$DIMCLRE
 70
   256
  9
$DIMCLRT
 70
    40
  9
$DIMTFAC
 40
1.0
  9
$DIMGAP
 40
1.0
  9
$DIMJUST
 70
     0
  9
$DIMSD1
 70
     0
  9
$DIMSD2
 70
     0
  9
$DIMTOLJ
 70
     1
  9
$DIMTZIN
 70
     8
  9
$DIMALTZ
 70
     0
  9
$DIMALTTZ
 70
     0
  9
$DIMFIT
 70
     3
  9
$DIMUPT
 70
     0
  9
$DIMUNIT
 70
     2
  9
$DIMDEC
 70
     3
  9
$DIMTDEC
 70
     3
  9
$DIMALTU
 70
     2
  9
$DIMALTTD
 70
     2
  9
$DIMTXSTY
  7
STANDARD
  9
$DIMAUNIT
 70
     0
  9
$LUNITS
 70
     2
  9
$LUPREC
 70
     3
  9
$SKETCHINC
 40
1.0
  9
$FILLETRAD
 40
1.0
  9
$AUNITS
 70
     0
  9
$AUPREC
 70
     3
  9
$MENU
  1
.
  9
$ELEVATION
 40
0.0
  9
$PELEVATION
 40
0.0
  9
$THICKNESS
 40
0.0
  9
$LIMCHECK
 70
     0
  9
$BLIPMODE
 70
     0
  9
$CHAMFERA
 40
10.0
  9
$CHAMFERB
 40
10.0
  9
$CHAMFERC
 40
0.0
  9
$CHAMFERD
 40
0.0
  9
$SKPOLY
 70
     0
  9
$TDCREATE
 40
2455141.405242141
  9
$TDUPDATE
 40
2455380.709490914
  9
$TDINDWG
 40
0.0340995718
  9
$TDUSRTIMER
 40
0.0340995718
  9
$USRTIMER
 70
     1
  9
$ANGBASE
 50
0.0
  9
$ANGDIR
 70
     0
  9
$PDMODE
 70
     1
  9
$PDSIZE
 40
-5.0
  9
$PLINEWID
 40
0.0
  9
$COORDS
 70
     0
  9
$SPLFRAME
 70
     0
  9
$SPLINETYPE
 70
     6
  9
$SPLINESEGS
 70
     8
  9
$ATTDIA
 70
     0
  9
$ATTREQ
 70
     1
  9
$HANDLING
 70
-16383
  9
$HANDSEED
  5
15EE
  9
$SURFTAB1
 70
     6
  9
$SURFTAB2
 70
     6
  9
$SURFTYPE
 70
     6
  9
$SURFU
 70
     6
  9
$SURFV
 70
     6
  9
$UCSNAME
  2

  9
$UCSORG
 10
0.0
 20
0.0
 30
0.0
  9
$UCSXDIR
 10
1.0
 20
0.0
 30
0.0
  9
$UCSYDIR
 10
0.0
 20
1.0
 30
0.0
  9
$PUCSNAME
  2

  9
$PUCSORG
 10
0.0
 20
0.0
 30
0.0
  9
$PUCSXDIR
 10
1.0
 20
0.0
 30
0.0
  9
$PUCSYDIR
 10
0.0
 20
1.0
 30
0.0
  9
$USERI1
 70
     1
  9
$USERI2
 70
     0
  9
$USERI3
 70
     0
  9
$USERI4
 70
     0
  9
$USERI5
 70
     0
  9
$USERR1
 40
0.0
  9
$USERR2
 40
0.0
  9
$USERR3
 40
0.0
  9
$USERR4
 40
0.0
  9
$USERR5
 40
0.0
  9
$WORLDVIEW
 70
     1
  9
$SHADEDGE
 70
     3
  9
$SHADEDIF
 70
    70
  9
$TILEMODE
 70
     1
  9
$MAXACTVP
 70
    16
  9
$PINSBASE
 10
0.0
 20
0.0
 30
0.0
  9
$PLIMCHECK
 70
     0
  9
$PEXTMIN
 10
1.00000000E+20
 20
1.00000000E+20
 30
1.00000000E+20
  9
$PEXTMAX
 10
-1.00000000E+20
 20
-1.00000000E+20
 30
-1.00000000E+20
  9
$PLIMMIN
 10
0.0
 20
0.0
  9
$PLIMMAX
 10
420.0
 20
297.0
  9
$UNITMODE
 70
     0
  9
$VISRETAIN
 70
     0
  9
$PLINEGEN
 70
     0
  9
$PSLTSCALE
 70
     1
  9
$TREEDEPTH
 70
  3020
  9
$PICKSTYLE
 70
     0
  9
$CMLSTYLE
  2
STANDARD
  9
$CMLJUST
 70
     0
  9
$CMLSCALE
 40
1.0
  9
$PROXYGRAPHICS
 70
     1
  9
$MEASUREMENT
 70
     1
  0
ENDSEC
  0
SECTION
  2
CLASSES
  0
CLASS
  1
XRECORD
  2
AcDbXrecord
  3
AutoCAD 2000
 90
        0
280
     0
281
     0
  0
CLASS
  1
ACDBDICTIONARYWDFLT
  2
AcDbDictionaryWithDefault
  3
AutoCAD 2000
 90
        0
280
     0
281
     0
  0
CLASS
  1
ACDBPLACEHOLDER
  2
AcDbPlaceHolder
  3
AutoCAD 2000
 90
        0
280
     0
281
     0
  0
CLASS
  1
LAYOUT
  2
AcDbLayout
  3
AutoCAD 2000
 90
        0
280
     0
281
     0
  0
CLASS
  1
PLOTSETTINGS
  2
AcDbPlotSettings
  3
AutoCAD 2000
 90
        0
280
     0
281
     0
  0
CLASS
  1
LONG_TRANSACTION
  2
AcDbLongTransaction
  3
AutoCAD 2000
 90
        0
280
     0
281
     0
  0
CLASS
  1
LWPOLYLINE
  2
AcDbPolyline
  3
AutoCAD 2000
 90
        0
280
     0
281
     1
  0
CLASS
  1
HATCH
  2
AcDbHatch
  3
AutoCAD 2000
 90
        0
280
     0
281
     1
  0
CLASS
  1
XRECORD
  2
AcDbXrecord
  3
AutoCAD 2000
 90
        0
280
     0
281
     0
  0
CLASS
  1
LONG_TRANSACTION
  2
AcDbLongTransaction
  3
AutoCAD 2000
 90
        0
280
     0
281
     0
  0
CLASS
  1
LWPOLYLINE
  2
AcDbPolyline
  3
AutoCAD 2000
 90
        0
280
     0
281
     1
  0
CLASS
  1
HATCH
  2
AcDbHatch
  3
AutoCAD 2000
 90
        0
280
     0
281
     1
  0
CLASS
  1
XRECORD
  2
AcDbXrecord
  3
AutoCAD 2000
 90
        0
280
     0
281
     0
  0
CLASS
  1
LONG_TRANSACTION
  2
AcDbLongTransaction
  3
AutoCAD 2000
 90
        0
280
     0
281
     0
  0
CLASS
  1
LWPOLYLINE
  2
AcDbPolyline
  3
AutoCAD 2000
 90
        0
280
     0
281
     1
  0
CLASS
  1
HATCH
  2
AcDbHatch
  3
AutoCAD 2000
 90
        0
280
     0
281
     1
  0
CLASS
  1
XRECORD
  2
AcDbXrecord
  3
AutoCAD 2000
 90
        0
280
     0
281
     0
  0
ENDSEC
  0
SECTION
  2
TABLES
  0
TABLE
  2
VPORT
  5
8
330
0
100
AcDbSymbolTable
 70
     4
  0
VPORT
  5
15C9
330
8
100
AcDbSymbolTableRecord
100
AcDbViewportTableRecord
  2
*ACTIVE
 70
     0
 10
0.0
 20
0.0
 11
1.0
 21
1.0
 12
24.80682921
 22
19.00683655
 13
0.0
 23
0.0
 14
7.0
 24
7.0
 15
7.0
 25
7.0
 16
0.0
 26
0.0
 36
1.0
 17
0.0
 27
0.0
 37
0.0
 40
102.49857579
 41
1.45595855
 42
50.0
 43
0.0
 44
0.0
 50
0.0
 51
0.0
 71
     0
 72
  2000
 73
     1
 74
     0
 75
     0
 76
     0
 77
     0
 78
     0
  0
ENDTAB
  0
TABLE
  2
LTYPE
  5
5
330
0
100
AcDbSymbolTable
 70
     4
  0
LTYPE
  5
14
330
5
100
AcDbSymbolTableRecord
100
AcDbLinetypeTableRecord
  2
BYBLOCK
 70
     0
  3

 72
    65
 73
     0
 40
0.0
  0
LTYPE
  5
15
330
5
100
AcDbSymbolTableRecord
100
AcDbLinetypeTableRecord
  2
BYLAYER
 70
     0
  3

 72
    65
 73
     0
 40
0.0
  0
LTYPE
  5
16
330
5
100
AcDbSymbolTableRecord
100
AcDbLinetypeTableRecord
  2
CONTINUOUS
 70
     0
  3
Solid line
 72
    65
 73
     0
 40
0.0
  0
LTYPE
  5
258
330
5
100
AcDbSymbolTableRecord
100
AcDbLinetypeTableRecord
  2
CENTER2
 70
     0
  3
___ _ ___ _ ___ _ ___ _ ___ _ ___ _ ___ _ ___ _
 72
    65
 73
     4
 40
1.125
 49
0.75
 74
     0
 49
-0.125
 74
     0
 49
0.125
 74
     0
 49
-0.125
 74
     0
  0
LTYPE
  5
25C
330
5
100
AcDbSymbolTableRecord
100
AcDbLinetypeTableRecord
  2
HIDDEN2
 70
     0
  3
_ _ _ _ _ _ _ _ _ _ _ _ _ _ _ _ _ _ _ _ _ _ _ _
 72
    65
 73
     2
 40
0.1875
 49
0.125
 74
     0
 49
-0.0625
 74
     0
  0
LTYPE
  5
25D
330
5
100
AcDbSymbolTableRecord
100
AcDbLinetypeTableRecord
  2
PHANTOM2
 70
     0
  3
___ _ _ ___ _ _ ___ _ _ ___ _ _ ___ _ _ ___ _ _
 72
    65
 73
     6
 40
1.25
 49
0.625
 74
     0
 49
-0.125
 74
     0
 49
0.125
 74
     0
 49
-0.125
 74
     0
 49
0.125
 74
     0
 49
-0.125
 74
     0
  0
ENDTAB
  0
TABLE
  2
LAYER
  5
2
330
0
100
AcDbSymbolTable
 70
    10
  0
LAYER
  5
F
330
2
100
AcDbSymbolTableRecord
100
AcDbLayerTableRecord
  2
0
 70
     0
 62
     7
  6
CONTINUOUS
  0
LAYER
  5
1AA
330
2
100
AcDbSymbolTableRecord
100
AcDbLayerTableRecord
  2
240
 70
     0
 62
     4
  6
CONTINUOUS
  0
LAYER
  5
1AB
330
2
100
AcDbSymbolTableRecord
100
AcDbLayerTableRecord
  2
241
 70
     0
 62
   211
  6
CONTINUOUS
  0
LAYER
  5
1AD
330
2
100
AcDbSymbolTableRecord
100
AcDbLayerTableRecord
  2
243
 70
     0
 62
   211
  6
HIDDEN2
  0
LAYER
  5
1AF
330
2
100
AcDbSymbolTableRecord
100
AcDbLayerTableRecord
  2
245
 70
     0
 62
     2
  6
CENTER2
  0
LAYER
  5
21A
330
2
100
AcDbSymbolTableRecord
100
AcDbLayerTableRecord
  2
246
 70
     0
 62
     3
  6
PHANTOM2
  0
LAYER
  5
21E
330
2
100
AcDbSymbolTableRecord
100
AcDbLayerTableRecord
  2
250
 70
     0
 62
     3
  6
CONTINUOUS
  0
LAYER
  5
21F
330
2
100
AcDbSymbolTableRecord
100
AcDbLayerTableRecord
  2
251
 70
     0
 62
    40
  6
CONTINUOUS
  0
LAYER
  5
5C4
330
2
100
AcDbSymbolTableRecord
100
AcDbLayerTableRecord
  2
DEFPOINTS
 70
     0
 62
     7
  6
CONTINUOUS
  0
ENDTAB
  0
TABLE
  2
STYLE
  5
3
330
0
100
AcDbSymbolTable
 70
     2
  0
STYLE
  5
10
330
3
100
AcDbSymbolTableRecord
100
AcDbTextStyleTableRecord
  2
STANDARD
 70
     0
 40
0.0
 41
1.0
 50
0.0
 71
     0
 42
3.0
  3
romans.shx
  4
BIGFONT.SHX
  0
STYLE
  5
339
330
3
100
AcDbSymbolTableRecord
100
AcDbTextStyleTableRecord
  2
YOKO
 70
     0
 40
0.0
 41
1.0
 50
0.0
 71
     0
 42
3.0
  3
romans.shx
  4
extfont.shx
  0
ENDTAB
  0
TABLE
  2
VIEW
  5
6
330
0
100
AcDbSymbolTable
 70
     1
  0
VIEW
  5
15C7
330
6
100
AcDbSymbolTableRecord
100
AcDbViewTableRecord
  2
OLE1
 70
     0
 40
102.49857579
 10
24.80682921
 20
19.00683655
 41
149.2336777
 11
0.0
 21
0.0
 31
1.0
 12
0.0
 22
0.0
 32
0.0
 42
50.0
 43
0.0
 44
0.0
 50
0.0
 71
     0
  0
ENDTAB
  0
TABLE
  2
UCS
  5
7
330
0
100
AcDbSymbolTable
 70
     0
  0
ENDTAB
  0
TABLE
  2
APPID
  5
9
330
0
100
AcDbSymbolTable
 70
    12
  0
APPID
  5
11
330
9
100
AcDbSymbolTableRecord
100
AcDbRegAppTableRecord
  2
ACAD
 70
     0
  0
APPID
  5
1B1
330
9
100
AcDbSymbolTableRecord
100
AcDbRegAppTableRecord
  2
GLOBAL
 70
     0
  0
APPID
  5
2A4
330
9
100
AcDbSymbolTableRecord
100
AcDbRegAppTableRecord
  2
DETAIL
 70
     0
  0
APPID
  5
5FD
330
9
100
AcDbSymbolTableRecord
100
AcDbRegAppTableRecord
  2
GRPNAME
 70
     0
  0
APPID
  5
5FE
330
9
100
AcDbSymbolTableRecord
100
AcDbRegAppTableRecord
  2
GPARA
 70
     0
  0
APPID
  5
6C4
330
9
100
AcDbSymbolTableRecord
100
AcDbRegAppTableRecord
  2
DCO15
 70
     0
  0
APPID
  5
6C5
330
9
100
AcDbSymbolTableRecord
100
AcDbRegAppTableRecord
  2
ITEMNAME
 70
     0
  0
APPID
  5
6C6
330
9
100
AcDbSymbolTableRecord
100
AcDbRegAppTableRecord
  2
GRADE_0
 70
     0
  0
APPID
  5
A6C
330
9
100
AcDbSymbolTableRecord
100
AcDbRegAppTableRecord
  2
HATCH_TYPE
 70
     0
  0
APPID
  5
A6D
330
9
100
AcDbSymbolTableRecord
100
AcDbRegAppTableRecord
  2
HATCH_DISPLAY
 70
     0
  0
APPID
  5
A6E
330
9
100
AcDbSymbolTableRecord
100
AcDbRegAppTableRecord
  2
HATCH_DISTANCE
 70
     0
  0
APPID
  5
1114
330
9
100
AcDbSymbolTableRecord
100
AcDbRegAppTableRecord
  2
CONTENTBLOCKICON
 70
     0
  0
ENDTAB
  0
TABLE
  2
DIMSTYLE
  5
A
330
0
100
AcDbSymbolTable
 70
     1
  0
DIMSTYLE
105
725
102
{ACAD_REACTORS
330
DDD
330
DEC
330
DFB
330
E0A
102
}
330
A
100
AcDbSymbolTableRecord
100
AcDbDimStyleTableRecord
  2
BIGT
 70
     0
  3

  4

  5

  6
OPEN
  7
OPEN
 40
1.0
 41
2.23
 42
0.5
 43
2.5
 44
1.0
 45
0.0
 46
0.0
 47
0.0
 48
0.0
140
2.8
141
0.0
142
0.0
143
25.4
144
1.0
145
0.0
146
1.0
147
1.0
 71
     0
 72
     0
 73
     0
 74
     0
 75
     0
 76
     0
 77
     3
 78
     8
170
     0
171
     2
172
     1
173
     1
174
     1
175
     0
176
   256
177
   256
178
    40
270
     2
271
     3
272
     3
273
     2
274
     2
340
10
275
     0
280
     0
281
     0
282
     0
283
     1
284
     8
285
     0
286
     0
287
     3
288
     0
  0
ENDTAB
  0
TABLE
  2
BLOCK_RECORD
  5
1
330
0
100
AcDbSymbolTable
 70
     7
  0
BLOCK_RECORD
  5
1A
102
{ACAD_XDICTIONARY
360
1112
102
}
330
1
100
AcDbSymbolTableRecord
100
AcDbBlockTableRecord
  2
*MODEL_SPACE
  0
BLOCK_RECORD
  5
17
102
{ACAD_XDICTIONARY
360
1110
102
}
330
1
100
AcDbSymbolTableRecord
100
AcDbBlockTableRecord
  2
*PAPER_SPACE
  0
BLOCK_RECORD
  5
594
330
1
100
AcDbSymbolTableRecord
100
AcDbBlockTableRecord
  2
_OPEN
  0
BLOCK_RECORD
  5
6E3
330
1
100
AcDbSymbolTableRecord
100
AcDbBlockTableRecord
  2
矢印なし
  0
BLOCK_RECORD
  5
DDE
330
1
100
AcDbSymbolTableRecord
100
AcDbBlockTableRecord
  2
*D2
  0
BLOCK_RECORD
  5
DED
330
1
100
AcDbSymbolTableRecord
100
AcDbBlockTableRecord
  2
*D3
  0
BLOCK_RECORD
  5
DFC
330
1
100
AcDbSymbolTableRecord
100
AcDbBlockTableRecord
  2
*D4
  0
BLOCK_RECORD
  5
E0B
330
1
100
AcDbSymbolTableRecord
100
AcDbBlockTableRecord
  2
*D5
  0
BLOCK_RECORD
  5
E56
330
1
100
AcDbSymbolTableRecord
100
AcDbBlockTableRecord
  2
1
1001
CONTENTBLOCKICON
1071
        0
1004
2800000020000000200000000100080000000000000400000000000000000000000000000000000000000000000080000080000000808000800000008000800080800000C0C0C000C0DCC000F0CAA6000020400000206000002080000020A0000020C0000020E00000400000004020000040400000406000004080000040A0
1004
000040C0000040E00000600000006020000060400000606000006080000060A0000060C0000060E00000800000008020000080400000806000008080000080A0000080C0000080E00000A0000000A0200000A0400000A0600000A0800000A0A00000A0C00000A0E00000C0000000C0200000C0400000C0600000C0800000C0
1004
A00000C0C00000C0E00000E0000000E0200000E0400000E0600000E0800000E0A00000E0C00000E0E00040000000400020004000400040006000400080004000A0004000C0004000E00040200000402020004020400040206000402080004020A0004020C0004020E000404000004040200040404000404060004040800040
1004
40A0004040C0004040E00040600000406020004060400040606000406080004060A0004060C0004060E00040800000408020004080400040806000408080004080A0004080C0004080E00040A0000040A0200040A0400040A0600040A0800040A0A00040A0C00040A0E00040C0000040C0200040C0400040C0600040C08000
1004
40C0A00040C0C00040C0E00040E0000040E0200040E0400040E0600040E0800040E0A00040E0C00040E0E00080000000800020008000400080006000800080008000A0008000C0008000E00080200000802020008020400080206000802080008020A0008020C0008020E00080400000804020008040400080406000804080
1004
008040A0008040C0008040E00080600000806020008060400080606000806080008060A0008060C0008060E00080800000808020008080400080806000808080008080A0008080C0008080E00080A0000080A0200080A0400080A0600080A0800080A0A00080A0C00080A0E00080C0000080C0200080C0400080C0600080C0
1004
800080C0A00080C0C00080C0E00080E0000080E0200080E0400080E0600080E0800080E0A00080E0C00080E0E000C0000000C0002000C0004000C0006000C0008000C000A000C000C000C000E000C0200000C0202000C0204000C0206000C0208000C020A000C020C000C020E000C0400000C0402000C0404000C0406000C0
1004
408000C040A000C040C000C040E000C0600000C0602000C0604000C0606000C0608000C060A000C060C000C060E000C0800000C0802000C0804000C0806000C0808000C080A000C080C000C080E000C0A00000C0A02000C0A04000C0A06000C0A08000C0A0A000C0A0C000C0A0E000C0C00000C0C02000C0C04000C0C06000
1004
C0C08000C0C0A000F0FBFF00A4A0A000808080000000FF0000FF000000FFFF00FF000000FF00FF00FFFF0000FFFFFF0000000000000000000000000000000000000000000000000000000000000000000000000000000000000000000000000000000000000000000000000000000000000000000000000000000000000000
1004
00000000000000000000000000000000000000000000000000000000000000000000000000000000000000000000000000000000000000000000000000000000000000000000000000000000000000000000000000000000000000000000000000000000000000000000000000000000000000000000000000000000000000
1004
00000000000000000000000000000000000000000000000000000000000000000000000000000000000000000000000000000000000000000000000000000000000000000000000000000000000000000000000000000000000000000000000000000000000000000000000000000000000000000000000000000000000000
1004
00000000000000000000000000000000000000000000000000000000000000FEFEFEFEFE00000000000000000000000000000000000000000000000000FEFEFEE7FEFEFEFEE7FEFEFEFEFEFEFEFEFEFAFA00000000000000FEFEFEFEFE0000E700E7E7E7E7E70000000000000000E7E7FA00000000FEFEFE00000000000000
1004
E700E7E7E7E7E70000000000E7E7E70000FA00000000FE000000000000000000E700E7E7E7E7E70000000000E700000000FE000000FBFEFBFBFBFBFBFBFBFBFBE7FBE7E7E7E7E7FBFBFBFBFBE7E7E7E7E7FEFB000000FEFEFE00000000000000E700E7E7E7E7E7000000000000000000E7E700000000000000FEFEFEFEFE00
1004
00E700E7E7E7E7E7000000000000000000E7E7000000000000000000000000FEFEFEE7FEFEFEFEE7FEFEFEFEFEFEFEFEFEFAFE0000000000000000000000000000FEFEFEFEFE000000000000000000000000000000000000000000000000000000000000000000000000000000000000000000000000000000000000000000
1004
00000000000000000000000000000000000000000000000000000000000000000000000000000000000000000000000000000000000000000000000000000000000000000000000000000000000000000000000000000000000000000000000000000000000000000000000000000000000000000000000000000000000000
1004
00000000000000000000000000000000000000000000000000000000000000000000000000000000000000000000000000000000000000000000000000000000000000000000000000000000000000000000000000000000000000000000000000000000000000000000000000000000000000000000000000000000000000
1004
0000000000000000000000000000000000000000000000000000000000000000000000000000000000000000000000000000000000000000
  0
ENDTAB
  0
ENDSEC
  0
SECTION
  2
BLOCKS
  0
BLOCK
  5
1B
330
1A
100
AcDbEntity
  8
0
100
AcDbBlockBegin
  2
*MODEL_SPACE
 70
     0
 10
0.0
 20
0.0
 30
0.0
  3
*MODEL_SPACE
  1

  0
ENDBLK
  5
1C
330
1A
100
AcDbEntity
  8
0
100
AcDbBlockEnd
  0
BLOCK
  5
18
330
17
100
AcDbEntity
 67
     1
  8
0
100
AcDbBlockBegin
  2
*PAPER_SPACE
 70
     0
 10
0.0
 20
0.0
 30
0.0
  3
*PAPER_SPACE
  1

  0
ENDBLK
  5
19
330
17
100
AcDbEntity
 67
     1
  8
0
100
AcDbBlockEnd
  0
BLOCK
  5
598
330
594
100
AcDbEntity
  8
0
100
AcDbBlockBegin
  2
_OPEN
 70
     0
 10
0.0
 20
0.0
 30
0.0
  3
_OPEN
  1

  0
LINE
  5
595
330
594
100
AcDbEntity
  8
0
  6
BYBLOCK
 62
     0
100
AcDbLine
 10
-1.0
 20
0.16666667
 30
0.0
 11
0.0
 21
0.0
 31
0.0
  0
LINE
  5
596
330
594
100
AcDbEntity
  8
0
  6
BYBLOCK
 62
     0
100
AcDbLine
 10
-1.0
 20
-0.16666667
 30
0.0
 11
0.0
 21
0.0
 31
0.0
  0
LINE
  5
597
330
594
100
AcDbEntity
  8
0
  6
BYBLOCK
 62
     0
100
AcDbLine
 10
0.0
 20
0.0
 30
0.0
 11
-1.0
 21
0.0
 31
0.0
  0
ENDBLK
  5
599
330
594
100
AcDbEntity
  8
0
100
AcDbBlockEnd
  0
BLOCK
  5
6E4
330
6E3
100
AcDbEntity
  8
0
100
AcDbBlockBegin
  2
矢印なし
 70
     0
 10
0.0
 20
0.0
 30
0.0
  3
矢印なし
  1

  0
ENDBLK
  5
6E5
330
6E3
100
AcDbEntity
  8
0
100
AcDbBlockEnd
  0
BLOCK
  5
DE8
330
DDE
100
AcDbEntity
  8
0
100
AcDbBlockBegin
  2
*D2
 70
     1
 10
0.0
 20
0.0
 30
0.0
  3
*D2
  1

  0
LINE
  5
E4D
330
DDE
100
AcDbEntity
  8
250
  6
CONTINUOUS
100
AcDbLine
 10
85.5
 20
-16.0
 30
0.0
 11
99.0
 21
-16.0
 31
0.0
  0
LINE
  5
E4E
330
DDE
100
AcDbEntity
  8
250
  6
CONTINUOUS
100
AcDbLine
 10
85.5
 20
16.0
 30
0.0
 11
99.0
 21
16.0
 31
0.0
  0
LINE
  5
E4F
330
DDE
100
AcDbEntity
  8
250
  6
CONTINUOUS
100
AcDbLine
 10
98.0
 20
-13.77
 30
0.0
 11
98.0
 21
13.77
 31
0.0
  0
INSERT
  5
E50
330
DDE
100
AcDbEntity
  8
250
  6
CONTINUOUS
100
AcDbBlockReference
  2
_OPEN
 10
98.0
 20
-16.0
 30
0.0
 41
2.23
 42
2.23
 43
2.23
 50
270.0
  0
INSERT
  5
E51
330
DDE
100
AcDbEntity
  8
250
  6
CONTINUOUS
100
AcDbBlockReference
  2
_OPEN
 10
98.0
 20
16.0
 30
0.0
 41
2.23
 42
2.23
 43
2.23
 50
90.0
  0
MTEXT
  5
E52
330
DDE
100
AcDbEntity
  8
250
  6
CONTINUOUS
 62
    40
100
AcDbMText
 10
95.6
 20
0.0
 30
0.0
 40
2.8
 41
0.0
 71
     5
 72
     1
  1
\A1;{\H2.8;\U+2205}32
 11
0.0
 21
1.0
 31
0.0
1001
ACAD
1000
MTEXTBEGIN
1070
    73
1070
     1
1070
    44
1040
1.0
1070
    74
1070
     0
1000
MTEXTEND
1000
MTEXTBEGIN
1070
    73
1070
     1
1070
    44
1040
1.0
1070
    74
1070
     0
1000
MTEXTEND
1000
MTEXTBEGIN
1070
    73
1070
     1
1070
    44
1040
1.0
1070
    74
1070
     0
1000
MTEXTEND
  0
POINT
  5
E53
330
DDE
100
AcDbEntity
  8
DEFPOINTS
  6
CONTINUOUS
 62
     0
100
AcDbPoint
 10
85.0
 20
-16.0
 30
0.0
  0
POINT
  5
E54
330
DDE
100
AcDbEntity
  8
DEFPOINTS
  6
CONTINUOUS
 62
     0
100
AcDbPoint
 10
85.0
 20
16.0
 30
0.0
  0
POINT
  5
E55
330
DDE
100
AcDbEntity
  8
DEFPOINTS
  6
CONTINUOUS
 62
     0
100
AcDbPoint
 10
98.0
 20
16.0
 30
0.0
  0
ENDBLK
  5
DE9
330
DDE
100
AcDbEntity
  8
0
100
AcDbBlockEnd
  0
BLOCK
  5
DF7
330
DED
100
AcDbEntity
  8
0
100
AcDbBlockBegin
  2
*D3
 70
     1
 10
0.0
 20
0.0
 30
0.0
  3
*D3
  1

  0
LINE
  5
E44
330
DED
100
AcDbEntity
  8
250
  6
CONTINUOUS
100
AcDbLine
 10
75.0
 20
16.5
 30
0.0
 11
75.0
 21
29.0
 31
0.0
  0
LINE
  5
E45
330
DED
100
AcDbEntity
  8
250
  6
CONTINUOUS
100
AcDbLine
 10
85.0
 20
16.5
 30
0.0
 11
85.0
 21
29.0
 31
0.0
  0
LINE
  5
E46
330
DED
100
AcDbEntity
  8
250
  6
CONTINUOUS
100
AcDbLine
 10
77.23
 20
28.0
 30
0.0
 11
82.77
 21
28.0
 31
0.0
  0
INSERT
  5
E47
330
DED
100
AcDbEntity
  8
250
  6
CONTINUOUS
100
AcDbBlockReference
  2
_OPEN
 10
75.0
 20
28.0
 30
0.0
 41
2.23
 42
2.23
 43
2.23
 50
180.0
  0
INSERT
  5
E48
330
DED
100
AcDbEntity
  8
250
  6
CONTINUOUS
100
AcDbBlockReference
  2
_OPEN
 10
85.0
 20
28.0
 30
0.0
 41
2.23
 42
2.23
 43
2.23
  0
MTEXT
  5
E49
330
DED
100
AcDbEntity
  8
250
  6
CONTINUOUS
 62
    40
100
AcDbMText
 10
80.0
 20
30.4
 30
0.0
 40
2.8
 41
0.0
 71
     5
 72
     1
  1
\A1;10
1001
ACAD
1000
MTEXTBEGIN
1070
    73
1070
     1
1070
    44
1040
1.0
1070
    74
1070
     0
1000
MTEXTEND
1000
MTEXTBEGIN
1070
    73
1070
     1
1070
    44
1040
1.0
1070
    74
1070
     0
1000
MTEXTEND
1000
MTEXTBEGIN
1070
    73
1070
     1
1070
    44
1040
1.0
1070
    74
1070
     0
1000
MTEXTEND
  0
POINT
  5
E4A
330
DED
100
AcDbEntity
  8
DEFPOINTS
  6
CONTINUOUS
 62
     0
100
AcDbPoint
 10
75.0
 20
16.0
 30
0.0
  0
POINT
  5
E4B
330
DED
100
AcDbEntity
  8
DEFPOINTS
  6
CONTINUOUS
 62
     0
100
AcDbPoint
 10
85.0
 20
16.0
 30
0.0
  0
POINT
  5
E4C
330
DED
100
AcDbEntity
  8
DEFPOINTS
  6
CONTINUOUS
 62
     0
100
AcDbPoint
 10
85.0
 20
28.0
 30
0.0
  0
ENDBLK
  5
DF8
330
DED
100
AcDbEntity
  8
0
100
AcDbBlockEnd
  0
BLOCK
  5
E06
330
DFC
100
AcDbEntity
  8
0
100
AcDbBlockBegin
  2
*D4
 70
     1
 10
0.0
 20
0.0
 30
0.0
  3
*D4
  1

  0
LINE
  5
E32
330
DFC
100
AcDbEntity
  8
250
  6
CONTINUOUS
100
AcDbLine
 10
25.0
 20
15.84797623
 30
0.0
 11
25.0
 21
36.0
 31
0.0
  0
LINE
  5
E33
330
DFC
100
AcDbEntity
  8
250
  6
CONTINUOUS
100
AcDbLine
 10
85.0
 20
16.5
 30
0.0
 11
85.0
 21
36.0
 31
0.0
  0
LINE
  5
E34
330
DFC
100
AcDbEntity
  8
250
  6
CONTINUOUS
100
AcDbLine
 10
27.23
 20
35.0
 30
0.0
 11
82.77
 21
35.0
 31
0.0
  0
INSERT
  5
E35
330
DFC
100
AcDbEntity
  8
250
  6
CONTINUOUS
100
AcDbBlockReference
  2
_OPEN
 10
25.0
 20
35.0
 30
0.0
 41
2.23
 42
2.23
 43
2.23
 50
180.0
  0
INSERT
  5
E36
330
DFC
100
AcDbEntity
  8
250
  6
CONTINUOUS
100
AcDbBlockReference
  2
_OPEN
 10
85.0
 20
35.0
 30
0.0
 41
2.23
 42
2.23
 43
2.23
  0
MTEXT
  5
E37
330
DFC
100
AcDbEntity
  8
250
  6
CONTINUOUS
 62
    40
100
AcDbMText
 10
55.0
 20
37.4
 30
0.0
 40
2.8
 41
0.0
 71
     5
 72
     1
  1
\A1;60
1001
ACAD
1000
MTEXTBEGIN
1070
    73
1070
     1
1070
    44
1040
1.0
1070
    74
1070
     0
1000
MTEXTEND
1000
MTEXTBEGIN
1070
    73
1070
     1
1070
    44
1040
1.0
1070
    74
1070
     0
1000
MTEXTEND
1000
MTEXTBEGIN
1070
    73
1070
     1
1070
    44
1040
1.0
1070
    74
1070
     0
1000
MTEXTEND
  0
POINT
  5
E38
330
DFC
100
AcDbEntity
  8
DEFPOINTS
  6
CONTINUOUS
 62
     0
100
AcDbPoint
 10
25.0
 20
15.34797623
 30
0.0
  0
POINT
  5
E39
330
DFC
100
AcDbEntity
  8
DEFPOINTS
  6
CONTINUOUS
 62
     0
100
AcDbPoint
 10
85.0
 20
16.0
 30
0.0
  0
POINT
  5
E3A
330
DFC
100
AcDbEntity
  8
DEFPOINTS
  6
CONTINUOUS
 62
     0
100
AcDbPoint
 10
85.0
 20
35.0
 30
0.0
  0
ENDBLK
  5
E07
330
DFC
100
AcDbEntity
  8
0
100
AcDbBlockEnd
  0
BLOCK
  5
E15
330
E0B
100
AcDbEntity
  8
0
100
AcDbBlockBegin
  2
*D5
 70
     1
 10
0.0
 20
0.0
 30
0.0
  3
*D5
  1

  0
LINE
  5
E3B
330
E0B
100
AcDbEntity
  8
250
  6
CONTINUOUS
100
AcDbLine
 10
0.0
 20
16.375
 30
0.0
 11
0.0
 21
43.0
 31
0.0
  0
LINE
  5
E3C
330
E0B
100
AcDbEntity
  8
250
  6
CONTINUOUS
100
AcDbLine
 10
85.0
 20
16.5
 30
0.0
 11
85.0
 21
43.0
 31
0.0
  0
LINE
  5
E3D
330
E0B
100
AcDbEntity
  8
250
  6
CONTINUOUS
100
AcDbLine
 10
2.23
 20
42.0
 30
0.0
 11
82.77
 21
42.0
 31
0.0
  0
INSERT
  5
E3E
330
E0B
100
AcDbEntity
  8
250
  6
CONTINUOUS
100
AcDbBlockReference
  2
_OPEN
 10
0.0
 20
42.0
 30
0.0
 41
2.23
 42
2.23
 43
2.23
 50
180.0
  0
INSERT
  5
E3F
330
E0B
100
AcDbEntity
  8
250
  6
CONTINUOUS
100
AcDbBlockReference
  2
_OPEN
 10
85.0
 20
42.0
 30
0.0
 41
2.23
 42
2.23
 43
2.23
  0
MTEXT
  5
E40
330
E0B
100
AcDbEntity
  8
250
  6
CONTINUOUS
 62
    40
100
AcDbMText
 10
42.5
 20
44.4
 30
0.0
 40
2.8
 41
0.0
 71
     5
 72
     1
  1
\A1;85
1001
ACAD
1000
MTEXTBEGIN
1070
    73
1070
     1
1070
    44
1040
1.0
1070
    74
1070
     0
1000
MTEXTEND
1000
MTEXTBEGIN
1070
    73
1070
     1
1070
    44
1040
1.0
1070
    74
1070
     0
1000
MTEXTEND
1000
MTEXTBEGIN
1070
    73
1070
     1
1070
    44
1040
1.0
1070
    74
1070
     0
1000
MTEXTEND
  0
POINT
  5
E41
330
E0B
100
AcDbEntity
  8
DEFPOINTS
  6
CONTINUOUS
 62
     0
100
AcDbPoint
 10
0.0
 20
15.875
 30
0.0
  0
POINT
  5
E42
330
E0B
100
AcDbEntity
  8
DEFPOINTS
  6
CONTINUOUS
 62
     0
100
AcDbPoint
 10
85.0
 20
16.0
 30
0.0
  0
POINT
  5
E43
330
E0B
100
AcDbEntity
  8
DEFPOINTS
  6
CONTINUOUS
 62
     0
100
AcDbPoint
 10
85.0
 20
42.0
 30
0.0
  0
ENDBLK
  5
E16
330
E0B
100
AcDbEntity
  8
0
100
AcDbBlockEnd
  0
BLOCK
  5
E57
330
E56
100
AcDbEntity
  8
0
100
AcDbBlockBegin
  2
1
 70
     0
 10
0.0
 20
0.0
 30
0.0
  3
1
  1

  0
LINE
  5
141D
330
E56
100
AcDbEntity
  8
240
  6
CONTINUOUS
100
AcDbLine
 10
72.46698728
 20
-15.25
 30
0.0
 11
25.43168637
 21
-15.25
 31
0.0
1001
GRPNAME
1000
PASTMD0V
  0
LINE
  5
141E
330
E56
100
AcDbEntity
  8
240
  6
CONTINUOUS
100
AcDbLine
 10
72.46698728
 20
15.25
 30
0.0
 11
25.43168637
 21
15.25
 31
0.0
1001
GRPNAME
1000
PASTMD0V
  0
LINE
  5
141F
330
E56
100
AcDbEntity
  8
245
  6
CENTER2
100
AcDbLine
 10
-49.4
 20
0.0
 30
0.0
 11
86.0
 21
0.0
 31
0.0
1001
GRPNAME
1000
PASTMD0D
  0
LINE
  5
1420
330
E56
100
AcDbEntity
  8
240
  6
CONTINUOUS
100
AcDbLine
 10
-47.54431023
 20
8.94129104
 30
0.0
 11
0.0
 21
15.875
 31
0.0
  0
LINE
  5
1421
330
E56
100
AcDbEntity
  8
240
  6
CONTINUOUS
100
AcDbLine
 10
-47.54431023
 20
-8.94129104
 30
0.0
 11
0.0
 21
-15.875
 31
0.0
  0
LINE
  5
1422
330
E56
100
AcDbEntity
  8
240
  6
CONTINUOUS
100
AcDbLine
 10
-48.4
 20
-7.95175854
 30
0.0
 11
-48.4
 21
0.0
 31
0.0
  0
ARC
  5
1423
330
E56
100
AcDbEntity
  8
240
  6
CONTINUOUS
100
AcDbCircle
 10
-47.4
 20
-7.95175854
 30
0.0
 40
1.0
100
AcDbArc
 50
180.0
 51
261.70266184
  0
LINE
  5
1424
330
E56
100
AcDbEntity
  8
240
  6
CONTINUOUS
100
AcDbLine
 10
-48.4
 20
7.95175854
 30
0.0
 11
-48.4
 21
0.0
 31
0.0
  0
ARC
  5
1425
330
E56
100
AcDbEntity
  8
240
  6
CONTINUOUS
100
AcDbCircle
 10
-47.4
 20
7.95175854
 30
0.0
 40
1.0
100
AcDbArc
 50
98.29733816
 51
180.0
  0
LINE
  5
1426
330
E56
100
AcDbEntity
  8
241
  6
CONTINUOUS
100
AcDbLine
 10
32.6
 20
-15.25
 30
0.0
 11
32.6
 21
0.0
 31
0.0
1001
GRPNAME
1000
PASTMD01
  0
LINE
  5
1427
330
E56
100
AcDbEntity
  8
241
  6
CONTINUOUS
100
AcDbLine
 10
31.4
 20
-15.25
 30
0.0
 11
31.4
 21
0.0
 31
0.0
1001
GRPNAME
1000
PASTMD0D
  0
LINE
  5
1428
330
E56
100
AcDbEntity
  8
241
  6
CONTINUOUS
100
AcDbLine
 10
28.6
 20
-15.25
 30
0.0
 11
28.6
 21
0.0
 31
0.0
1001
GRPNAME
1000
PASTMD0D
  0
LINE
  5
1429
330
E56
100
AcDbEntity
  8
241
  6
CONTINUOUS
100
AcDbLine
 10
27.4
 20
-15.25
 30
0.0
 11
27.4
 21
0.0
 31
0.0
1001
GRPNAME
1000
PASTMD01
  0
LINE
  5
142A
330
E56
100
AcDbEntity
  8
241
  6
CONTINUOUS
100
AcDbLine
 10
24.95
 20
-15.37365632
 30
0.0
 11
24.95
 21
0.0
 31
0.0
1001
GRPNAME
1000
PASTMD04
  0
LINE
  5
142B
330
E56
100
AcDbEntity
  8
241
  6
CONTINUOUS
100
AcDbLine
 10
22.0
 20
0.0
 30
0.0
 11
22.0
 21
-20.0
 31
0.0
  0
LINE
  5
142C
330
E56
100
AcDbEntity
  8
241
100
AcDbLine
 10
0.0
 20
-15.875
 30
0.0
 11
0.0
 21
0.0
 31
0.0
  0
LINE
  5
142D
330
E56
100
AcDbEntity
  8
241
100
AcDbLine
 10
1.0
 20
0.0
 30
0.0
 11
1.0
 21
-15.875
 31
0.0
  0
LINE
  5
142E
330
E56
100
AcDbEntity
  8
245
  6
CENTER2
100
AcDbLine
 10
13.6
 20
-23.0
 30
0.0
 11
13.6
 21
23.0
 31
0.0
  0
LINE
  5
142F
330
E56
100
AcDbEntity
  8
241
  6
CONTINUOUS
100
AcDbLine
 10
15.29059892
 20
-19.0
 30
0.0
 11
15.29059892
 21
0.04377196
 31
0.0
  0
LINE
  5
1430
330
E56
100
AcDbEntity
  8
241
  6
CONTINUOUS
100
AcDbLine
 10
17.6
 20
0.0
 30
0.0
 11
17.6
 21
-23.0
 31
0.0
  0
LINE
  5
1431
330
E56
100
AcDbEntity
  8
241
  6
CONTINUOUS
100
AcDbLine
 10
11.90940108
 20
-19.0
 30
0.0
 11
11.90940108
 21
0.04377196
 31
0.0
  0
LINE
  5
1432
330
E56
100
AcDbEntity
  8
241
  6
CONTINUOUS
100
AcDbLine
 10
9.6
 20
-23.0
 30
0.0
 11
9.6
 21
0.0
 31
0.0
  0
LINE
  5
1433
330
E56
100
AcDbEntity
  8
243
  6
HIDDEN2
100
AcDbLine
 10
19.0
 20
-16.3
 30
0.0
 11
1.0
 21
-16.3
 31
0.0
  0
LINE
  5
1434
330
E56
100
AcDbEntity
  8
240
  6
CONTINUOUS
100
AcDbLine
 10
9.6
 20
-23.0
 30
0.0
 11
1.0
 21
-23.0
 31
0.0
  0
LINE
  5
1435
330
E56
100
AcDbEntity
  8
240
  6
CONTINUOUS
100
AcDbLine
 10
1.0
 20
-15.875
 30
0.0
 11
1.0
 21
-23.0
 31
0.0
  0
LINE
  5
1436
330
E56
100
AcDbEntity
  8
240
100
AcDbLine
 10
0.0
 20
-15.875
 30
0.0
 11
1.0
 21
-15.875
 31
0.0
  0
LINE
  5
1437
330
E56
100
AcDbEntity
  8
240
  6
CONTINUOUS
100
AcDbLine
 10
17.6
 20
-23.0
 30
0.0
 11
22.0
 21
-23.0
 31
0.0
  0
LINE
  5
1438
330
E56
100
AcDbEntity
  8
240
  6
CONTINUOUS
100
AcDbLine
 10
11.90940108
 20
-19.0
 30
0.0
 11
9.6
 21
-23.0
 31
0.0
  0
LINE
  5
1439
330
E56
100
AcDbEntity
  8
240
  6
CONTINUOUS
100
AcDbLine
 10
15.29059892
 20
-19.0
 30
0.0
 11
17.6
 21
-23.0
 31
0.0
  0
LINE
  5
143A
330
E56
100
AcDbEntity
  8
243
  6
HIDDEN2
100
AcDbLine
 10
19.0
 20
-16.3
 30
0.0
 11
19.0
 21
-23.0
 31
0.0
  0
LINE
  5
143B
330
E56
100
AcDbEntity
  8
240
  6
CONTINUOUS
100
AcDbLine
 10
11.90940108
 20
-19.0
 30
0.0
 11
15.29059892
 21
-19.0
 31
0.0
  0
ARC
  5
143C
330
E56
100
AcDbEntity
  8
240
  6
CONTINUOUS
100
AcDbCircle
 10
25.0
 20
-20.0
 30
0.0
 40
2.999999999999991
100
AcDbArc
 50
141.43896603
 51
179.99999999
1001
GRPNAME
1000
PASTMD04
  0
LINE
  5
143D
330
E56
100
AcDbEntity
  8
240
  6
CONTINUOUS
100
AcDbLine
 10
22.0
 20
-23.0
 30
0.0
 11
22.0
 21
-20.0
 31
0.0
  0
ARC
  5
143E
330
E56
100
AcDbEntity
  8
240
100
AcDbCircle
 10
25.43168637
 20
-16.25
 30
0.0
 40
1.0
100
AcDbArc
 50
90.0
 51
141.43896603
1001
GRPNAME
1000
PASTMD0V
  0
LINE
  5
143F
330
E56
100
AcDbEntity
  8
240
100
AcDbLine
 10
24.64974179
 20
-15.62665205
 30
0.0
 11
22.65416625
 21
-18.12995614
 31
0.0
  0
LINE
  5
1440
330
E56
100
AcDbEntity
  8
240
  6
CONTINUOUS
100
AcDbLine
 10
9.6
 20
23.0
 30
0.0
 11
1.0
 21
23.0
 31
0.0
  0
LINE
  5
1441
330
E56
100
AcDbEntity
  8
241
  6
HIDDEN2
100
AcDbLine
 10
19.0
 20
16.3
 30
0.0
 11
1.0
 21
16.3
 31
0.0
  0
LINE
  5
1442
330
E56
100
AcDbEntity
  8
241
100
AcDbLine
 10
0.0
 20
15.875
 30
0.0
 11
0.0
 21
0.0
 31
0.0
  0
LINE
  5
1443
330
E56
100
AcDbEntity
  8
241
100
AcDbLine
 10
1.0
 20
0.0
 30
0.0
 11
1.0
 21
15.875
 31
0.0
  0
LINE
  5
1444
330
E56
100
AcDbEntity
  8
240
  6
CONTINUOUS
100
AcDbLine
 10
1.0
 20
15.875
 30
0.0
 11
1.0
 21
23.0
 31
0.0
  0
LINE
  5
1445
330
E56
100
AcDbEntity
  8
240
100
AcDbLine
 10
0.0
 20
15.875
 30
0.0
 11
1.0
 21
15.875
 31
0.0
  0
LINE
  5
1446
330
E56
100
AcDbEntity
  8
241
  6
CONTINUOUS
100
AcDbLine
 10
24.95
 20
15.37365632
 30
0.0
 11
24.95
 21
0.0
 31
0.0
1001
GRPNAME
1000
PASTMD04
  0
LINE
  5
1447
330
E56
100
AcDbEntity
  8
241
  6
CONTINUOUS
100
AcDbLine
 10
27.4
 20
15.25
 30
0.0
 11
27.4
 21
0.0
 31
0.0
1001
GRPNAME
1000
PASTMD01
  0
LINE
  5
1448
330
E56
100
AcDbEntity
  8
241
  6
CONTINUOUS
100
AcDbLine
 10
28.6
 20
15.25
 30
0.0
 11
28.6
 21
0.0
 31
0.0
1001
GRPNAME
1000
PASTMD0D
  0
LINE
  5
1449
330
E56
100
AcDbEntity
  8
241
  6
CONTINUOUS
100
AcDbLine
 10
31.4
 20
15.25
 30
0.0
 11
31.4
 21
0.0
 31
0.0
1001
GRPNAME
1000
PASTMD0D
  0
LINE
  5
144A
330
E56
100
AcDbEntity
  8
241
  6
CONTINUOUS
100
AcDbLine
 10
32.6
 20
15.25
 30
0.0
 11
32.6
 21
0.0
 31
0.0
1001
GRPNAME
1000
PASTMD01
  0
LINE
  5
144B
330
E56
100
AcDbEntity
  8
241
  6
CONTINUOUS
100
AcDbLine
 10
22.0
 20
0.0
 30
0.0
 11
22.0
 21
20.0
 31
0.0
  0
LINE
  5
144C
330
E56
100
AcDbEntity
  8
241
  6
CONTINUOUS
100
AcDbLine
 10
11.90940108
 20
19.0
 30
0.0
 11
11.90940108
 21
-0.04377196
 31
0.0
  0
LINE
  5
144D
330
E56
100
AcDbEntity
  8
241
  6
CONTINUOUS
100
AcDbLine
 10
15.29059892
 20
19.0
 30
0.0
 11
15.29059892
 21
-0.04377196
 31
0.0
  0
LINE
  5
144E
330
E56
100
AcDbEntity
  8
241
  6
CONTINUOUS
100
AcDbLine
 10
17.6
 20
0.0
 30
0.0
 11
17.6
 21
23.0
 31
0.0
  0
LINE
  5
144F
330
E56
100
AcDbEntity
  8
241
  6
CONTINUOUS
100
AcDbLine
 10
9.6
 20
23.0
 30
0.0
 11
9.6
 21
0.0
 31
0.0
  0
LINE
  5
1450
330
E56
100
AcDbEntity
  8
240
  6
CONTINUOUS
100
AcDbLine
 10
17.6
 20
23.0
 30
0.0
 11
22.0
 21
23.0
 31
0.0
  0
LINE
  5
1451
330
E56
100
AcDbEntity
  8
240
  6
CONTINUOUS
100
AcDbLine
 10
11.90940108
 20
19.0
 30
0.0
 11
9.6
 21
23.0
 31
0.0
  0
LINE
  5
1452
330
E56
100
AcDbEntity
  8
241
  6
HIDDEN2
100
AcDbLine
 10
19.0
 20
16.3
 30
0.0
 11
19.0
 21
23.0
 31
0.0
  0
LINE
  5
1453
330
E56
100
AcDbEntity
  8
240
  6
CONTINUOUS
100
AcDbLine
 10
15.29059892
 20
19.0
 30
0.0
 11
17.6
 21
23.0
 31
0.0
  0
LINE
  5
1454
330
E56
100
AcDbEntity
  8
240
  6
CONTINUOUS
100
AcDbLine
 10
11.90940108
 20
19.0
 30
0.0
 11
15.29059892
 21
19.0
 31
0.0
  0
LINE
  5
1455
330
E56
100
AcDbEntity
  8
240
100
AcDbLine
 10
24.64974179
 20
15.62665205
 30
0.0
 11
22.65416625
 21
18.12995614
 31
0.0
  0
ARC
  5
1456
330
E56
100
AcDbEntity
  8
240
  6
CONTINUOUS
100
AcDbCircle
 10
25.0
 20
20.0
 30
0.0
 40
2.999999999999991
100
AcDbArc
 50
180.00000001
 51
218.56103397
1001
GRPNAME
1000
PASTMD04
  0
ARC
  5
1457
330
E56
100
AcDbEntity
  8
240
100
AcDbCircle
 10
25.43168637
 20
16.25
 30
0.0
 40
1.0
100
AcDbArc
 50
218.56103397
 51
270.0
1001
GRPNAME
1000
PASTMD0V
  0
LINE
  5
1458
330
E56
100
AcDbEntity
  8
240
  6
CONTINUOUS
100
AcDbLine
 10
22.0
 20
23.0
 30
0.0
 11
22.0
 21
20.0
 31
0.0
  0
LINE
  5
1459
330
E56
100
AcDbEntity
  8
240
100
AcDbLine
 10
83.95
 20
-4.11783125
 30
0.0
 11
83.95
 21
-15.24880953
 31
0.0
  0
LINE
  5
145A
330
E56
100
AcDbEntity
  8
241
100
AcDbLine
 10
61.09160134
 20
-6.92344036
 30
0.0
 11
83.91782561
 21
-14.21611474
 31
0.0
  0
LINE
  5
145B
330
E56
100
AcDbEntity
  8
246
100
AcDbLine
 10
85.0
 20
-16.0
 30
0.0
 11
85.0
 21
16.0
 31
0.0
  0
LINE
  5
145C
330
E56
100
AcDbEntity
  8
240
100
AcDbLine
 10
83.95
 20
-15.24880953
 30
0.0
 11
73.40000002
 21
-15.5
 31
0.0
  0
LINE
  5
145D
330
E56
100
AcDbEntity
  8
246
100
AcDbLine
 10
85.0
 20
-16.0
 30
0.0
 11
75.0
 21
-16.0
 31
0.0
1001
GRPNAME
1000
PASTMD0D
  0
LINE
  5
145E
330
E56
100
AcDbEntity
  8
240
100
AcDbLine
 10
72.46698728
 20
-15.25
 30
0.0
 11
73.40000002
 21
-15.5
 31
0.0
  0
LINE
  5
145F
330
E56
100
AcDbEntity
  8
241
100
AcDbLine
 10
73.40325213
 20
3.36321402
 30
0.0
 11
83.9411388
 21
1.50510028
 31
0.0
  0
LINE
  5
1460
330
E56
100
AcDbEntity
  8
241
100
AcDbLine
 10
71.66551052
 20
0.35335726
 30
0.0
 11
83.95
 21
-4.11783125
 31
0.0
  0
LINE
  5
1461
330
E56
100
AcDbEntity
  8
240
100
AcDbLine
 10
83.95
 20
15.24880953
 30
0.0
 11
73.40000002
 21
15.5
 31
0.0
  0
LINE
  5
1462
330
E56
100
AcDbEntity
  8
246
100
AcDbLine
 10
85.0
 20
16.0
 30
0.0
 11
75.0
 21
16.0
 31
0.0
1001
GRPNAME
1000
PASTMD0D
  0
ARC
  5
1463
330
E56
100
AcDbEntity
  8
241
100
AcDbCircle
 10
62.46595005
 20
-2.62169996
 30
0.0
 40
4.515950051544669
100
AcDbArc
 50
79.9999824
 51
252.2819944
  0
LINE
  5
1464
330
E56
100
AcDbEntity
  8
241
100
AcDbLine
 10
71.65944669
 20
0.3428544
 30
0.0
 11
63.25013655
 21
1.82564266
 31
0.0
  0
LINE
  5
1465
330
E56
100
AcDbEntity
  8
241
100
AcDbLine
 10
73.40325213
 20
3.36321402
 30
0.0
 11
71.65944669
 21
0.3428544
 31
0.0
  0
LINE
  5
1466
330
E56
100
AcDbEntity
  8
240
100
AcDbLine
 10
72.46698728
 20
15.25
 30
0.0
 11
73.40000002
 21
15.5
 31
0.0
  0
LINE
  5
1467
330
E56
100
AcDbEntity
  8
240
100
AcDbLine
 10
83.95
 20
15.24880953
 30
0.0
 11
83.95
 21
1.50353781
 31
0.0
  0
POLYLINE
  5
1468
330
E56
100
AcDbEntity
  8
241
100
AcDb3dPolyline
 66
     1
 10
0.0
 20
0.0
 30
0.0
 70
     8
  0
VERTEX
  5
1469
330
1468
100
AcDbEntity
  8
241
100
AcDbVertex
100
AcDb3dPolylineVertex
 10
81.1164
 20
10.1929
 30
0.0
 70
    32
  0
VERTEX
  5
146A
330
1468
100
AcDbEntity
  8
241
100
AcDbVertex
100
AcDb3dPolylineVertex
 10
81.1229
 20
10.2331
 30
0.0
 70
    32
  0
VERTEX
  5
146B
330
1468
100
AcDbEntity
  8
241
100
AcDbVertex
100
AcDb3dPolylineVertex
 10
81.1284
 20
10.2736
 30
0.0
 70
    32
  0
VERTEX
  5
146C
330
1468
100
AcDbEntity
  8
241
100
AcDbVertex
100
AcDb3dPolylineVertex
 10
81.1327
 20
10.3141
 30
0.0
 70
    32
  0
VERTEX
  5
146D
330
1468
100
AcDbEntity
  8
241
100
AcDbVertex
100
AcDb3dPolylineVertex
 10
81.1359
 20
10.3548
 30
0.0
 70
    32
  0
VERTEX
  5
146E
330
1468
100
AcDbEntity
  8
241
100
AcDbVertex
100
AcDb3dPolylineVertex
 10
81.138
 20
10.3956
 30
0.0
 70
    32
  0
VERTEX
  5
146F
330
1468
100
AcDbEntity
  8
241
100
AcDbVertex
100
AcDb3dPolylineVertex
 10
81.139
 20
10.4365
 30
0.0
 70
    32
  0
VERTEX
  5
1470
330
1468
100
AcDbEntity
  8
241
100
AcDbVertex
100
AcDb3dPolylineVertex
 10
81.1389
 20
10.4774
 30
0.0
 70
    32
  0
VERTEX
  5
1471
330
1468
100
AcDbEntity
  8
241
100
AcDbVertex
100
AcDb3dPolylineVertex
 10
81.1377
 20
10.5183
 30
0.0
 70
    32
  0
VERTEX
  5
1472
330
1468
100
AcDbEntity
  8
241
100
AcDbVertex
100
AcDb3dPolylineVertex
 10
81.1353
 20
10.5592
 30
0.0
 70
    32
  0
VERTEX
  5
1473
330
1468
100
AcDbEntity
  8
241
100
AcDbVertex
100
AcDb3dPolylineVertex
 10
81.1319
 20
10.6001
 30
0.0
 70
    32
  0
VERTEX
  5
1474
330
1468
100
AcDbEntity
  8
241
100
AcDbVertex
100
AcDb3dPolylineVertex
 10
81.1274
 20
10.641
 30
0.0
 70
    32
  0
VERTEX
  5
1475
330
1468
100
AcDbEntity
  8
241
100
AcDbVertex
100
AcDb3dPolylineVertex
 10
81.1217
 20
10.6817
 30
0.0
 70
    32
  0
VERTEX
  5
1476
330
1468
100
AcDbEntity
  8
241
100
AcDbVertex
100
AcDb3dPolylineVertex
 10
81.1149
 20
10.7224
 30
0.0
 70
    32
  0
VERTEX
  5
1477
330
1468
100
AcDbEntity
  8
241
100
AcDbVertex
100
AcDb3dPolylineVertex
 10
81.1071
 20
10.7629
 30
0.0
 70
    32
  0
VERTEX
  5
1478
330
1468
100
AcDbEntity
  8
241
100
AcDbVertex
100
AcDb3dPolylineVertex
 10
81.0982
 20
10.8033
 30
0.0
 70
    32
  0
VERTEX
  5
1479
330
1468
100
AcDbEntity
  8
241
100
AcDbVertex
100
AcDb3dPolylineVertex
 10
81.0881
 20
10.8436
 30
0.0
 70
    32
  0
VERTEX
  5
147A
330
1468
100
AcDbEntity
  8
241
100
AcDbVertex
100
AcDb3dPolylineVertex
 10
81.077
 20
10.8836
 30
0.0
 70
    32
  0
VERTEX
  5
147B
330
1468
100
AcDbEntity
  8
241
100
AcDbVertex
100
AcDb3dPolylineVertex
 10
81.0648
 20
10.9234
 30
0.0
 70
    32
  0
VERTEX
  5
147C
330
1468
100
AcDbEntity
  8
241
100
AcDbVertex
100
AcDb3dPolylineVertex
 10
81.0516
 20
10.9629
 30
0.0
 70
    32
  0
VERTEX
  5
147D
330
1468
100
AcDbEntity
  8
241
100
AcDbVertex
100
AcDb3dPolylineVertex
 10
81.0373
 20
11.0022
 30
0.0
 70
    32
  0
VERTEX
  5
147E
330
1468
100
AcDbEntity
  8
241
100
AcDbVertex
100
AcDb3dPolylineVertex
 10
81.0219
 20
11.0412
 30
0.0
 70
    32
  0
VERTEX
  5
147F
330
1468
100
AcDbEntity
  8
241
100
AcDbVertex
100
AcDb3dPolylineVertex
 10
81.0055
 20
11.0799
 30
0.0
 70
    32
  0
VERTEX
  5
1480
330
1468
100
AcDbEntity
  8
241
100
AcDbVertex
100
AcDb3dPolylineVertex
 10
80.9881
 20
11.1182
 30
0.0
 70
    32
  0
VERTEX
  5
1481
330
1468
100
AcDbEntity
  8
241
100
AcDbVertex
100
AcDb3dPolylineVertex
 10
80.9697
 20
11.1562
 30
0.0
 70
    32
  0
VERTEX
  5
1482
330
1468
100
AcDbEntity
  8
241
100
AcDbVertex
100
AcDb3dPolylineVertex
 10
80.9502
 20
11.1937
 30
0.0
 70
    32
  0
VERTEX
  5
1483
330
1468
100
AcDbEntity
  8
241
100
AcDbVertex
100
AcDb3dPolylineVertex
 10
80.9297
 20
11.2309
 30
0.0
 70
    32
  0
VERTEX
  5
1484
330
1468
100
AcDbEntity
  8
241
100
AcDbVertex
100
AcDb3dPolylineVertex
 10
80.9083
 20
11.2676
 30
0.0
 70
    32
  0
VERTEX
  5
1485
330
1468
100
AcDbEntity
  8
241
100
AcDbVertex
100
AcDb3dPolylineVertex
 10
80.8859
 20
11.3039
 30
0.0
 70
    32
  0
VERTEX
  5
1486
330
1468
100
AcDbEntity
  8
241
100
AcDbVertex
100
AcDb3dPolylineVertex
 10
80.8625
 20
11.3397
 30
0.0
 70
    32
  0
VERTEX
  5
1487
330
1468
100
AcDbEntity
  8
241
100
AcDbVertex
100
AcDb3dPolylineVertex
 10
80.8382
 20
11.375
 30
0.0
 70
    32
  0
VERTEX
  5
1488
330
1468
100
AcDbEntity
  8
241
100
AcDbVertex
100
AcDb3dPolylineVertex
 10
80.813
 20
11.4098
 30
0.0
 70
    32
  0
VERTEX
  5
1489
330
1468
100
AcDbEntity
  8
241
100
AcDbVertex
100
AcDb3dPolylineVertex
 10
80.7868
 20
11.4441
 30
0.0
 70
    32
  0
VERTEX
  5
148A
330
1468
100
AcDbEntity
  8
241
100
AcDbVertex
100
AcDb3dPolylineVertex
 10
80.7597
 20
11.4778
 30
0.0
 70
    32
  0
VERTEX
  5
148B
330
1468
100
AcDbEntity
  8
241
100
AcDbVertex
100
AcDb3dPolylineVertex
 10
80.7318
 20
11.5109
 30
0.0
 70
    32
  0
VERTEX
  5
148C
330
1468
100
AcDbEntity
  8
241
100
AcDbVertex
100
AcDb3dPolylineVertex
 10
80.703
 20
11.5434
 30
0.0
 70
    32
  0
VERTEX
  5
148D
330
1468
100
AcDbEntity
  8
241
100
AcDbVertex
100
AcDb3dPolylineVertex
 10
80.6733
 20
11.5753
 30
0.0
 70
    32
  0
VERTEX
  5
148E
330
1468
100
AcDbEntity
  8
241
100
AcDbVertex
100
AcDb3dPolylineVertex
 10
80.6429
 20
11.6065
 30
0.0
 70
    32
  0
VERTEX
  5
148F
330
1468
100
AcDbEntity
  8
241
100
AcDbVertex
100
AcDb3dPolylineVertex
 10
80.6116
 20
11.6371
 30
0.0
 70
    32
  0
VERTEX
  5
1490
330
1468
100
AcDbEntity
  8
241
100
AcDbVertex
100
AcDb3dPolylineVertex
 10
80.5795
 20
11.6671
 30
0.0
 70
    32
  0
VERTEX
  5
1491
330
1468
100
AcDbEntity
  8
241
100
AcDbVertex
100
AcDb3dPolylineVertex
 10
80.5466
 20
11.6963
 30
0.0
 70
    32
  0
VERTEX
  5
1492
330
1468
100
AcDbEntity
  8
241
100
AcDbVertex
100
AcDb3dPolylineVertex
 10
80.513
 20
11.7248
 30
0.0
 70
    32
  0
VERTEX
  5
1493
330
1468
100
AcDbEntity
  8
241
100
AcDbVertex
100
AcDb3dPolylineVertex
 10
80.4786
 20
11.7526
 30
0.0
 70
    32
  0
VERTEX
  5
1494
330
1468
100
AcDbEntity
  8
241
100
AcDbVertex
100
AcDb3dPolylineVertex
 10
80.4436
 20
11.7796
 30
0.0
 70
    32
  0
VERTEX
  5
1495
330
1468
100
AcDbEntity
  8
241
100
AcDbVertex
100
AcDb3dPolylineVertex
 10
80.4078
 20
11.8059
 30
0.0
 70
    32
  0
VERTEX
  5
1496
330
1468
100
AcDbEntity
  8
241
100
AcDbVertex
100
AcDb3dPolylineVertex
 10
80.3714
 20
11.8314
 30
0.0
 70
    32
  0
VERTEX
  5
1497
330
1468
100
AcDbEntity
  8
241
100
AcDbVertex
100
AcDb3dPolylineVertex
 10
80.3343
 20
11.8561
 30
0.0
 70
    32
  0
VERTEX
  5
1498
330
1468
100
AcDbEntity
  8
241
100
AcDbVertex
100
AcDb3dPolylineVertex
 10
80.2966
 20
11.88
 30
0.0
 70
    32
  0
VERTEX
  5
1499
330
1468
100
AcDbEntity
  8
241
100
AcDbVertex
100
AcDb3dPolylineVertex
 10
80.2583
 20
11.903
 30
0.0
 70
    32
  0
VERTEX
  5
149A
330
1468
100
AcDbEntity
  8
241
100
AcDbVertex
100
AcDb3dPolylineVertex
 10
80.2194
 20
11.9253
 30
0.0
 70
    32
  0
VERTEX
  5
149B
330
1468
100
AcDbEntity
  8
241
100
AcDbVertex
100
AcDb3dPolylineVertex
 10
80.18
 20
11.9467
 30
0.0
 70
    32
  0
VERTEX
  5
149C
330
1468
100
AcDbEntity
  8
241
100
AcDbVertex
100
AcDb3dPolylineVertex
 10
80.14
 20
11.9672
 30
0.0
 70
    32
  0
VERTEX
  5
149D
330
1468
100
AcDbEntity
  8
241
100
AcDbVertex
100
AcDb3dPolylineVertex
 10
80.0995
 20
11.9868
 30
0.0
 70
    32
  0
VERTEX
  5
149E
330
1468
100
AcDbEntity
  8
241
100
AcDbVertex
100
AcDb3dPolylineVertex
 10
80.0585
 20
12.0056
 30
0.0
 70
    32
  0
VERTEX
  5
149F
330
1468
100
AcDbEntity
  8
241
100
AcDbVertex
100
AcDb3dPolylineVertex
 10
80.0171
 20
12.0234
 30
0.0
 70
    32
  0
VERTEX
  5
14A0
330
1468
100
AcDbEntity
  8
241
100
AcDbVertex
100
AcDb3dPolylineVertex
 10
79.9752
 20
12.0404
 30
0.0
 70
    32
  0
VERTEX
  5
14A1
330
1468
100
AcDbEntity
  8
241
100
AcDbVertex
100
AcDb3dPolylineVertex
 10
79.9329
 20
12.0564
 30
0.0
 70
    32
  0
VERTEX
  5
14A2
330
1468
100
AcDbEntity
  8
241
100
AcDbVertex
100
AcDb3dPolylineVertex
 10
79.8903
 20
12.0715
 30
0.0
 70
    32
  0
VERTEX
  5
14A3
330
1468
100
AcDbEntity
  8
241
100
AcDbVertex
100
AcDb3dPolylineVertex
 10
79.8472
 20
12.0857
 30
0.0
 70
    32
  0
VERTEX
  5
14A4
330
1468
100
AcDbEntity
  8
241
100
AcDbVertex
100
AcDb3dPolylineVertex
 10
79.8039
 20
12.0989
 30
0.0
 70
    32
  0
VERTEX
  5
14A5
330
1468
100
AcDbEntity
  8
241
100
AcDbVertex
100
AcDb3dPolylineVertex
 10
79.7602
 20
12.1112
 30
0.0
 70
    32
  0
VERTEX
  5
14A6
330
1468
100
AcDbEntity
  8
241
100
AcDbVertex
100
AcDb3dPolylineVertex
 10
79.7163
 20
12.1225
 30
0.0
 70
    32
  0
VERTEX
  5
14A7
330
1468
100
AcDbEntity
  8
241
100
AcDbVertex
100
AcDb3dPolylineVertex
 10
79.6721
 20
12.1328
 30
0.0
 70
    32
  0
VERTEX
  5
14A8
330
1468
100
AcDbEntity
  8
241
100
AcDbVertex
100
AcDb3dPolylineVertex
 10
79.6277
 20
12.1422
 30
0.0
 70
    32
  0
VERTEX
  5
14A9
330
1468
100
AcDbEntity
  8
241
100
AcDbVertex
100
AcDb3dPolylineVertex
 10
79.583
 20
12.1505
 30
0.0
 70
    32
  0
VERTEX
  5
14AA
330
1468
100
AcDbEntity
  8
241
100
AcDbVertex
100
AcDb3dPolylineVertex
 10
79.5382
 20
12.1579
 30
0.0
 70
    32
  0
VERTEX
  5
14AB
330
1468
100
AcDbEntity
  8
241
100
AcDbVertex
100
AcDb3dPolylineVertex
 10
79.4933
 20
12.1643
 30
0.0
 70
    32
  0
VERTEX
  5
14AC
330
1468
100
AcDbEntity
  8
241
100
AcDbVertex
100
AcDb3dPolylineVertex
 10
79.4482
 20
12.1697
 30
0.0
 70
    32
  0
VERTEX
  5
14AD
330
1468
100
AcDbEntity
  8
241
100
AcDbVertex
100
AcDb3dPolylineVertex
 10
79.4031
 20
12.1742
 30
0.0
 70
    32
  0
VERTEX
  5
14AE
330
1468
100
AcDbEntity
  8
241
100
AcDbVertex
100
AcDb3dPolylineVertex
 10
79.3579
 20
12.1776
 30
0.0
 70
    32
  0
VERTEX
  5
14AF
330
1468
100
AcDbEntity
  8
241
100
AcDbVertex
100
AcDb3dPolylineVertex
 10
79.3126
 20
12.18
 30
0.0
 70
    32
  0
VERTEX
  5
14B0
330
1468
100
AcDbEntity
  8
241
100
AcDbVertex
100
AcDb3dPolylineVertex
 10
79.2673
 20
12.1814
 30
0.0
 70
    32
  0
VERTEX
  5
14B1
330
1468
100
AcDbEntity
  8
241
100
AcDbVertex
100
AcDb3dPolylineVertex
 10
79.2221
 20
12.1818
 30
0.0
 70
    32
  0
VERTEX
  5
14B2
330
1468
100
AcDbEntity
  8
241
100
AcDbVertex
100
AcDb3dPolylineVertex
 10
79.1769
 20
12.1812
 30
0.0
 70
    32
  0
VERTEX
  5
14B3
330
1468
100
AcDbEntity
  8
241
100
AcDbVertex
100
AcDb3dPolylineVertex
 10
79.1317
 20
12.1796
 30
0.0
 70
    32
  0
VERTEX
  5
14B4
330
1468
100
AcDbEntity
  8
241
100
AcDbVertex
100
AcDb3dPolylineVertex
 10
79.0867
 20
12.1769
 30
0.0
 70
    32
  0
VERTEX
  5
14B5
330
1468
100
AcDbEntity
  8
241
100
AcDbVertex
100
AcDb3dPolylineVertex
 10
79.0417
 20
12.1733
 30
0.0
 70
    32
  0
VERTEX
  5
14B6
330
1468
100
AcDbEntity
  8
241
100
AcDbVertex
100
AcDb3dPolylineVertex
 10
78.997
 20
12.1687
 30
0.0
 70
    32
  0
VERTEX
  5
14B7
330
1468
100
AcDbEntity
  8
241
100
AcDbVertex
100
AcDb3dPolylineVertex
 10
78.9524
 20
12.1631
 30
0.0
 70
    32
  0
VERTEX
  5
14B8
330
1468
100
AcDbEntity
  8
241
100
AcDbVertex
100
AcDb3dPolylineVertex
 10
78.908
 20
12.1565
 30
0.0
 70
    32
  0
VERTEX
  5
14B9
330
1468
100
AcDbEntity
  8
241
100
AcDbVertex
100
AcDb3dPolylineVertex
 10
78.8639
 20
12.1489
 30
0.0
 70
    32
  0
VERTEX
  5
14BA
330
1468
100
AcDbEntity
  8
241
100
AcDbVertex
100
AcDb3dPolylineVertex
 10
78.82
 20
12.1403
 30
0.0
 70
    32
  0
VERTEX
  5
14BB
330
1468
100
AcDbEntity
  8
241
100
AcDbVertex
100
AcDb3dPolylineVertex
 10
78.7764
 20
12.1308
 30
0.0
 70
    32
  0
VERTEX
  5
14BC
330
1468
100
AcDbEntity
  8
241
100
AcDbVertex
100
AcDb3dPolylineVertex
 10
78.7331
 20
12.1202
 30
0.0
 70
    32
  0
VERTEX
  5
14BD
330
1468
100
AcDbEntity
  8
241
100
AcDbVertex
100
AcDb3dPolylineVertex
 10
78.6901
 20
12.1088
 30
0.0
 70
    32
  0
VERTEX
  5
14BE
330
1468
100
AcDbEntity
  8
241
100
AcDbVertex
100
AcDb3dPolylineVertex
 10
78.6475
 20
12.0963
 30
0.0
 70
    32
  0
VERTEX
  5
14BF
330
1468
100
AcDbEntity
  8
241
100
AcDbVertex
100
AcDb3dPolylineVertex
 10
78.6053
 20
12.0829
 30
0.0
 70
    32
  0
VERTEX
  5
14C0
330
1468
100
AcDbEntity
  8
241
100
AcDbVertex
100
AcDb3dPolylineVertex
 10
78.5636
 20
12.0685
 30
0.0
 70
    32
  0
VERTEX
  5
14C1
330
1468
100
AcDbEntity
  8
241
100
AcDbVertex
100
AcDb3dPolylineVertex
 10
78.5222
 20
12.0532
 30
0.0
 70
    32
  0
VERTEX
  5
14C2
330
1468
100
AcDbEntity
  8
241
100
AcDbVertex
100
AcDb3dPolylineVertex
 10
78.4813
 20
12.037
 30
0.0
 70
    32
  0
VERTEX
  5
14C3
330
1468
100
AcDbEntity
  8
241
100
AcDbVertex
100
AcDb3dPolylineVertex
 10
78.441
 20
12.0199
 30
0.0
 70
    32
  0
VERTEX
  5
14C4
330
1468
100
AcDbEntity
  8
241
100
AcDbVertex
100
AcDb3dPolylineVertex
 10
78.4011
 20
12.0018
 30
0.0
 70
    32
  0
VERTEX
  5
14C5
330
1468
100
AcDbEntity
  8
241
100
AcDbVertex
100
AcDb3dPolylineVertex
 10
78.3617
 20
11.9829
 30
0.0
 70
    32
  0
VERTEX
  5
14C6
330
1468
100
AcDbEntity
  8
241
100
AcDbVertex
100
AcDb3dPolylineVertex
 10
78.323
 20
11.9631
 30
0.0
 70
    32
  0
VERTEX
  5
14C7
330
1468
100
AcDbEntity
  8
241
100
AcDbVertex
100
AcDb3dPolylineVertex
 10
78.2848
 20
11.9424
 30
0.0
 70
    32
  0
VERTEX
  5
14C8
330
1468
100
AcDbEntity
  8
241
100
AcDbVertex
100
AcDb3dPolylineVertex
 10
78.2472
 20
11.9208
 30
0.0
 70
    32
  0
VERTEX
  5
14C9
330
1468
100
AcDbEntity
  8
241
100
AcDbVertex
100
AcDb3dPolylineVertex
 10
78.2103
 20
11.8984
 30
0.0
 70
    32
  0
VERTEX
  5
14CA
330
1468
100
AcDbEntity
  8
241
100
AcDbVertex
100
AcDb3dPolylineVertex
 10
78.174
 20
11.8752
 30
0.0
 70
    32
  0
VERTEX
  5
14CB
330
1468
100
AcDbEntity
  8
241
100
AcDbVertex
100
AcDb3dPolylineVertex
 10
78.1383
 20
11.8511
 30
0.0
 70
    32
  0
VERTEX
  5
14CC
330
1468
100
AcDbEntity
  8
241
100
AcDbVertex
100
AcDb3dPolylineVertex
 10
78.1034
 20
11.8262
 30
0.0
 70
    32
  0
VERTEX
  5
14CD
330
1468
100
AcDbEntity
  8
241
100
AcDbVertex
100
AcDb3dPolylineVertex
 10
78.0692
 20
11.8006
 30
0.0
 70
    32
  0
VERTEX
  5
14CE
330
1468
100
AcDbEntity
  8
241
100
AcDbVertex
100
AcDb3dPolylineVertex
 10
78.0357
 20
11.7742
 30
0.0
 70
    32
  0
VERTEX
  5
14CF
330
1468
100
AcDbEntity
  8
241
100
AcDbVertex
100
AcDb3dPolylineVertex
 10
78.003
 20
11.747
 30
0.0
 70
    32
  0
VERTEX
  5
14D0
330
1468
100
AcDbEntity
  8
241
100
AcDbVertex
100
AcDb3dPolylineVertex
 10
77.9711
 20
11.719
 30
0.0
 70
    32
  0
VERTEX
  5
14D1
330
1468
100
AcDbEntity
  8
241
100
AcDbVertex
100
AcDb3dPolylineVertex
 10
77.94
 20
11.6904
 30
0.0
 70
    32
  0
VERTEX
  5
14D2
330
1468
100
AcDbEntity
  8
241
100
AcDbVertex
100
AcDb3dPolylineVertex
 10
77.9096
 20
11.661
 30
0.0
 70
    32
  0
VERTEX
  5
14D3
330
1468
100
AcDbEntity
  8
241
100
AcDbVertex
100
AcDb3dPolylineVertex
 10
77.8801
 20
11.631
 30
0.0
 70
    32
  0
VERTEX
  5
14D4
330
1468
100
AcDbEntity
  8
241
100
AcDbVertex
100
AcDb3dPolylineVertex
 10
77.8515
 20
11.6002
 30
0.0
 70
    32
  0
VERTEX
  5
14D5
330
1468
100
AcDbEntity
  8
241
100
AcDbVertex
100
AcDb3dPolylineVertex
 10
77.8237
 20
11.5688
 30
0.0
 70
    32
  0
VERTEX
  5
14D6
330
1468
100
AcDbEntity
  8
241
100
AcDbVertex
100
AcDb3dPolylineVertex
 10
77.7969
 20
11.5368
 30
0.0
 70
    32
  0
VERTEX
  5
14D7
330
1468
100
AcDbEntity
  8
241
100
AcDbVertex
100
AcDb3dPolylineVertex
 10
77.7709
 20
11.5042
 30
0.0
 70
    32
  0
VERTEX
  5
14D8
330
1468
100
AcDbEntity
  8
241
100
AcDbVertex
100
AcDb3dPolylineVertex
 10
77.7458
 20
11.471
 30
0.0
 70
    32
  0
VERTEX
  5
14D9
330
1468
100
AcDbEntity
  8
241
100
AcDbVertex
100
AcDb3dPolylineVertex
 10
77.7217
 20
11.4371
 30
0.0
 70
    32
  0
VERTEX
  5
14DA
330
1468
100
AcDbEntity
  8
241
100
AcDbVertex
100
AcDb3dPolylineVertex
 10
77.6985
 20
11.4028
 30
0.0
 70
    32
  0
VERTEX
  5
14DB
330
1468
100
AcDbEntity
  8
241
100
AcDbVertex
100
AcDb3dPolylineVertex
 10
77.6763
 20
11.3679
 30
0.0
 70
    32
  0
VERTEX
  5
14DC
330
1468
100
AcDbEntity
  8
241
100
AcDbVertex
100
AcDb3dPolylineVertex
 10
77.6551
 20
11.3325
 30
0.0
 70
    32
  0
VERTEX
  5
14DD
330
1468
100
AcDbEntity
  8
241
100
AcDbVertex
100
AcDb3dPolylineVertex
 10
77.6348
 20
11.2966
 30
0.0
 70
    32
  0
VERTEX
  5
14DE
330
1468
100
AcDbEntity
  8
241
100
AcDbVertex
100
AcDb3dPolylineVertex
 10
77.6156
 20
11.2602
 30
0.0
 70
    32
  0
VERTEX
  5
14DF
330
1468
100
AcDbEntity
  8
241
100
AcDbVertex
100
AcDb3dPolylineVertex
 10
77.5973
 20
11.2234
 30
0.0
 70
    32
  0
VERTEX
  5
14E0
330
1468
100
AcDbEntity
  8
241
100
AcDbVertex
100
AcDb3dPolylineVertex
 10
77.5801
 20
11.1861
 30
0.0
 70
    32
  0
VERTEX
  5
14E1
330
1468
100
AcDbEntity
  8
241
100
AcDbVertex
100
AcDb3dPolylineVertex
 10
77.5639
 20
11.1484
 30
0.0
 70
    32
  0
VERTEX
  5
14E2
330
1468
100
AcDbEntity
  8
241
100
AcDbVertex
100
AcDb3dPolylineVertex
 10
77.5488
 20
11.1104
 30
0.0
 70
    32
  0
VERTEX
  5
14E3
330
1468
100
AcDbEntity
  8
241
100
AcDbVertex
100
AcDb3dPolylineVertex
 10
77.5347
 20
11.072
 30
0.0
 70
    32
  0
VERTEX
  5
14E4
330
1468
100
AcDbEntity
  8
241
100
AcDbVertex
100
AcDb3dPolylineVertex
 10
77.5216
 20
11.0333
 30
0.0
 70
    32
  0
VERTEX
  5
14E5
330
1468
100
AcDbEntity
  8
241
100
AcDbVertex
100
AcDb3dPolylineVertex
 10
77.5097
 20
10.9942
 30
0.0
 70
    32
  0
VERTEX
  5
14E6
330
1468
100
AcDbEntity
  8
241
100
AcDbVertex
100
AcDb3dPolylineVertex
 10
77.4988
 20
10.9549
 30
0.0
 70
    32
  0
VERTEX
  5
14E7
330
1468
100
AcDbEntity
  8
241
100
AcDbVertex
100
AcDb3dPolylineVertex
 10
77.489
 20
10.9153
 30
0.0
 70
    32
  0
VERTEX
  5
14E8
330
1468
100
AcDbEntity
  8
241
100
AcDbVertex
100
AcDb3dPolylineVertex
 10
77.4802
 20
10.8754
 30
0.0
 70
    32
  0
VERTEX
  5
14E9
330
1468
100
AcDbEntity
  8
241
100
AcDbVertex
100
AcDb3dPolylineVertex
 10
77.4726
 20
10.8354
 30
0.0
 70
    32
  0
SEQEND
  5
14EA
330
1468
100
AcDbEntity
  8
241
  0
LINE
  5
14EB
330
E56
100
AcDbEntity
  8
240
100
AcDbLine
 10
83.9411388
 20
1.50510028
 30
0.0
 11
85.0
 21
-4.5
 31
0.0
  0
LINE
  5
14EC
330
E56
100
AcDbEntity
  8
240
100
AcDbLine
 10
85.0
 20
-4.5
 30
0.0
 11
83.95
 21
-4.11783125
 31
0.0
  0
LINE
  5
14ED
330
E56
100
AcDbEntity
  8
240
100
AcDbLine
 10
83.95
 20
1.50353781
 30
0.0
 11
83.9411388
 21
1.50510028
 31
0.0
  0
POLYLINE
  5
14EE
330
E56
100
AcDbEntity
  8
241
100
AcDb3dPolyline
 66
     1
 10
0.0
 20
0.0
 30
0.0
 70
     8
  0
VERTEX
  5
14EF
330
14EE
100
AcDbEntity
  8
241
100
AcDbVertex
100
AcDb3dPolylineVertex
 10
77.4726
 20
10.8354
 30
0.0
 70
    32
  0
VERTEX
  5
14F0
330
14EE
100
AcDbEntity
  8
241
100
AcDbVertex
100
AcDb3dPolylineVertex
 10
77.4636
 20
10.7813
 30
0.0
 70
    32
  0
VERTEX
  5
14F1
330
14EE
100
AcDbEntity
  8
241
100
AcDbVertex
100
AcDb3dPolylineVertex
 10
77.4558
 20
10.7271
 30
0.0
 70
    32
  0
VERTEX
  5
14F2
330
14EE
100
AcDbEntity
  8
241
100
AcDbVertex
100
AcDb3dPolylineVertex
 10
77.449
 20
10.6727
 30
0.0
 70
    32
  0
VERTEX
  5
14F3
330
14EE
100
AcDbEntity
  8
241
100
AcDbVertex
100
AcDb3dPolylineVertex
 10
77.4434
 20
10.6183
 30
0.0
 70
    32
  0
VERTEX
  5
14F4
330
14EE
100
AcDbEntity
  8
241
100
AcDbVertex
100
AcDb3dPolylineVertex
 10
77.4388
 20
10.5638
 30
0.0
 70
    32
  0
VERTEX
  5
14F5
330
14EE
100
AcDbEntity
  8
241
100
AcDbVertex
100
AcDb3dPolylineVertex
 10
77.4354
 20
10.5093
 30
0.0
 70
    32
  0
VERTEX
  5
14F6
330
14EE
100
AcDbEntity
  8
241
100
AcDbVertex
100
AcDb3dPolylineVertex
 10
77.4331
 20
10.4547
 30
0.0
 70
    32
  0
VERTEX
  5
14F7
330
14EE
100
AcDbEntity
  8
241
100
AcDbVertex
100
AcDb3dPolylineVertex
 10
77.432
 20
10.4002
 30
0.0
 70
    32
  0
VERTEX
  5
14F8
330
14EE
100
AcDbEntity
  8
241
100
AcDbVertex
100
AcDb3dPolylineVertex
 10
77.4319
 20
10.3458
 30
0.0
 70
    32
  0
VERTEX
  5
14F9
330
14EE
100
AcDbEntity
  8
241
100
AcDbVertex
100
AcDb3dPolylineVertex
 10
77.433
 20
10.2915
 30
0.0
 70
    32
  0
VERTEX
  5
14FA
330
14EE
100
AcDbEntity
  8
241
100
AcDbVertex
100
AcDb3dPolylineVertex
 10
77.4352
 20
10.2373
 30
0.0
 70
    32
  0
VERTEX
  5
14FB
330
14EE
100
AcDbEntity
  8
241
100
AcDbVertex
100
AcDb3dPolylineVertex
 10
77.4385
 20
10.1833
 30
0.0
 70
    32
  0
VERTEX
  5
14FC
330
14EE
100
AcDbEntity
  8
241
100
AcDbVertex
100
AcDb3dPolylineVertex
 10
77.4429
 20
10.1294
 30
0.0
 70
    32
  0
VERTEX
  5
14FD
330
14EE
100
AcDbEntity
  8
241
100
AcDbVertex
100
AcDb3dPolylineVertex
 10
77.4485
 20
10.0758
 30
0.0
 70
    32
  0
VERTEX
  5
14FE
330
14EE
100
AcDbEntity
  8
241
100
AcDbVertex
100
AcDb3dPolylineVertex
 10
77.4551
 20
10.0225
 30
0.0
 70
    32
  0
VERTEX
  5
14FF
330
14EE
100
AcDbEntity
  8
241
100
AcDbVertex
100
AcDb3dPolylineVertex
 10
77.4629
 20
9.96948
 30
0.0
 70
    32
  0
VERTEX
  5
1500
330
14EE
100
AcDbEntity
  8
241
100
AcDbVertex
100
AcDb3dPolylineVertex
 10
77.4718
 20
9.91677
 30
0.0
 70
    32
  0
VERTEX
  5
1501
330
14EE
100
AcDbEntity
  8
241
100
AcDbVertex
100
AcDb3dPolylineVertex
 10
77.4818
 20
9.86442
 30
0.0
 70
    32
  0
VERTEX
  5
1502
330
14EE
100
AcDbEntity
  8
241
100
AcDbVertex
100
AcDb3dPolylineVertex
 10
77.4928
 20
9.81247
 30
0.0
 70
    32
  0
VERTEX
  5
1503
330
14EE
100
AcDbEntity
  8
241
100
AcDbVertex
100
AcDb3dPolylineVertex
 10
77.505
 20
9.76094
 30
0.0
 70
    32
  0
VERTEX
  5
1504
330
14EE
100
AcDbEntity
  8
241
100
AcDbVertex
100
AcDb3dPolylineVertex
 10
77.5182
 20
9.70986
 30
0.0
 70
    32
  0
VERTEX
  5
1505
330
14EE
100
AcDbEntity
  8
241
100
AcDbVertex
100
AcDb3dPolylineVertex
 10
77.5325
 20
9.65926
 30
0.0
 70
    32
  0
VERTEX
  5
1506
330
14EE
100
AcDbEntity
  8
241
100
AcDbVertex
100
AcDb3dPolylineVertex
 10
77.5478
 20
9.60918
 30
0.0
 70
    32
  0
VERTEX
  5
1507
330
14EE
100
AcDbEntity
  8
241
100
AcDbVertex
100
AcDb3dPolylineVertex
 10
77.5642
 20
9.55965
 30
0.0
 70
    32
  0
VERTEX
  5
1508
330
14EE
100
AcDbEntity
  8
241
100
AcDbVertex
100
AcDb3dPolylineVertex
 10
77.5817
 20
9.51069
 30
0.0
 70
    32
  0
VERTEX
  5
1509
330
14EE
100
AcDbEntity
  8
241
100
AcDbVertex
100
AcDb3dPolylineVertex
 10
77.6002
 20
9.46233
 30
0.0
 70
    32
  0
VERTEX
  5
150A
330
14EE
100
AcDbEntity
  8
241
100
AcDbVertex
100
AcDb3dPolylineVertex
 10
77.6197
 20
9.41461
 30
0.0
 70
    32
  0
VERTEX
  5
150B
330
14EE
100
AcDbEntity
  8
241
100
AcDbVertex
100
AcDb3dPolylineVertex
 10
77.6402
 20
9.36755
 30
0.0
 70
    32
  0
VERTEX
  5
150C
330
14EE
100
AcDbEntity
  8
241
100
AcDbVertex
100
AcDb3dPolylineVertex
 10
77.6617
 20
9.32118
 30
0.0
 70
    32
  0
VERTEX
  5
150D
330
14EE
100
AcDbEntity
  8
241
100
AcDbVertex
100
AcDb3dPolylineVertex
 10
77.6842
 20
9.27553
 30
0.0
 70
    32
  0
VERTEX
  5
150E
330
14EE
100
AcDbEntity
  8
241
100
AcDbVertex
100
AcDb3dPolylineVertex
 10
77.7077
 20
9.23063
 30
0.0
 70
    32
  0
VERTEX
  5
150F
330
14EE
100
AcDbEntity
  8
241
100
AcDbVertex
100
AcDb3dPolylineVertex
 10
77.7321
 20
9.1865
 30
0.0
 70
    32
  0
VERTEX
  5
1510
330
14EE
100
AcDbEntity
  8
241
100
AcDbVertex
100
AcDb3dPolylineVertex
 10
77.7574
 20
9.14317
 30
0.0
 70
    32
  0
VERTEX
  5
1511
330
14EE
100
AcDbEntity
  8
241
100
AcDbVertex
100
AcDb3dPolylineVertex
 10
77.7837
 20
9.10066
 30
0.0
 70
    32
  0
VERTEX
  5
1512
330
14EE
100
AcDbEntity
  8
241
100
AcDbVertex
100
AcDb3dPolylineVertex
 10
77.8109
 20
9.05901
 30
0.0
 70
    32
  0
VERTEX
  5
1513
330
14EE
100
AcDbEntity
  8
241
100
AcDbVertex
100
AcDb3dPolylineVertex
 10
77.839
 20
9.01823
 30
0.0
 70
    32
  0
VERTEX
  5
1514
330
14EE
100
AcDbEntity
  8
241
100
AcDbVertex
100
AcDb3dPolylineVertex
 10
77.868
 20
8.97836
 30
0.0
 70
    32
  0
VERTEX
  5
1515
330
14EE
100
AcDbEntity
  8
241
100
AcDbVertex
100
AcDb3dPolylineVertex
 10
77.8978
 20
8.9394
 30
0.0
 70
    32
  0
VERTEX
  5
1516
330
14EE
100
AcDbEntity
  8
241
100
AcDbVertex
100
AcDb3dPolylineVertex
 10
77.9285
 20
8.9014
 30
0.0
 70
    32
  0
VERTEX
  5
1517
330
14EE
100
AcDbEntity
  8
241
100
AcDbVertex
100
AcDb3dPolylineVertex
 10
77.9599
 20
8.86437
 30
0.0
 70
    32
  0
VERTEX
  5
1518
330
14EE
100
AcDbEntity
  8
241
100
AcDbVertex
100
AcDb3dPolylineVertex
 10
77.9922
 20
8.82833
 30
0.0
 70
    32
  0
VERTEX
  5
1519
330
14EE
100
AcDbEntity
  8
241
100
AcDbVertex
100
AcDb3dPolylineVertex
 10
78.0253
 20
8.79331
 30
0.0
 70
    32
  0
VERTEX
  5
151A
330
14EE
100
AcDbEntity
  8
241
100
AcDbVertex
100
AcDb3dPolylineVertex
 10
78.0591
 20
8.75933
 30
0.0
 70
    32
  0
VERTEX
  5
151B
330
14EE
100
AcDbEntity
  8
241
100
AcDbVertex
100
AcDb3dPolylineVertex
 10
78.0937
 20
8.7264
 30
0.0
 70
    32
  0
VERTEX
  5
151C
330
14EE
100
AcDbEntity
  8
241
100
AcDbVertex
100
AcDb3dPolylineVertex
 10
78.129
 20
8.69455
 30
0.0
 70
    32
  0
VERTEX
  5
151D
330
14EE
100
AcDbEntity
  8
241
100
AcDbVertex
100
AcDb3dPolylineVertex
 10
78.1651
 20
8.66379
 30
0.0
 70
    32
  0
VERTEX
  5
151E
330
14EE
100
AcDbEntity
  8
241
100
AcDbVertex
100
AcDb3dPolylineVertex
 10
78.2017
 20
8.63415
 30
0.0
 70
    32
  0
VERTEX
  5
151F
330
14EE
100
AcDbEntity
  8
241
100
AcDbVertex
100
AcDb3dPolylineVertex
 10
78.2391
 20
8.60564
 30
0.0
 70
    32
  0
VERTEX
  5
1520
330
14EE
100
AcDbEntity
  8
241
100
AcDbVertex
100
AcDb3dPolylineVertex
 10
78.2771
 20
8.57828
 30
0.0
 70
    32
  0
VERTEX
  5
1521
330
14EE
100
AcDbEntity
  8
241
100
AcDbVertex
100
AcDb3dPolylineVertex
 10
78.3157
 20
8.55209
 30
0.0
 70
    32
  0
VERTEX
  5
1522
330
14EE
100
AcDbEntity
  8
241
100
AcDbVertex
100
AcDb3dPolylineVertex
 10
78.3549
 20
8.52708
 30
0.0
 70
    32
  0
VERTEX
  5
1523
330
14EE
100
AcDbEntity
  8
241
100
AcDbVertex
100
AcDb3dPolylineVertex
 10
78.3946
 20
8.50326
 30
0.0
 70
    32
  0
VERTEX
  5
1524
330
14EE
100
AcDbEntity
  8
241
100
AcDbVertex
100
AcDb3dPolylineVertex
 10
78.4349
 20
8.48066
 30
0.0
 70
    32
  0
VERTEX
  5
1525
330
14EE
100
AcDbEntity
  8
241
100
AcDbVertex
100
AcDb3dPolylineVertex
 10
78.4757
 20
8.45928
 30
0.0
 70
    32
  0
VERTEX
  5
1526
330
14EE
100
AcDbEntity
  8
241
100
AcDbVertex
100
AcDb3dPolylineVertex
 10
78.517
 20
8.43914
 30
0.0
 70
    32
  0
VERTEX
  5
1527
330
14EE
100
AcDbEntity
  8
241
100
AcDbVertex
100
AcDb3dPolylineVertex
 10
78.5588
 20
8.42025
 30
0.0
 70
    32
  0
VERTEX
  5
1528
330
14EE
100
AcDbEntity
  8
241
100
AcDbVertex
100
AcDb3dPolylineVertex
 10
78.601
 20
8.40262
 30
0.0
 70
    32
  0
VERTEX
  5
1529
330
14EE
100
AcDbEntity
  8
241
100
AcDbVertex
100
AcDb3dPolylineVertex
 10
78.6437
 20
8.38627
 30
0.0
 70
    32
  0
VERTEX
  5
152A
330
14EE
100
AcDbEntity
  8
241
100
AcDbVertex
100
AcDb3dPolylineVertex
 10
78.6867
 20
8.37119
 30
0.0
 70
    32
  0
VERTEX
  5
152B
330
14EE
100
AcDbEntity
  8
241
100
AcDbVertex
100
AcDb3dPolylineVertex
 10
78.7301
 20
8.35741
 30
0.0
 70
    32
  0
VERTEX
  5
152C
330
14EE
100
AcDbEntity
  8
241
100
AcDbVertex
100
AcDb3dPolylineVertex
 10
78.7738
 20
8.34492
 30
0.0
 70
    32
  0
VERTEX
  5
152D
330
14EE
100
AcDbEntity
  8
241
100
AcDbVertex
100
AcDb3dPolylineVertex
 10
78.8179
 20
8.33374
 30
0.0
 70
    32
  0
VERTEX
  5
152E
330
14EE
100
AcDbEntity
  8
241
100
AcDbVertex
100
AcDb3dPolylineVertex
 10
78.8622
 20
8.32388
 30
0.0
 70
    32
  0
VERTEX
  5
152F
330
14EE
100
AcDbEntity
  8
241
100
AcDbVertex
100
AcDb3dPolylineVertex
 10
78.9068
 20
8.31533
 30
0.0
 70
    32
  0
VERTEX
  5
1530
330
14EE
100
AcDbEntity
  8
241
100
AcDbVertex
100
AcDb3dPolylineVertex
 10
78.9516
 20
8.30811
 30
0.0
 70
    32
  0
VERTEX
  5
1531
330
14EE
100
AcDbEntity
  8
241
100
AcDbVertex
100
AcDb3dPolylineVertex
 10
78.9967
 20
8.30222
 30
0.0
 70
    32
  0
VERTEX
  5
1532
330
14EE
100
AcDbEntity
  8
241
100
AcDbVertex
100
AcDb3dPolylineVertex
 10
79.0419
 20
8.29766
 30
0.0
 70
    32
  0
VERTEX
  5
1533
330
14EE
100
AcDbEntity
  8
241
100
AcDbVertex
100
AcDb3dPolylineVertex
 10
79.0872
 20
8.29443
 30
0.0
 70
    32
  0
VERTEX
  5
1534
330
14EE
100
AcDbEntity
  8
241
100
AcDbVertex
100
AcDb3dPolylineVertex
 10
79.1327
 20
8.29254
 30
0.0
 70
    32
  0
VERTEX
  5
1535
330
14EE
100
AcDbEntity
  8
241
100
AcDbVertex
100
AcDb3dPolylineVertex
 10
79.1783
 20
8.29199
 30
0.0
 70
    32
  0
VERTEX
  5
1536
330
14EE
100
AcDbEntity
  8
241
100
AcDbVertex
100
AcDb3dPolylineVertex
 10
79.224
 20
8.29278
 30
0.0
 70
    32
  0
VERTEX
  5
1537
330
14EE
100
AcDbEntity
  8
241
100
AcDbVertex
100
AcDb3dPolylineVertex
 10
79.2697
 20
8.29491
 30
0.0
 70
    32
  0
VERTEX
  5
1538
330
14EE
100
AcDbEntity
  8
241
100
AcDbVertex
100
AcDb3dPolylineVertex
 10
79.3154
 20
8.29837
 30
0.0
 70
    32
  0
VERTEX
  5
1539
330
14EE
100
AcDbEntity
  8
241
100
AcDbVertex
100
AcDb3dPolylineVertex
 10
79.3611
 20
8.30317
 30
0.0
 70
    32
  0
VERTEX
  5
153A
330
14EE
100
AcDbEntity
  8
241
100
AcDbVertex
100
AcDb3dPolylineVertex
 10
79.4068
 20
8.3093
 30
0.0
 70
    32
  0
VERTEX
  5
153B
330
14EE
100
AcDbEntity
  8
241
100
AcDbVertex
100
AcDb3dPolylineVertex
 10
79.4524
 20
8.31676
 30
0.0
 70
    32
  0
VERTEX
  5
153C
330
14EE
100
AcDbEntity
  8
241
100
AcDbVertex
100
AcDb3dPolylineVertex
 10
79.4979
 20
8.32554
 30
0.0
 70
    32
  0
VERTEX
  5
153D
330
14EE
100
AcDbEntity
  8
241
100
AcDbVertex
100
AcDb3dPolylineVertex
 10
79.5432
 20
8.33564
 30
0.0
 70
    32
  0
VERTEX
  5
153E
330
14EE
100
AcDbEntity
  8
241
100
AcDbVertex
100
AcDb3dPolylineVertex
 10
79.5885
 20
8.34705
 30
0.0
 70
    32
  0
VERTEX
  5
153F
330
14EE
100
AcDbEntity
  8
241
100
AcDbVertex
100
AcDb3dPolylineVertex
 10
79.6335
 20
8.35977
 30
0.0
 70
    32
  0
VERTEX
  5
1540
330
14EE
100
AcDbEntity
  8
241
100
AcDbVertex
100
AcDb3dPolylineVertex
 10
79.6784
 20
8.37378
 30
0.0
 70
    32
  0
VERTEX
  5
1541
330
14EE
100
AcDbEntity
  8
241
100
AcDbVertex
100
AcDb3dPolylineVertex
 10
79.723
 20
8.38909
 30
0.0
 70
    32
  0
VERTEX
  5
1542
330
14EE
100
AcDbEntity
  8
241
100
AcDbVertex
100
AcDb3dPolylineVertex
 10
79.7673
 20
8.40567
 30
0.0
 70
    32
  0
VERTEX
  5
1543
330
14EE
100
AcDbEntity
  8
241
100
AcDbVertex
100
AcDb3dPolylineVertex
 10
79.8114
 20
8.42353
 30
0.0
 70
    32
  0
VERTEX
  5
1544
330
14EE
100
AcDbEntity
  8
241
100
AcDbVertex
100
AcDb3dPolylineVertex
 10
79.8552
 20
8.44264
 30
0.0
 70
    32
  0
VERTEX
  5
1545
330
14EE
100
AcDbEntity
  8
241
100
AcDbVertex
100
AcDb3dPolylineVertex
 10
79.8986
 20
8.463
 30
0.0
 70
    32
  0
VERTEX
  5
1546
330
14EE
100
AcDbEntity
  8
241
100
AcDbVertex
100
AcDb3dPolylineVertex
 10
79.9416
 20
8.4846
 30
0.0
 70
    32
  0
VERTEX
  5
1547
330
14EE
100
AcDbEntity
  8
241
100
AcDbVertex
100
AcDb3dPolylineVertex
 10
79.9843
 20
8.50742
 30
0.0
 70
    32
  0
VERTEX
  5
1548
330
14EE
100
AcDbEntity
  8
241
100
AcDbVertex
100
AcDb3dPolylineVertex
 10
80.0266
 20
8.53145
 30
0.0
 70
    32
  0
VERTEX
  5
1549
330
14EE
100
AcDbEntity
  8
241
100
AcDbVertex
100
AcDb3dPolylineVertex
 10
80.0684
 20
8.55667
 30
0.0
 70
    32
  0
VERTEX
  5
154A
330
14EE
100
AcDbEntity
  8
241
100
AcDbVertex
100
AcDb3dPolylineVertex
 10
80.1097
 20
8.58307
 30
0.0
 70
    32
  0
VERTEX
  5
154B
330
14EE
100
AcDbEntity
  8
241
100
AcDbVertex
100
AcDb3dPolylineVertex
 10
80.1506
 20
8.61064
 30
0.0
 70
    32
  0
VERTEX
  5
154C
330
14EE
100
AcDbEntity
  8
241
100
AcDbVertex
100
AcDb3dPolylineVertex
 10
80.1909
 20
8.63935
 30
0.0
 70
    32
  0
VERTEX
  5
154D
330
14EE
100
AcDbEntity
  8
241
100
AcDbVertex
100
AcDb3dPolylineVertex
 10
80.2307
 20
8.66919
 30
0.0
 70
    32
  0
VERTEX
  5
154E
330
14EE
100
AcDbEntity
  8
241
100
AcDbVertex
100
AcDb3dPolylineVertex
 10
80.27
 20
8.70014
 30
0.0
 70
    32
  0
VERTEX
  5
154F
330
14EE
100
AcDbEntity
  8
241
100
AcDbVertex
100
AcDb3dPolylineVertex
 10
80.3086
 20
8.73218
 30
0.0
 70
    32
  0
VERTEX
  5
1550
330
14EE
100
AcDbEntity
  8
241
100
AcDbVertex
100
AcDb3dPolylineVertex
 10
80.3467
 20
8.7653
 30
0.0
 70
    32
  0
VERTEX
  5
1551
330
14EE
100
AcDbEntity
  8
241
100
AcDbVertex
100
AcDb3dPolylineVertex
 10
80.3841
 20
8.79947
 30
0.0
 70
    32
  0
VERTEX
  5
1552
330
14EE
100
AcDbEntity
  8
241
100
AcDbVertex
100
AcDb3dPolylineVertex
 10
80.4208
 20
8.83468
 30
0.0
 70
    32
  0
VERTEX
  5
1553
330
14EE
100
AcDbEntity
  8
241
100
AcDbVertex
100
AcDb3dPolylineVertex
 10
80.4569
 20
8.8709
 30
0.0
 70
    32
  0
VERTEX
  5
1554
330
14EE
100
AcDbEntity
  8
241
100
AcDbVertex
100
AcDb3dPolylineVertex
 10
80.4923
 20
8.9081
 30
0.0
 70
    32
  0
VERTEX
  5
1555
330
14EE
100
AcDbEntity
  8
241
100
AcDbVertex
100
AcDb3dPolylineVertex
 10
80.5269
 20
8.94627
 30
0.0
 70
    32
  0
VERTEX
  5
1556
330
14EE
100
AcDbEntity
  8
241
100
AcDbVertex
100
AcDb3dPolylineVertex
 10
80.5608
 20
8.98539
 30
0.0
 70
    32
  0
VERTEX
  5
1557
330
14EE
100
AcDbEntity
  8
241
100
AcDbVertex
100
AcDb3dPolylineVertex
 10
80.5939
 20
9.02543
 30
0.0
 70
    32
  0
VERTEX
  5
1558
330
14EE
100
AcDbEntity
  8
241
100
AcDbVertex
100
AcDb3dPolylineVertex
 10
80.6263
 20
9.06637
 30
0.0
 70
    32
  0
VERTEX
  5
1559
330
14EE
100
AcDbEntity
  8
241
100
AcDbVertex
100
AcDb3dPolylineVertex
 10
80.6579
 20
9.10817
 30
0.0
 70
    32
  0
VERTEX
  5
155A
330
14EE
100
AcDbEntity
  8
241
100
AcDbVertex
100
AcDb3dPolylineVertex
 10
80.6886
 20
9.15083
 30
0.0
 70
    32
  0
VERTEX
  5
155B
330
14EE
100
AcDbEntity
  8
241
100
AcDbVertex
100
AcDb3dPolylineVertex
 10
80.7185
 20
9.1943
 30
0.0
 70
    32
  0
VERTEX
  5
155C
330
14EE
100
AcDbEntity
  8
241
100
AcDbVertex
100
AcDb3dPolylineVertex
 10
80.7475
 20
9.23857
 30
0.0
 70
    32
  0
VERTEX
  5
155D
330
14EE
100
AcDbEntity
  8
241
100
AcDbVertex
100
AcDb3dPolylineVertex
 10
80.7757
 20
9.28361
 30
0.0
 70
    32
  0
VERTEX
  5
155E
330
14EE
100
AcDbEntity
  8
241
100
AcDbVertex
100
AcDb3dPolylineVertex
 10
80.803
 20
9.32939
 30
0.0
 70
    32
  0
VERTEX
  5
155F
330
14EE
100
AcDbEntity
  8
241
100
AcDbVertex
100
AcDb3dPolylineVertex
 10
80.8293
 20
9.37589
 30
0.0
 70
    32
  0
VERTEX
  5
1560
330
14EE
100
AcDbEntity
  8
241
100
AcDbVertex
100
AcDb3dPolylineVertex
 10
80.8548
 20
9.42307
 30
0.0
 70
    32
  0
VERTEX
  5
1561
330
14EE
100
AcDbEntity
  8
241
100
AcDbVertex
100
AcDb3dPolylineVertex
 10
80.8793
 20
9.4709
 30
0.0
 70
    32
  0
VERTEX
  5
1562
330
14EE
100
AcDbEntity
  8
241
100
AcDbVertex
100
AcDb3dPolylineVertex
 10
80.9028
 20
9.51937
 30
0.0
 70
    32
  0
VERTEX
  5
1563
330
14EE
100
AcDbEntity
  8
241
100
AcDbVertex
100
AcDb3dPolylineVertex
 10
80.9254
 20
9.56843
 30
0.0
 70
    32
  0
VERTEX
  5
1564
330
14EE
100
AcDbEntity
  8
241
100
AcDbVertex
100
AcDb3dPolylineVertex
 10
80.947
 20
9.61806
 30
0.0
 70
    32
  0
VERTEX
  5
1565
330
14EE
100
AcDbEntity
  8
241
100
AcDbVertex
100
AcDb3dPolylineVertex
 10
80.9676
 20
9.66824
 30
0.0
 70
    32
  0
VERTEX
  5
1566
330
14EE
100
AcDbEntity
  8
241
100
AcDbVertex
100
AcDb3dPolylineVertex
 10
80.9872
 20
9.71892
 30
0.0
 70
    32
  0
VERTEX
  5
1567
330
14EE
100
AcDbEntity
  8
241
100
AcDbVertex
100
AcDb3dPolylineVertex
 10
81.0057
 20
9.77008
 30
0.0
 70
    32
  0
VERTEX
  5
1568
330
14EE
100
AcDbEntity
  8
241
100
AcDbVertex
100
AcDb3dPolylineVertex
 10
81.0233
 20
9.82169
 30
0.0
 70
    32
  0
VERTEX
  5
1569
330
14EE
100
AcDbEntity
  8
241
100
AcDbVertex
100
AcDb3dPolylineVertex
 10
81.0398
 20
9.87372
 30
0.0
 70
    32
  0
VERTEX
  5
156A
330
14EE
100
AcDbEntity
  8
241
100
AcDbVertex
100
AcDb3dPolylineVertex
 10
81.0552
 20
9.92613
 30
0.0
 70
    32
  0
VERTEX
  5
156B
330
14EE
100
AcDbEntity
  8
241
100
AcDbVertex
100
AcDb3dPolylineVertex
 10
81.0696
 20
9.9789
 30
0.0
 70
    32
  0
VERTEX
  5
156C
330
14EE
100
AcDbEntity
  8
241
100
AcDbVertex
100
AcDb3dPolylineVertex
 10
81.0829
 20
10.032
 30
0.0
 70
    32
  0
VERTEX
  5
156D
330
14EE
100
AcDbEntity
  8
241
100
AcDbVertex
100
AcDb3dPolylineVertex
 10
81.0952
 20
10.0854
 30
0.0
 70
    32
  0
VERTEX
  5
156E
330
14EE
100
AcDbEntity
  8
241
100
AcDbVertex
100
AcDb3dPolylineVertex
 10
81.1063
 20
10.139
 30
0.0
 70
    32
  0
VERTEX
  5
156F
330
14EE
100
AcDbEntity
  8
241
100
AcDbVertex
100
AcDb3dPolylineVertex
 10
81.1164
 20
10.1929
 30
0.0
 70
    32
  0
SEQEND
  5
1570
330
14EE
100
AcDbEntity
  8
241
  0
ENDBLK
  5
E58
330
E56
100
AcDbEntity
  8
0
100
AcDbBlockEnd
  0
ENDSEC
  0
SECTION
  2
ENTITIES
  0
INSERT
  5
6E6
330
1A
100
AcDbEntity
  8
245
100
AcDbBlockReference
  2
矢印なし
 10
175.62382697
 20
90.55123572
 30
0.0
  0
TEXT
  5
ABB
330
1A
100
AcDbEntity
  8
241
100
AcDbText
 10
-48.4
 20
56.0
 30
0.0
 40
5.0
  1
BBT30-FCR32102L-85
  7
YOKO
 11
-48.4
 21
56.0
 31
0.0
100
AcDbText
 73
     1
  0
DIMENSION
  5
DDD
330
1A
100
AcDbEntity
  8
250
  6
CONTINUOUS
100
AcDbDimension
  2
*D2
 10
98.0
 20
16.0
 30
0.0
 11
95.6
 21
0.0
 31
0.0
 70
    32
  1
{\H2.8;\U+2205}<>
  3
BIGT
100
AcDbAlignedDimension
 13
85.0
 23
-16.0
 33
0.0
 14
85.0
 24
16.0
 34
0.0
 50
90.0
100
AcDbRotatedDimension
  0
DIMENSION
  5
DEC
330
1A
100
AcDbEntity
  8
250
  6
CONTINUOUS
100
AcDbDimension
  2
*D3
 10
85.0
 20
28.0
 30
0.0
 11
80.0
 21
30.4
 31
0.0
 70
    32
  3
BIGT
100
AcDbAlignedDimension
 13
75.0
 23
16.0
 33
0.0
 14
85.0
 24
16.0
 34
0.0
100
AcDbRotatedDimension
  0
DIMENSION
  5
DFB
330
1A
100
AcDbEntity
  8
250
  6
CONTINUOUS
100
AcDbDimension
  2
*D4
 10
85.0
 20
35.0
 30
0.0
 11
55.0
 21
37.4
 31
0.0
 70
    32
  3
BIGT
100
AcDbAlignedDimension
 13
25.0
 23
15.34797623
 33
0.0
 14
85.0
 24
16.0
 34
0.0
100
AcDbRotatedDimension
  0
DIMENSION
  5
E0A
330
1A
100
AcDbEntity
  8
250
  6
CONTINUOUS
100
AcDbDimension
  2
*D5
 10
85.0
 20
42.0
 30
0.0
 11
42.5
 21
44.4
 31
0.0
 70
    32
  3
BIGT
100
AcDbAlignedDimension
 13
0.0
 23
15.875
 33
0.0
 14
85.0
 24
16.0
 34
0.0
100
AcDbRotatedDimension
  0
MTEXT
  5
13C2
330
1A
100
AcDbEntity
  8
251
  6
CONTINUOUS
100
AcDbMText
 10
-42.44207074
 20
-20.23884234
 30
0.0
 40
2.8
 41
0.0
 71
     7
 72
     1
  1
BBT30
  7
YOKO
1001
ITEMNAME
1000
LNSP3
1001
ACAD
1000
MTEXTBEGIN
1070
    73
1070
     1
1070
    44
1040
1.0
1070
    74
1070
     0
1000
MTEXTEND
1000
MTEXTBEGIN
1070
    73
1070
     1
1070
    44
1040
1.0
1070
    74
1070
     0
1000
MTEXTEND
1000
MTEXTBEGIN
1070
    73
1070
     1
1070
    44
1040
1.0
1070
    74
1070
     0
1000
MTEXTEND
1000
MTEXTBEGIN
1070
    73
1070
     1
1070
    44
1040
1.0
1070
    74
1070
     0
1000
MTEXTEND
  0
LEADER
  5
13C3
330
1A
100
AcDbEntity
  8
250
  6
CONTINUOUS
100
AcDbLeader
  3
BIGT
 76
     2
 10
-22.51609141
 20
-12.5913258
 30
0.0
 10
-27.50873741
 20
-21.23884234
 30
0.0
1001
ACAD
1000
DSTYLE
1002
{
1070
     6
1000
OPEN
1070
   343
1005
594
1002
}
  0
LINE
  5
13C4
330
1A
100
AcDbEntity
  8
250
  6
CONTINUOUS
100
AcDbLine
 10
-27.50873741
 20
-21.23884234
 30
0.0
 11
-45.24207074
 21
-21.23884234
 31
0.0
1001
ITEMNAME
1000
LNSP2
  0
INSERT
  5
1571
330
1A
100
AcDbEntity
  8
245
100
AcDbBlockReference
  2
1
 10
0.0
 20
0.0
 30
0.0
  0
VIEWPORT
  5
22
330
17
100
AcDbEntity
 67
     1
  8
0
100
AcDbViewport
 10
261.51769912
 20
148.5
 30
0.0
 40
523.03539823
 41
297.0
 68
     1
 69
     1
1001
ACAD
1000
MVIEW
1002
{
1070
    16
1010
0.0
1020
0.0
1030
0.0
1010
0.0
1020
0.0
1030
1.0
1040
0.0
1040
297.0
1040
261.51769912
1040
148.5
1040
50.0
1040
0.0
1040
0.0
1070
     0
1070
   100
1070
     1
1070
     1
1070
     0
1070
     0
1070
     0
1070
     0
1040
0.0
1040
0.0
1040
0.0
1040
1.0
1040
1.0
1040
10.0
1040
10.0
1070
     0
1002
{
1002
}
1002
}
  0
ENDSEC
  0
SECTION
  2
OBJECTS
  0
DICTIONARY
  5
C
330
0
100
AcDbDictionary
  3
ACAD_GROUP
350
D
  3
ACAD_LAYOUT
350
565
  3
ACAD_MLINESTYLE
350
E
  3
ACAD_PLOTSETTINGS
350
566
  3
ACAD_PLOTSTYLENAME
350
563
  3
ACDBHEADERROUNDTRIPXREC
350
15CA
  3
GRADE_DWG
350
540
  0
DICTIONARY
  5
1112
330
1A
100
AcDbDictionary
280
     1
  3
ACAD_LAYOUTSELFREF
360
15EC
  0
DICTIONARY
  5
1110
330
17
100
AcDbDictionary
280
     1
  3
ACAD_LAYOUTSELFREF
360
15EB
  0
DICTIONARY
  5
D
102
{ACAD_REACTORS
330
C
102
}
330
C
100
AcDbDictionary
  3
*A1
350
6C7
  3
*A2
350
6C8
  3
*A3
350
6D4
  3
*A4
350
6D5
  3
DREC-1
350
5FC
  3
DREC-2
350
654
  3
DREC-3
350
673
  0
DICTIONARY
  5
565
102
{ACAD_REACTORS
330
C
102
}
330
C
100
AcDbDictionary
  0
DICTIONARY
  5
E
102
{ACAD_REACTORS
330
C
102
}
330
C
100
AcDbDictionary
  3
STANDARD
350
13
  0
DICTIONARY
  5
566
102
{ACAD_REACTORS
330
C
102
}
330
C
100
AcDbDictionary
  3
A3_0_5倍_
350
758
  3
A3_1倍_
350
757
  3
A3_1倍__2000_
350
707
  3
A3_2倍_
350
759
  3
A4_0_5倍_
350
755
  3
A4_1倍_
350
754
  3
A4_1倍__2000_
350
708
  3
A4_2倍_
350
756
  0
ACDBDICTIONARYWDFLT
  5
563
102
{ACAD_REACTORS
330
C
102
}
330
C
100
AcDbDictionary
281
     1
  3
Normal
350
564
100
AcDbDictionaryWithDefault
340
564
  0
DICTIONARY
  5
15CA
102
{ACAD_REACTORS
330
C
102
}
330
C
100
AcDbDictionary
  3
CEPSNTYPE
350
15D4
  3
DIMSTYLEDATA
350
15D8
  3
FINGERPRINTGUID
350
15D5
  3
HYPERLINKBASE
350
15CD
  3
INSUNITS
350
15D3
  3
LAYOUTDICT
350
15CF
  3
LWETCUNION
350
15D2
  3
PLOTSETDICT
350
15D0
  3
PLOTSTYLNAMDICT
350
15D1
  3
PSVPSCALE
350
15D7
  3
PUCSBASE
350
15DB
  3
PUCSORGBACK
350
15E1
  3
PUCSORGBOTTOM
350
15DD
  3
PUCSORGFRONT
350
15E0
  3
PUCSORGLEFT
350
15DE
  3
PUCSORGRIGHT
350
15DF
  3
PUCSORGTOP
350
15DC
  3
PUCSORTHOREF
350
15D9
  3
PUCSORTHOVIEW
350
15DA
  3
STYLESHEET
350
15CE
  3
TSTACKALIGN
350
15CB
  3
TSTACKSIZE
350
15CC
  3
UCSBASE
350
15E4
  3
UCSORGBACK
350
15EA
  3
UCSORGBOTTOM
350
15E6
  3
UCSORGFRONT
350
15E9
  3
UCSORGLEFT
350
15E7
  3
UCSORGRIGHT
350
15E8
  3
UCSORGTOP
350
15E5
  3
UCSORTHOREF
350
15E2
  3
UCSORTHOVIEW
350
15E3
  3
VERSIONGUID
350
15D6
  0
DICTIONARY
  5
540
102
{ACAD_REACTORS
330
C
102
}
330
C
100
AcDbDictionary
  3
VERSION
350
560
  0
XRECORD
  5
15EC
102
{ACAD_REACTORS
330
1112
102
}
330
1112
100
AcDbXrecord
340
1A
  0
XRECORD
  5
15EB
102
{ACAD_REACTORS
330
1110
102
}
330
1110
100
AcDbXrecord
340
17
  0
GROUP
  5
6C7
102
{ACAD_REACTORS
330
D
102
}
330
D
100
AcDbGroup
300

 70
     0
 71
     1
1001
GRPNAME
1000
DMA00
  0
GROUP
  5
6C8
102
{ACAD_REACTORS
330
D
102
}
330
D
100
AcDbGroup
300

 70
     0
 71
     1
1001
GRPNAME
1000
DMA00
  0
GROUP
  5
6D4
102
{ACAD_REACTORS
330
D
102
}
330
D
100
AcDbGroup
300

 70
     0
 71
     1
1001
GRPNAME
1000
DMA00
  0
GROUP
  5
6D5
102
{ACAD_REACTORS
330
D
102
}
330
D
100
AcDbGroup
300

 70
     0
 71
     1
1001
GRPNAME
1000
DMA00
  0
GROUP
  5
5FC
102
{ACAD_REACTORS
330
D
102
}
330
D
100
AcDbGroup
300

 70
     0
 71
     1
1001
GRPNAME
1000
DREC-
1001
GPARA
1000
xsiz
1000
44.182
1000
ysiz
1000
40.677
1000
angl
1000
0
1000
ctyp
1000
0
1000
csiz
1000
5
1000
lfnt
1000
cont
1000
hcnt
1000
hoff
1000
vcnt
1000
voff
1000
opnt
1000
4
1000
dxpt
1000
0
1000
dypt
1000
0
  0
GROUP
  5
654
102
{ACAD_REACTORS
330
D
102
}
330
D
100
AcDbGroup
300

 70
     0
 71
     1
1001
GRPNAME
1000
DREC-
1001
GPARA
1000
xsiz
1000
54.592
1000
ysiz
1000
53.036
1000
angl
1000
0
1000
ctyp
1000
0
1000
csiz
1000
5
1000
lfnt
1000
cont
1000
hcnt
1000
hoff
1000
vcnt
1000
voff
1000
opnt
1000
4
1000
dxpt
1000
0
1000
dypt
1000
0
  0
GROUP
  5
673
102
{ACAD_REACTORS
330
D
102
}
330
D
100
AcDbGroup
300

 70
     0
 71
     1
1001
GRPNAME
1000
DREC-
1001
GPARA
1000
xsiz
1000
30.363
1000
ysiz
1000
36.175
1000
angl
1000
0
1000
ctyp
1000
0
1000
csiz
1000
5
1000
lfnt
1000
cont
1000
hcnt
1000
hoff
1000
vcnt
1000
voff
1000
opnt
1000
4
1000
dxpt
1000
0
1000
dypt
1000
0
  0
MLINESTYLE
  5
13
102
{ACAD_REACTORS
330
E
102
}
330
E
100
AcDbMlineStyle
  2
STANDARD
 70
     0
  3

 62
     0
 51
90.0
 52
90.0
 71
     2
 49
0.5
 62
   256
  6
BYLAYER
 49
-0.5
 62
   256
  6
BYLAYER
  0
PLOTSETTINGS
  5
758
102
{ACAD_REACTORS
330
566
102
}
330
566
100
AcDbPlotSettings
  1
A3(0.5倍)
  2
\\AWTECPC05\HP DeskJet 1120C
  4
A3
  6

 40
5.95841646
 41
13.49375153
 42
6.04309082
 43
3.67242432
 44
296.92599487
 45
419.94665527
 46
89.96
 47
127.14
 48
0.0
 49
0.0
140
0.0
141
0.0
142
1.0
143
2.0
 70
  1716
 72
     1
 73
     1
 74
     2
  7
big.ctb
 75
    17
147
0.5
148
0.0
149
0.0
  0
PLOTSETTINGS
  5
757
102
{ACAD_REACTORS
330
566
102
}
330
566
100
AcDbPlotSettings
  1
A3(1倍)
  2
\\AWTECPC05\HP DeskJet 1120C
  4
A3
  6

 40
5.95841646
 41
13.49375153
 42
6.04309082
 43
3.67242432
 44
296.92599487
 45
419.94665527
 46
37.46
 47
52.89
 48
0.0
 49
0.0
140
0.0
141
0.0
142
1.0
143
1.0
 70
  1716
 72
     1
 73
     1
 74
     2
  7
big.ctb
 75
    16
147
1.0
148
0.0
149
0.0
  0
PLOTSETTINGS
  5
707
102
{ACAD_REACTORS
330
566
102
}
330
566
100
AcDbPlotSettings
  1
A3(1倍)(2000)
  2
SII LS-1300 (D-SCAN)
  4
User258
  6

 40
3.17499995
 41
3.17499995
 42
3.17498779
 43
3.17498779
 44
419.98898315
 45
296.98950195
 46
58.32
 47
40.32
 48
0.0
 49
0.0
140
0.0
141
0.0
142
1.0
143
1.0
 70
  1716
 72
     1
 73
     0
 74
     2
  7
big.ctb
 75
    16
147
1.0
148
0.0
149
0.0
  0
PLOTSETTINGS
  5
759
102
{ACAD_REACTORS
330
566
102
}
330
566
100
AcDbPlotSettings
  1
A3(2倍)
  2
\\AWTECPC05\HP DeskJet 1120C
  4
A3
  6

 40
5.95841646
 41
13.49375153
 42
6.04309082
 43
3.67242432
 44
296.92599487
 45
419.94665527
 46
-67.54
 47
-95.61
 48
0.0
 49
0.0
140
0.0
141
0.0
142
1.0
143
0.5
 70
  1716
 72
     1
 73
     1
 74
     2
  7
big.ctb
 75
    27
147
2.0
148
0.0
149
0.0
  0
PLOTSETTINGS
  5
755
102
{ACAD_REACTORS
330
566
102
}
330
566
100
AcDbPlotSettings
  1
A4(0.5倍)
  2
\\AWTECPC05\HP DeskJet 1120C
  4
A4
  6

 40
4.18041658
 41
13.49374962
 42
4.18040466
 43
3.92642212
 44
209.97332764
 45
296.92599487
 46
48.31
 47
65.5
 48
0.0
 49
0.0
140
0.0
141
0.0
142
1.0
143
2.0
 70
  1716
 72
     1
 73
     1
 74
     2
  7
big.ctb
 75
    17
147
0.5
148
0.0
149
0.0
  0
PLOTSETTINGS
  5
754
102
{ACAD_REACTORS
330
566
102
}
330
566
100
AcDbPlotSettings
  1
A4(1倍)
  2
\\AWTECPC05\HP DeskJet 1120C
  4
A4
  6

 40
4.18041658
 41
13.49374962
 42
4.18040466
 43
3.92642212
 44
209.97332764
 45
296.92599487
 46
-4.19
 47
-8.75
 48
0.0
 49
0.0
140
0.0
141
0.0
142
1.0
143
1.0
 70
  1716
 72
     1
 73
     1
 74
     2
  7
big.ctb
 75
    16
147
1.0
148
0.0
149
0.0
  0
PLOTSETTINGS
  5
708
102
{ACAD_REACTORS
330
566
102
}
330
566
100
AcDbPlotSettings
  1
A4(1倍)(2000)
  2
SII LS-1300 (D-SCAN)
  4
User259
  6

 40
3.17499995
 41
3.17499995
 42
3.17498779
 43
3.17500305
 44
296.98950195
 45
209.99449158
 46
-3.18
 47
-3.18
 48
0.0
 49
0.0
140
0.0
141
0.0
142
1.0
143
1.0
 70
  1716
 72
     1
 73
     0
 74
     2
  7
big.ctb
 75
    16
147
1.0
148
0.0
149
0.0
  0
PLOTSETTINGS
  5
756
102
{ACAD_REACTORS
330
566
102
}
330
566
100
AcDbPlotSettings
  1
A4(2倍)
  2
\\AWTECPC05\HP DeskJet 1120C
  4
A4
  6

 40
4.18041658
 41
13.49374962
 42
4.18040466
 43
3.92642212
 44
209.97332764
 45
296.92599487
 46
-109.19
 47
-157.25
 48
0.0
 49
0.0
140
0.0
141
0.0
142
1.0
143
0.5
 70
  1716
 72
     1
 73
     1
 74
     2
  7
big.ctb
 75
    27
147
2.0
148
0.0
149
0.0
  0
ACDBPLACEHOLDER
  5
564
102
{ACAD_REACTORS
330
563
102
}
330
563
100
AcDbPlaceHolder
280
     0
  0
XRECORD
  5
15D4
102
{ACAD_REACTORS
330
15CA
102
}
330
15CA
100
AcDbXrecord
 90
        0
  0
XRECORD
  5
15D8
102
{ACAD_REACTORS
330
15CA
102
}
330
15CA
100
AcDbXrecord
1000
DSTYLE
1002
{
1070
    79
 70
     2
1070
   179
 70
     3
1070
   341
340
594
1070
   343
340
594
1070
   344
340
594
1070
   371
 70
    -1
1070
   372
 70
    -1
1002
}
  0
XRECORD
  5
15D5
102
{ACAD_REACTORS
330
15CA
102
}
330
15CA
100
AcDbXrecord
  1
{51294030-9CB4-11D3-8E18-00A0C925D94D}
  0
XRECORD
  5
15CD
102
{ACAD_REACTORS
330
15CA
102
}
330
15CA
100
AcDbXrecord
  1

  0
XRECORD
  5
15D3
102
{ACAD_REACTORS
330
15CA
102
}
330
15CA
100
AcDbXrecord
 90
        0
  0
XRECORD
  5
15CF
102
{ACAD_REACTORS
330
15CA
102
}
330
15CA
100
AcDbXrecord
340
565
  0
XRECORD
  5
15D2
102
{ACAD_REACTORS
330
15CA
102
}
330
15CA
100
AcDbXrecord
 90
    10781
  0
XRECORD
  5
15D0
102
{ACAD_REACTORS
330
15CA
102
}
330
15CA
100
AcDbXrecord
340
566
  0
XRECORD
  5
15D1
102
{ACAD_REACTORS
330
15CA
102
}
330
15CA
100
AcDbXrecord
340
563
  0
XRECORD
  5
15D7
102
{ACAD_REACTORS
330
15CA
102
}
330
15CA
100
AcDbXrecord
 40
0.0
  0
XRECORD
  5
15DB
102
{ACAD_REACTORS
330
15CA
102
}
330
15CA
100
AcDbXrecord
340
0
  0
XRECORD
  5
15E1
102
{ACAD_REACTORS
330
15CA
102
}
330
15CA
100
AcDbXrecord
 10
0.0
 20
0.0
 30
0.0
  0
XRECORD
  5
15DD
102
{ACAD_REACTORS
330
15CA
102
}
330
15CA
100
AcDbXrecord
 10
0.0
 20
0.0
 30
0.0
  0
XRECORD
  5
15E0
102
{ACAD_REACTORS
330
15CA
102
}
330
15CA
100
AcDbXrecord
 10
0.0
 20
0.0
 30
0.0
  0
XRECORD
  5
15DE
102
{ACAD_REACTORS
330
15CA
102
}
330
15CA
100
AcDbXrecord
 10
0.0
 20
0.0
 30
0.0
  0
XRECORD
  5
15DF
102
{ACAD_REACTORS
330
15CA
102
}
330
15CA
100
AcDbXrecord
 10
0.0
 20
0.0
 30
0.0
  0
XRECORD
  5
15DC
102
{ACAD_REACTORS
330
15CA
102
}
330
15CA
100
AcDbXrecord
 10
0.0
 20
0.0
 30
0.0
  0
XRECORD
  5
15D9
102
{ACAD_REACTORS
330
15CA
102
}
330
15CA
100
AcDbXrecord
340
0
  0
XRECORD
  5
15DA
102
{ACAD_REACTORS
330
15CA
102
}
330
15CA
100
AcDbXrecord
 70
     0
  0
XRECORD
  5
15CE
102
{ACAD_REACTORS
330
15CA
102
}
330
15CA
100
AcDbXrecord
  1
big.ctb
  0
XRECORD
  5
15CB
102
{ACAD_REACTORS
330
15CA
102
}
330
15CA
100
AcDbXrecord
 90
        1
  0
XRECORD
  5
15CC
102
{ACAD_REACTORS
330
15CA
102
}
330
15CA
100
AcDbXrecord
 90
       70
  0
XRECORD
  5
15E4
102
{ACAD_REACTORS
330
15CA
102
}
330
15CA
100
AcDbXrecord
340
0
  0
XRECORD
  5
15EA
102
{ACAD_REACTORS
330
15CA
102
}
330
15CA
100
AcDbXrecord
 10
0.0
 20
0.0
 30
0.0
  0
XRECORD
  5
15E6
102
{ACAD_REACTORS
330
15CA
102
}
330
15CA
100
AcDbXrecord
 10
0.0
 20
0.0
 30
0.0
  0
XRECORD
  5
15E9
102
{ACAD_REACTORS
330
15CA
102
}
330
15CA
100
AcDbXrecord
 10
0.0
 20
0.0
 30
0.0
  0
XRECORD
  5
15E7
102
{ACAD_REACTORS
330
15CA
102
}
330
15CA
100
AcDbXrecord
 10
0.0
 20
0.0
 30
0.0
  0
XRECORD
  5
15E8
102
{ACAD_REACTORS
330
15CA
102
}
330
15CA
100
AcDbXrecord
 10
0.0
 20
0.0
 30
0.0
  0
XRECORD
  5
15E5
102
{ACAD_REACTORS
330
15CA
102
}
330
15CA
100
AcDbXrecord
 10
0.0
 20
0.0
 30
0.0
  0
XRECORD
  5
15E2
102
{ACAD_REACTORS
330
15CA
102
}
330
15CA
100
AcDbXrecord
340
0
  0
XRECORD
  5
15E3
102
{ACAD_REACTORS
330
15CA
102
}
330
15CA
100
AcDbXrecord
 70
     0
  0
XRECORD
  5
15D6
102
{ACAD_REACTORS
330
15CA
102
}
330
15CA
100
AcDbXrecord
  1
{E21A2B7E-C7B2-4ACB-930C-419F39CE4F9E}
  0
XRECORD
  5
560
102
{ACAD_REACTORS
330
540
102
}
330
540
100
AcDbXrecord
  1
2.0.0
  0
ENDSEC
  0
EOF
