  0
SECTION
  2
HEADER
  9
$ACADVER
  1
AC1014
  9
$ACADMAINTVER
 70
     9
  9
$DWGCODEPAGE
  3
ANSI_932
  9
$INSBASE
 10
0.0
 20
0.0
 30
0.0
  9
$EXTMIN
 10
-49.40156615
 20
-23.00446844
 30
-0.00152582
  9
$EXTMAX
 10
78.00876072
 20
54.01292677
 30
0.00000003
  9
$LIMMIN
 10
0.0
 20
0.0
  9
$LIMMAX
 10
420.0
 20
297.0
  9
$ORTHOMODE
 70
     0
  9
$REGENMODE
 70
     1
  9
$FILLMODE
 70
     1
  9
$QTEXTMODE
 70
     0
  9
$MIRRTEXT
 70
     1
  9
$DRAGMODE
 70
     2
  9
$LTSCALE
 40
10.0
  9
$OSMODE
 70
   549
  9
$ATTMODE
 70
     1
  9
$TEXTSIZE
 40
3.0
  9
$TRACEWID
 40
1.0
  9
$TEXTSTYLE
  7
YOKO
  9
$CLAYER
  8
245
  9
$CELTYPE
  6
BYLAYER
  9
$CECOLOR
 62
   256
  9
$CELTSCALE
 40
1.0
  9
$DELOBJ
 70
     1
  9
$DISPSILH
 70
     0
  9
$DIMSCALE
 40
1.0
  9
$DIMASZ
 40
2.0
  9
$DIMEXO
 40
2.0
  9
$DIMDLI
 40
2.5
  9
$DIMRND
 40
0.0
  9
$DIMDLE
 40
0.0
  9
$DIMEXE
 40
2.0
  9
$DIMTP
 40
0.0
  9
$DIMTM
 40
0.0
  9
$DIMTXT
 40
4.0
  9
$DIMCEN
 40
0.0
  9
$DIMTSZ
 40
0.0
  9
$DIMTOL
 70
     0
  9
$DIMLIM
 70
     0
  9
$DIMTIH
 70
     0
  9
$DIMTOH
 70
     0
  9
$DIMSE1
 70
     0
  9
$DIMSE2
 70
     0
  9
$DIMTAD
 70
     3
  9
$DIMZIN
 70
     8
  9
$DIMBLK
  1

  9
$DIMASO
 70
     1
  9
$DIMSHO
 70
     1
  9
$DIMPOST
  1

  9
$DIMAPOST
  1

  9
$DIMALT
 70
     0
  9
$DIMALTD
 70
     2
  9
$DIMALTF
 40
25.4
  9
$DIMLFAC
 40
1.0
  9
$DIMTOFL
 70
     1
  9
$DIMTVP
 40
0.0
  9
$DIMTIX
 70
     1
  9
$DIMSOXD
 70
     0
  9
$DIMSAH
 70
     1
  9
$DIMBLK1
  1
OPEN
  9
$DIMBLK2
  1
OPEN
  9
$DIMSTYLE
  2
BIGT
  9
$DIMCLRD
 70
   256
  9
$DIMCLRE
 70
   256
  9
$DIMCLRT
 70
    40
  9
$DIMTFAC
 40
1.0
  9
$DIMGAP
 40
1.0
  9
$DIMJUST
 70
     0
  9
$DIMSD1
 70
     0
  9
$DIMSD2
 70
     0
  9
$DIMTOLJ
 70
     1
  9
$DIMTZIN
 70
     8
  9
$DIMALTZ
 70
     0
  9
$DIMALTTZ
 70
     0
  9
$DIMFIT
 70
     3
  9
$DIMUPT
 70
     0
  9
$DIMUNIT
 70
     2
  9
$DIMDEC
 70
     3
  9
$DIMTDEC
 70
     3
  9
$DIMALTU
 70
     2
  9
$DIMALTTD
 70
     2
  9
$DIMTXSTY
  7
STANDARD
  9
$DIMAUNIT
 70
     0
  9
$LUNITS
 70
     2
  9
$LUPREC
 70
     3
  9
$SKETCHINC
 40
1.0
  9
$FILLETRAD
 40
3.0
  9
$AUNITS
 70
     0
  9
$AUPREC
 70
     3
  9
$MENU
  1
.
  9
$ELEVATION
 40
0.0
  9
$PELEVATION
 40
0.0
  9
$THICKNESS
 40
0.0
  9
$LIMCHECK
 70
     0
  9
$BLIPMODE
 70
     0
  9
$CHAMFERA
 40
10.0
  9
$CHAMFERB
 40
10.0
  9
$CHAMFERC
 40
0.0
  9
$CHAMFERD
 40
0.0
  9
$SKPOLY
 70
     0
  9
$TDCREATE
 40
2455141.388895393
  9
$TDUPDATE
 40
2455380.676111470
  9
$TDINDWG
 40
0.0082722106
  9
$TDUSRTIMER
 40
0.0082720255
  9
$USRTIMER
 70
     1
  9
$ANGBASE
 50
0.0
  9
$ANGDIR
 70
     0
  9
$PDMODE
 70
     1
  9
$PDSIZE
 40
-5.0
  9
$PLINEWID
 40
0.0
  9
$COORDS
 70
     0
  9
$SPLFRAME
 70
     0
  9
$SPLINETYPE
 70
     6
  9
$SPLINESEGS
 70
     8
  9
$ATTDIA
 70
     0
  9
$ATTREQ
 70
     1
  9
$HANDLING
 70
-16383
  9
$HANDSEED
  5
1A44
  9
$SURFTAB1
 70
     6
  9
$SURFTAB2
 70
     6
  9
$SURFTYPE
 70
     6
  9
$SURFU
 70
     6
  9
$SURFV
 70
     6
  9
$UCSNAME
  2

  9
$UCSORG
 10
0.0
 20
0.0
 30
0.0
  9
$UCSXDIR
 10
1.0
 20
0.0
 30
0.0
  9
$UCSYDIR
 10
0.0
 20
1.0
 30
0.0
  9
$PUCSNAME
  2

  9
$PUCSORG
 10
0.0
 20
0.0
 30
0.0
  9
$PUCSXDIR
 10
1.0
 20
0.0
 30
0.0
  9
$PUCSYDIR
 10
0.0
 20
1.0
 30
0.0
  9
$USERI1
 70
     1
  9
$USERI2
 70
     0
  9
$USERI3
 70
     0
  9
$USERI4
 70
     0
  9
$USERI5
 70
     0
  9
$USERR1
 40
0.0
  9
$USERR2
 40
0.0
  9
$USERR3
 40
0.0
  9
$USERR4
 40
0.0
  9
$USERR5
 40
0.0
  9
$WORLDVIEW
 70
     1
  9
$SHADEDGE
 70
     3
  9
$SHADEDIF
 70
    70
  9
$TILEMODE
 70
     1
  9
$MAXACTVP
 70
    16
  9
$PINSBASE
 10
0.0
 20
0.0
 30
0.0
  9
$PLIMCHECK
 70
     0
  9
$PEXTMIN
 10
1.00000000E+20
 20
1.00000000E+20
 30
1.00000000E+20
  9
$PEXTMAX
 10
-1.00000000E+20
 20
-1.00000000E+20
 30
-1.00000000E+20
  9
$PLIMMIN
 10
0.0
 20
0.0
  9
$PLIMMAX
 10
420.0
 20
297.0
  9
$UNITMODE
 70
     0
  9
$VISRETAIN
 70
     0
  9
$PLINEGEN
 70
     0
  9
$PSLTSCALE
 70
     1
  9
$TREEDEPTH
 70
  3020
  9
$PICKSTYLE
 70
     0
  9
$CMLSTYLE
  2
STANDARD
  9
$CMLJUST
 70
     0
  9
$CMLSCALE
 40
1.0
  9
$PROXYGRAPHICS
 70
     1
  9
$MEASUREMENT
 70
     1
  0
ENDSEC
  0
SECTION
  2
CLASSES
  0
CLASS
  1
XRECORD
  2
AcDbXrecord
  3
AutoCAD 2000
 90
        0
280
     0
281
     0
  0
CLASS
  1
ACDBDICTIONARYWDFLT
  2
AcDbDictionaryWithDefault
  3
AutoCAD 2000
 90
        0
280
     0
281
     0
  0
CLASS
  1
ACDBPLACEHOLDER
  2
AcDbPlaceHolder
  3
AutoCAD 2000
 90
        0
280
     0
281
     0
  0
CLASS
  1
LAYOUT
  2
AcDbLayout
  3
AutoCAD 2000
 90
        0
280
     0
281
     0
  0
CLASS
  1
PLOTSETTINGS
  2
AcDbPlotSettings
  3
AutoCAD 2000
 90
        0
280
     0
281
     0
  0
CLASS
  1
LONG_TRANSACTION
  2
AcDbLongTransaction
  3
AutoCAD 2000
 90
        0
280
     0
281
     0
  0
CLASS
  1
LWPOLYLINE
  2
AcDbPolyline
  3
AutoCAD 2000
 90
        0
280
     0
281
     1
  0
CLASS
  1
HATCH
  2
AcDbHatch
  3
AutoCAD 2000
 90
        0
280
     0
281
     1
  0
CLASS
  1
XRECORD
  2
AcDbXrecord
  3
AutoCAD 2000
 90
        0
280
     0
281
     0
  0
CLASS
  1
LONG_TRANSACTION
  2
AcDbLongTransaction
  3
AutoCAD 2000
 90
        0
280
     0
281
     0
  0
CLASS
  1
LWPOLYLINE
  2
AcDbPolyline
  3
AutoCAD 2000
 90
        0
280
     0
281
     1
  0
CLASS
  1
HATCH
  2
AcDbHatch
  3
AutoCAD 2000
 90
        0
280
     0
281
     1
  0
CLASS
  1
XRECORD
  2
AcDbXrecord
  3
AutoCAD 2000
 90
        0
280
     0
281
     0
  0
CLASS
  1
LONG_TRANSACTION
  2
AcDbLongTransaction
  3
AutoCAD 2000
 90
        0
280
     0
281
     0
  0
CLASS
  1
LWPOLYLINE
  2
AcDbPolyline
  3
AutoCAD 2000
 90
        0
280
     0
281
     1
  0
CLASS
  1
HATCH
  2
AcDbHatch
  3
AutoCAD 2000
 90
        0
280
     0
281
     1
  0
CLASS
  1
XRECORD
  2
AcDbXrecord
  3
AutoCAD 2000
 90
        0
280
     0
281
     0
  0
ENDSEC
  0
SECTION
  2
TABLES
  0
TABLE
  2
VPORT
  5
8
330
0
100
AcDbSymbolTable
 70
     2
  0
VPORT
  5
1A1F
330
8
100
AcDbSymbolTableRecord
100
AcDbViewportTableRecord
  2
*ACTIVE
 70
     0
 10
0.0
 20
0.0
 11
1.0
 21
1.0
 12
14.30359728
 22
15.50422917
 13
0.0
 23
0.0
 14
7.0
 24
7.0
 15
7.0
 25
7.0
 16
0.0
 26
0.0
 36
1.0
 17
0.0
 27
0.0
 37
0.0
 40
87.97611263
 41
1.45595855
 42
50.0
 43
0.0
 44
0.0
 50
0.0
 51
0.0
 71
     0
 72
  2000
 73
     1
 74
     0
 75
     0
 76
     0
 77
     0
 78
     0
  0
ENDTAB
  0
TABLE
  2
LTYPE
  5
5
330
0
100
AcDbSymbolTable
 70
     4
  0
LTYPE
  5
14
330
5
100
AcDbSymbolTableRecord
100
AcDbLinetypeTableRecord
  2
BYBLOCK
 70
     0
  3

 72
    65
 73
     0
 40
0.0
  0
LTYPE
  5
15
330
5
100
AcDbSymbolTableRecord
100
AcDbLinetypeTableRecord
  2
BYLAYER
 70
     0
  3

 72
    65
 73
     0
 40
0.0
  0
LTYPE
  5
16
330
5
100
AcDbSymbolTableRecord
100
AcDbLinetypeTableRecord
  2
CONTINUOUS
 70
     0
  3
Solid line
 72
    65
 73
     0
 40
0.0
  0
LTYPE
  5
258
330
5
100
AcDbSymbolTableRecord
100
AcDbLinetypeTableRecord
  2
CENTER2
 70
     0
  3
___ _ ___ _ ___ _ ___ _ ___ _ ___ _ ___ _ ___ _
 72
    65
 73
     4
 40
1.125
 49
0.75
 74
     0
 49
-0.125
 74
     0
 49
0.125
 74
     0
 49
-0.125
 74
     0
  0
LTYPE
  5
25C
330
5
100
AcDbSymbolTableRecord
100
AcDbLinetypeTableRecord
  2
HIDDEN2
 70
     0
  3
_ _ _ _ _ _ _ _ _ _ _ _ _ _ _ _ _ _ _ _ _ _ _ _
 72
    65
 73
     2
 40
0.1875
 49
0.125
 74
     0
 49
-0.0625
 74
     0
  0
LTYPE
  5
25D
330
5
100
AcDbSymbolTableRecord
100
AcDbLinetypeTableRecord
  2
PHANTOM2
 70
     0
  3
___ _ _ ___ _ _ ___ _ _ ___ _ _ ___ _ _ ___ _ _
 72
    65
 73
     6
 40
1.25
 49
0.625
 74
     0
 49
-0.125
 74
     0
 49
0.125
 74
     0
 49
-0.125
 74
     0
 49
0.125
 74
     0
 49
-0.125
 74
     0
  0
ENDTAB
  0
TABLE
  2
LAYER
  5
2
330
0
100
AcDbSymbolTable
 70
    11
  0
LAYER
  5
F
330
2
100
AcDbSymbolTableRecord
100
AcDbLayerTableRecord
  2
0
 70
     0
 62
     7
  6
CONTINUOUS
  0
LAYER
  5
1AA
330
2
100
AcDbSymbolTableRecord
100
AcDbLayerTableRecord
  2
240
 70
     0
 62
     4
  6
CONTINUOUS
  0
LAYER
  5
1AB
330
2
100
AcDbSymbolTableRecord
100
AcDbLayerTableRecord
  2
241
 70
     0
 62
   211
  6
CONTINUOUS
  0
LAYER
  5
1AD
330
2
100
AcDbSymbolTableRecord
100
AcDbLayerTableRecord
  2
243
 70
     0
 62
   211
  6
HIDDEN2
  0
LAYER
  5
1AF
330
2
100
AcDbSymbolTableRecord
100
AcDbLayerTableRecord
  2
245
 70
     0
 62
     2
  6
CENTER2
  0
LAYER
  5
21A
330
2
100
AcDbSymbolTableRecord
100
AcDbLayerTableRecord
  2
246
 70
     0
 62
     3
  6
PHANTOM2
  0
LAYER
  5
21E
330
2
100
AcDbSymbolTableRecord
100
AcDbLayerTableRecord
  2
250
 70
     0
 62
     3
  6
CONTINUOUS
  0
LAYER
  5
21F
330
2
100
AcDbSymbolTableRecord
100
AcDbLayerTableRecord
  2
251
 70
     0
 62
    40
  6
CONTINUOUS
  0
LAYER
  5
5C4
330
2
100
AcDbSymbolTableRecord
100
AcDbLayerTableRecord
  2
DEFPOINTS
 70
     0
 62
     7
  6
CONTINUOUS
  0
ENDTAB
  0
TABLE
  2
STYLE
  5
3
330
0
100
AcDbSymbolTable
 70
     2
  0
STYLE
  5
10
330
3
100
AcDbSymbolTableRecord
100
AcDbTextStyleTableRecord
  2
STANDARD
 70
     0
 40
0.0
 41
1.0
 50
0.0
 71
     0
 42
3.0
  3
romans.shx
  4
BIGFONT.SHX
  0
STYLE
  5
339
330
3
100
AcDbSymbolTableRecord
100
AcDbTextStyleTableRecord
  2
YOKO
 70
     0
 40
0.0
 41
1.0
 50
0.0
 71
     0
 42
3.0
  3
romans.shx
  4
extfont.shx
  0
ENDTAB
  0
TABLE
  2
VIEW
  5
6
330
0
100
AcDbSymbolTable
 70
     0
  0
ENDTAB
  0
TABLE
  2
UCS
  5
7
330
0
100
AcDbSymbolTable
 70
     0
  0
ENDTAB
  0
TABLE
  2
APPID
  5
9
330
0
100
AcDbSymbolTable
 70
    12
  0
APPID
  5
11
330
9
100
AcDbSymbolTableRecord
100
AcDbRegAppTableRecord
  2
ACAD
 70
     0
  0
APPID
  5
1B1
330
9
100
AcDbSymbolTableRecord
100
AcDbRegAppTableRecord
  2
GLOBAL
 70
     0
  0
APPID
  5
2A4
330
9
100
AcDbSymbolTableRecord
100
AcDbRegAppTableRecord
  2
DETAIL
 70
     0
  0
APPID
  5
5FD
330
9
100
AcDbSymbolTableRecord
100
AcDbRegAppTableRecord
  2
GRPNAME
 70
     0
  0
APPID
  5
5FE
330
9
100
AcDbSymbolTableRecord
100
AcDbRegAppTableRecord
  2
GPARA
 70
     0
  0
APPID
  5
6C4
330
9
100
AcDbSymbolTableRecord
100
AcDbRegAppTableRecord
  2
DCO15
 70
     0
  0
APPID
  5
6C5
330
9
100
AcDbSymbolTableRecord
100
AcDbRegAppTableRecord
  2
ITEMNAME
 70
     0
  0
APPID
  5
6C6
330
9
100
AcDbSymbolTableRecord
100
AcDbRegAppTableRecord
  2
GRADE_0
 70
     0
  0
APPID
  5
C74
330
9
100
AcDbSymbolTableRecord
100
AcDbRegAppTableRecord
  2
HATCH_TYPE
 70
     0
  0
APPID
  5
C75
330
9
100
AcDbSymbolTableRecord
100
AcDbRegAppTableRecord
  2
HATCH_DISPLAY
 70
     0
  0
APPID
  5
C76
330
9
100
AcDbSymbolTableRecord
100
AcDbRegAppTableRecord
  2
HATCH_DISTANCE
 70
     0
  0
APPID
  5
121A
330
9
100
AcDbSymbolTableRecord
100
AcDbRegAppTableRecord
  2
CONTENTBLOCKICON
 70
     0
  0
ENDTAB
  0
TABLE
  2
DIMSTYLE
  5
A
330
0
100
AcDbSymbolTable
 70
     4
  0
DIMSTYLE
105
725
102
{ACAD_REACTORS
330
F42
330
F51
330
F60
330
F6F
102
}
330
A
100
AcDbSymbolTableRecord
100
AcDbDimStyleTableRecord
  2
BIGT
 70
     0
  3

  4

  5

  6
OPEN
  7
OPEN
 40
1.0
 41
2.23
 42
0.5
 43
2.5
 44
1.0
 45
0.0
 46
0.0
 47
0.0
 48
0.0
140
2.8
141
0.0
142
0.0
143
25.4
144
1.0
145
0.0
146
1.0
147
1.0
 71
     0
 72
     0
 73
     0
 74
     0
 75
     0
 76
     0
 77
     3
 78
     8
170
     0
171
     2
172
     1
173
     1
174
     1
175
     0
176
   256
177
   256
178
    40
270
     2
271
     3
272
     3
273
     2
274
     2
340
10
275
     0
280
     0
281
     0
282
     0
283
     1
284
     8
285
     0
286
     0
287
     3
288
     0
  0
ENDTAB
  0
TABLE
  2
BLOCK_RECORD
  5
1
330
0
100
AcDbSymbolTable
 70
     8
  0
BLOCK_RECORD
  5
1A
102
{ACAD_XDICTIONARY
360
1218
102
}
330
1
100
AcDbSymbolTableRecord
100
AcDbBlockTableRecord
  2
*MODEL_SPACE
  0
BLOCK_RECORD
  5
17
102
{ACAD_XDICTIONARY
360
1216
102
}
330
1
100
AcDbSymbolTableRecord
100
AcDbBlockTableRecord
  2
*PAPER_SPACE
  0
BLOCK_RECORD
  5
594
330
1
100
AcDbSymbolTableRecord
100
AcDbBlockTableRecord
  2
_OPEN
  0
BLOCK_RECORD
  5
6E3
330
1
100
AcDbSymbolTableRecord
100
AcDbBlockTableRecord
  2
矢印なし
  0
BLOCK_RECORD
  5
762
330
1
100
AcDbSymbolTableRecord
100
AcDbBlockTableRecord
  2
1
1001
CONTENTBLOCKICON
1071
        0
1004
2800000020000000200000000100080000000000000400000000000000000000000000000000000000000000000080000080000000808000800000008000800080800000C0C0C000C0DCC000F0CAA6000020400000206000002080000020A0000020C0000020E00000400000004020000040400000406000004080000040A0
1004
000040C0000040E00000600000006020000060400000606000006080000060A0000060C0000060E00000800000008020000080400000806000008080000080A0000080C0000080E00000A0000000A0200000A0400000A0600000A0800000A0A00000A0C00000A0E00000C0000000C0200000C0400000C0600000C0800000C0
1004
A00000C0C00000C0E00000E0000000E0200000E0400000E0600000E0800000E0A00000E0C00000E0E00040000000400020004000400040006000400080004000A0004000C0004000E00040200000402020004020400040206000402080004020A0004020C0004020E000404000004040200040404000404060004040800040
1004
40A0004040C0004040E00040600000406020004060400040606000406080004060A0004060C0004060E00040800000408020004080400040806000408080004080A0004080C0004080E00040A0000040A0200040A0400040A0600040A0800040A0A00040A0C00040A0E00040C0000040C0200040C0400040C0600040C08000
1004
40C0A00040C0C00040C0E00040E0000040E0200040E0400040E0600040E0800040E0A00040E0C00040E0E00080000000800020008000400080006000800080008000A0008000C0008000E00080200000802020008020400080206000802080008020A0008020C0008020E00080400000804020008040400080406000804080
1004
008040A0008040C0008040E00080600000806020008060400080606000806080008060A0008060C0008060E00080800000808020008080400080806000808080008080A0008080C0008080E00080A0000080A0200080A0400080A0600080A0800080A0A00080A0C00080A0E00080C0000080C0200080C0400080C0600080C0
1004
800080C0A00080C0C00080C0E00080E0000080E0200080E0400080E0600080E0800080E0A00080E0C00080E0E000C0000000C0002000C0004000C0006000C0008000C000A000C000C000C000E000C0200000C0202000C0204000C0206000C0208000C020A000C020C000C020E000C0400000C0402000C0404000C0406000C0
1004
408000C040A000C040C000C040E000C0600000C0602000C0604000C0606000C0608000C060A000C060C000C060E000C0800000C0802000C0804000C0806000C0808000C080A000C080C000C080E000C0A00000C0A02000C0A04000C0A06000C0A08000C0A0A000C0A0C000C0A0E000C0C00000C0C02000C0C04000C0C06000
1004
C0C08000C0C0A000F0FBFF00A4A0A000808080000000FF0000FF000000FFFF00FF000000FF00FF00FFFF0000FFFFFF0000000000000000000000000000000000000000000000000000000000000000000000000000000000000000000000000000000000000000000000000000000000000000000000000000000000000000
1004
00000000000000000000000000000000000000000000000000000000000000000000000000000000000000000000000000000000000000000000000000000000000000000000000000000000000000000000000000000000000000000000000000000000000000000000000000000000000000000000000000000000000000
1004
00000000000000000000000000000000000000000000000000000000000000000000000000000000000000000000000000000000000000000000000000000000000000000000000000000000000000000000000000000000000000000000000000000000000000000000000000000000000000000000000000000000000000
1004
00FEFEFEFBE7FE0000000000000000000000000000000000000000000000000000FE00FEFEE7FE0000000000000000000000000000000000000000FEFEFEFEFEFEFEE7E7E7E7E7FEE7000000000000000000000000FEFEFEFEFEFE0000000000E7E700E7E7E7E7E7E7E7FEFEFEFEFAFAFA00000000FE000000000000000000
1004
00E7E700E7E7E7E7E7E7E70000E7E7E700FE00000000FE00000000000000000000E7E700E7E7E7E7E7E7E70000E7000000FE000000FBFEFBFBFBFBFBFBFBFBFBFBE7E7FBE7E7E7E7E7E7E7FBFBE7E7E7E7FEFB000000FE00000000000000000000E7E700E7E7E7E7E7E7E70000000000E7FE00000000FEFEFEFEFEFE000000
1004
0000E7E700E7E7E7E7E7E7E7FEFEFEFEFAFAFA00000000000000000000FEFEFEFEFEFEFEE7E7E7E7E7E7E7000000000000000000000000000000000000000000000000FE00FEFEE7FE0000000000000000000000000000000000000000000000000000FEFEFEFBFEFE00000000000000000000000000000000000000000000
1004
00000000000000000000000000000000000000000000000000000000000000000000000000000000000000000000000000000000000000000000000000000000000000000000000000000000000000000000000000000000000000000000000000000000000000000000000000000000000000000000000000000000000000
1004
00000000000000000000000000000000000000000000000000000000000000000000000000000000000000000000000000000000000000000000000000000000000000000000000000000000000000000000000000000000000000000000000000000000000000000000000000000000000000000000000000000000000000
1004
0000000000000000000000000000000000000000000000000000000000000000000000000000000000000000000000000000000000000000
  0
BLOCK_RECORD
  5
F43
330
1
100
AcDbSymbolTableRecord
100
AcDbBlockTableRecord
  2
*D3
  0
BLOCK_RECORD
  5
F52
330
1
100
AcDbSymbolTableRecord
100
AcDbBlockTableRecord
  2
*D4
  0
BLOCK_RECORD
  5
F61
330
1
100
AcDbSymbolTableRecord
100
AcDbBlockTableRecord
  2
*D5
  0
BLOCK_RECORD
  5
F70
330
1
100
AcDbSymbolTableRecord
100
AcDbBlockTableRecord
  2
*D6
  0
ENDTAB
  0
ENDSEC
  0
SECTION
  2
BLOCKS
  0
BLOCK
  5
1B
330
1A
100
AcDbEntity
  8
0
100
AcDbBlockBegin
  2
*MODEL_SPACE
 70
     0
 10
0.0
 20
0.0
 30
0.0
  3
*MODEL_SPACE
  1

  0
ENDBLK
  5
1C
330
1A
100
AcDbEntity
  8
0
100
AcDbBlockEnd
  0
BLOCK
  5
18
330
17
100
AcDbEntity
 67
     1
  8
0
100
AcDbBlockBegin
  2
*PAPER_SPACE
 70
     0
 10
0.0
 20
0.0
 30
0.0
  3
*PAPER_SPACE
  1

  0
ENDBLK
  5
19
330
17
100
AcDbEntity
 67
     1
  8
0
100
AcDbBlockEnd
  0
BLOCK
  5
598
330
594
100
AcDbEntity
  8
0
100
AcDbBlockBegin
  2
_OPEN
 70
     0
 10
0.0
 20
0.0
 30
0.0
  3
_OPEN
  1

  0
LINE
  5
595
330
594
100
AcDbEntity
  8
0
  6
BYBLOCK
 62
     0
100
AcDbLine
 10
-1.0
 20
0.16666667
 30
0.0
 11
0.0
 21
0.0
 31
0.0
  0
LINE
  5
596
330
594
100
AcDbEntity
  8
0
  6
BYBLOCK
 62
     0
100
AcDbLine
 10
-1.0
 20
-0.16666667
 30
0.0
 11
0.0
 21
0.0
 31
0.0
  0
LINE
  5
597
330
594
100
AcDbEntity
  8
0
  6
BYBLOCK
 62
     0
100
AcDbLine
 10
0.0
 20
0.0
 30
0.0
 11
-1.0
 21
0.0
 31
0.0
  0
ENDBLK
  5
599
330
594
100
AcDbEntity
  8
0
100
AcDbBlockEnd
  0
BLOCK
  5
6E4
330
6E3
100
AcDbEntity
  8
0
100
AcDbBlockBegin
  2
矢印なし
 70
     0
 10
0.0
 20
0.0
 30
0.0
  3
矢印なし
  1

  0
ENDBLK
  5
6E5
330
6E3
100
AcDbEntity
  8
0
100
AcDbBlockEnd
  0
BLOCK
  5
94E
330
762
100
AcDbEntity
  8
0
100
AcDbBlockBegin
  2
1
 70
     0
 10
0.0
 20
0.0
 30
0.0
  3
1
  1

  0
ARC
  5
18CA
330
762
100
AcDbEntity
  8
240
100
AcDbCircle
 10
40.17748713
 20
24.25
 30
0.0
 40
15.0
100
AcDbArc
 50
236.0592058
 51
270.0
  0
ARC
  5
18CB
330
762
100
AcDbEntity
  8
240
100
AcDbCircle
 10
40.17748714
 20
-24.25
 30
0.0
 40
15.0
100
AcDbArc
 50
90.0
 51
123.94079405
  0
LINE
  5
18CC
330
762
100
AcDbEntity
  8
245
  6
CENTER2
100
AcDbLine
 10
-49.4
 20
0.0
 30
0.0
 11
66.0
 21
0.0
 31
0.0
1001
GRPNAME
1000
PASTMD03
  0
LINE
  5
18CD
330
762
100
AcDbEntity
  8
240
  6
CONTINUOUS
100
AcDbLine
 10
-47.54431023
 20
8.94129104
 30
0.0
 11
0.0
 21
15.875
 31
0.0
  0
LINE
  5
18CE
330
762
100
AcDbEntity
  8
240
  6
CONTINUOUS
100
AcDbLine
 10
-47.54431023
 20
-8.94129104
 30
0.0
 11
0.0
 21
-15.875
 31
0.0
  0
LINE
  5
18CF
330
762
100
AcDbEntity
  8
240
  6
CONTINUOUS
100
AcDbLine
 10
-48.4
 20
-7.95175854
 30
0.0
 11
-48.4
 21
0.0
 31
0.0
  0
ARC
  5
18D0
330
762
100
AcDbEntity
  8
240
  6
CONTINUOUS
100
AcDbCircle
 10
-47.4
 20
-7.95175854
 30
0.0
 40
1.0
100
AcDbArc
 50
180.0
 51
261.70266184
  0
LINE
  5
18D1
330
762
100
AcDbEntity
  8
240
  6
CONTINUOUS
100
AcDbLine
 10
-48.4
 20
7.95175854
 30
0.0
 11
-48.4
 21
0.0
 31
0.0
  0
ARC
  5
18D2
330
762
100
AcDbEntity
  8
240
  6
CONTINUOUS
100
AcDbCircle
 10
-47.4
 20
7.95175854
 30
0.0
 40
1.0
100
AcDbArc
 50
98.29733816
 51
180.0
  0
LINE
  5
18D3
330
762
100
AcDbEntity
  8
241
  6
CONTINUOUS
100
AcDbLine
 10
27.05110023
 20
-15.00346168
 30
0.0
 11
27.05110023
 21
0.0
 31
0.0
1001
GRPNAME
1000
PASTMD01
  0
LINE
  5
18D4
330
762
100
AcDbEntity
  8
241
  6
CONTINUOUS
100
AcDbLine
 10
26.05556228
 20
-15.6734648
 30
0.0
 11
26.05556228
 21
0.0
 31
0.0
1001
GRPNAME
1000
PASTMD01
  0
LINE
  5
18D5
330
762
100
AcDbEntity
  8
241
  6
CONTINUOUS
100
AcDbLine
 10
22.0
 20
-20.0
 30
0.0
 11
22.0
 21
0.0
 31
0.0
  0
LINE
  5
18D6
330
762
100
AcDbEntity
  8
240
100
AcDbLine
 10
31.80244821
 20
-11.80577552
 30
0.0
 11
23.3249922
 21
-17.51115509
 31
0.0
  0
LINE
  5
18D7
330
762
100
AcDbEntity
  8
241
100
AcDbLine
 10
0.0
 20
-15.875
 30
0.0
 11
0.0
 21
0.0
 31
0.0
  0
LINE
  5
18D8
330
762
100
AcDbEntity
  8
241
100
AcDbLine
 10
1.0
 20
0.0
 30
0.0
 11
1.0
 21
-15.875
 31
0.0
  0
LINE
  5
18D9
330
762
100
AcDbEntity
  8
245
  6
CENTER2
100
AcDbLine
 10
13.6
 20
-23.0
 30
0.0
 11
13.6
 21
23.0
 31
0.0
  0
LINE
  5
18DA
330
762
100
AcDbEntity
  8
241
  6
CONTINUOUS
100
AcDbLine
 10
15.29059892
 20
-19.0
 30
0.0
 11
15.29059892
 21
0.04377196
 31
0.0
  0
LINE
  5
18DB
330
762
100
AcDbEntity
  8
241
  6
CONTINUOUS
100
AcDbLine
 10
17.6
 20
0.0
 30
0.0
 11
17.6
 21
-23.0
 31
0.0
  0
LINE
  5
18DC
330
762
100
AcDbEntity
  8
241
  6
CONTINUOUS
100
AcDbLine
 10
11.90940108
 20
-19.0
 30
0.0
 11
11.90940108
 21
0.04377196
 31
0.0
  0
LINE
  5
18DD
330
762
100
AcDbEntity
  8
241
  6
CONTINUOUS
100
AcDbLine
 10
9.6
 20
-23.0
 30
0.0
 11
9.6
 21
0.0
 31
0.0
  0
LINE
  5
18DE
330
762
100
AcDbEntity
  8
243
  6
HIDDEN2
100
AcDbLine
 10
19.0
 20
-16.3
 30
0.0
 11
1.0
 21
-16.3
 31
0.0
  0
LINE
  5
18DF
330
762
100
AcDbEntity
  8
240
  6
CONTINUOUS
100
AcDbLine
 10
9.6
 20
-23.0
 30
0.0
 11
1.0
 21
-23.0
 31
0.0
  0
LINE
  5
18E0
330
762
100
AcDbEntity
  8
240
  6
CONTINUOUS
100
AcDbLine
 10
1.0
 20
-15.875
 30
0.0
 11
1.0
 21
-23.0
 31
0.0
  0
LINE
  5
18E1
330
762
100
AcDbEntity
  8
240
100
AcDbLine
 10
0.0
 20
-15.875
 30
0.0
 11
1.0
 21
-15.875
 31
0.0
  0
LINE
  5
18E2
330
762
100
AcDbEntity
  8
240
  6
CONTINUOUS
100
AcDbLine
 10
17.6
 20
-23.0
 30
0.0
 11
22.0
 21
-23.0
 31
0.0
  0
LINE
  5
18E3
330
762
100
AcDbEntity
  8
240
  6
CONTINUOUS
100
AcDbLine
 10
11.90940108
 20
-19.0
 30
0.0
 11
9.6
 21
-23.0
 31
0.0
  0
LINE
  5
18E4
330
762
100
AcDbEntity
  8
240
  6
CONTINUOUS
100
AcDbLine
 10
15.29059892
 20
-19.0
 30
0.0
 11
17.6
 21
-23.0
 31
0.0
  0
LINE
  5
18E5
330
762
100
AcDbEntity
  8
243
  6
HIDDEN2
100
AcDbLine
 10
19.0
 20
-16.3
 30
0.0
 11
19.0
 21
-23.0
 31
0.0
  0
LINE
  5
18E6
330
762
100
AcDbEntity
  8
240
  6
CONTINUOUS
100
AcDbLine
 10
11.90940108
 20
-19.0
 30
0.0
 11
15.29059892
 21
-19.0
 31
0.0
  0
ARC
  5
18E7
330
762
100
AcDbEntity
  8
240
  6
CONTINUOUS
100
AcDbCircle
 10
25.0
 20
-20.0
 30
0.0
 40
2.999999999999978
100
AcDbArc
 50
123.9407942
 51
179.99999999
1001
GRPNAME
1000
PASTMD0D
  0
LINE
  5
18E8
330
762
100
AcDbEntity
  8
240
  6
CONTINUOUS
100
AcDbLine
 10
22.0
 20
-23.0
 30
0.0
 11
22.0
 21
-20.0
 31
0.0
  0
LINE
  5
18E9
330
762
100
AcDbEntity
  8
240
  6
CONTINUOUS
100
AcDbLine
 10
9.6
 20
23.0
 30
0.0
 11
1.0
 21
23.0
 31
0.0
  0
LINE
  5
18EA
330
762
100
AcDbEntity
  8
241
  6
HIDDEN2
100
AcDbLine
 10
19.0
 20
16.3
 30
0.0
 11
1.0
 21
16.3
 31
0.0
  0
LINE
  5
18EB
330
762
100
AcDbEntity
  8
241
100
AcDbLine
 10
0.0
 20
15.875
 30
0.0
 11
0.0
 21
0.0
 31
0.0
  0
LINE
  5
18EC
330
762
100
AcDbEntity
  8
241
100
AcDbLine
 10
1.0
 20
0.0
 30
0.0
 11
1.0
 21
15.875
 31
0.0
  0
LINE
  5
18ED
330
762
100
AcDbEntity
  8
240
  6
CONTINUOUS
100
AcDbLine
 10
1.0
 20
15.875
 30
0.0
 11
1.0
 21
23.0
 31
0.0
  0
LINE
  5
18EE
330
762
100
AcDbEntity
  8
240
100
AcDbLine
 10
0.0
 20
15.875
 30
0.0
 11
1.0
 21
15.875
 31
0.0
  0
LINE
  5
18EF
330
762
100
AcDbEntity
  8
240
100
AcDbLine
 10
31.80244821
 20
11.80577552
 30
0.0
 11
23.3249922
 21
17.51115509
 31
0.0
  0
LINE
  5
18F0
330
762
100
AcDbEntity
  8
241
  6
CONTINUOUS
100
AcDbLine
 10
22.0
 20
0.0
 30
0.0
 11
22.0
 21
20.0
 31
0.0
  0
LINE
  5
18F1
330
762
100
AcDbEntity
  8
241
  6
CONTINUOUS
100
AcDbLine
 10
11.90940108
 20
19.0
 30
0.0
 11
11.90940108
 21
-0.04377196
 31
0.0
  0
LINE
  5
18F2
330
762
100
AcDbEntity
  8
241
  6
CONTINUOUS
100
AcDbLine
 10
15.29059892
 20
19.0
 30
0.0
 11
15.29059892
 21
-0.04377196
 31
0.0
  0
LINE
  5
18F3
330
762
100
AcDbEntity
  8
241
  6
CONTINUOUS
100
AcDbLine
 10
17.6
 20
0.0
 30
0.0
 11
17.6
 21
23.0
 31
0.0
  0
LINE
  5
18F4
330
762
100
AcDbEntity
  8
241
  6
CONTINUOUS
100
AcDbLine
 10
9.6
 20
23.0
 30
0.0
 11
9.6
 21
0.0
 31
0.0
  0
LINE
  5
18F5
330
762
100
AcDbEntity
  8
241
  6
CONTINUOUS
100
AcDbLine
 10
26.05556228
 20
15.6734648
 30
0.0
 11
26.05556228
 21
0.0
 31
0.0
1001
GRPNAME
1000
PASTMD01
  0
LINE
  5
18F6
330
762
100
AcDbEntity
  8
241
  6
CONTINUOUS
100
AcDbLine
 10
27.05110023
 20
15.00346168
 30
0.0
 11
27.05110023
 21
0.0
 31
0.0
1001
GRPNAME
1000
PASTMD01
  0
LINE
  5
18F7
330
762
100
AcDbEntity
  8
241
  6
CONTINUOUS
100
AcDbLine
 10
30.05556228
 20
12.9814404
 30
0.0
 11
30.05556228
 21
0.0
 31
0.0
1001
GRPNAME
1000
PASTMD01
  0
LINE
  5
18F8
330
762
100
AcDbEntity
  8
241
  6
CONTINUOUS
100
AcDbLine
 10
31.05110023
 20
12.31143729
 30
0.0
 11
31.05110023
 21
0.0
 31
0.0
1001
GRPNAME
1000
PASTMD01
  0
LINE
  5
18F9
330
762
100
AcDbEntity
  8
241
100
AcDbLine
 10
35.6
 20
-9.25
 30
0.0
 11
35.6
 21
0.0
 31
0.0
  0
LINE
  5
18FA
330
762
100
AcDbEntity
  8
241
  6
CONTINUOUS
100
AcDbLine
 10
31.05110023
 20
-12.31143729
 30
0.0
 11
31.05110023
 21
0.0
 31
0.0
1001
GRPNAME
1000
PASTMD01
  0
LINE
  5
18FB
330
762
100
AcDbEntity
  8
241
  6
CONTINUOUS
100
AcDbLine
 10
30.05556228
 20
-12.9814404
 30
0.0
 11
30.05556228
 21
0.0
 31
0.0
1001
GRPNAME
1000
PASTMD01
  0
LINE
  5
18FC
330
762
100
AcDbEntity
  8
241
100
AcDbLine
 10
35.6
 20
9.25
 30
0.0
 11
35.6
 21
0.0
 31
0.0
  0
LINE
  5
18FD
330
762
100
AcDbEntity
  8
240
  6
CONTINUOUS
100
AcDbLine
 10
17.6
 20
23.0
 30
0.0
 11
22.0
 21
23.0
 31
0.0
  0
LINE
  5
18FE
330
762
100
AcDbEntity
  8
240
  6
CONTINUOUS
100
AcDbLine
 10
11.90940108
 20
19.0
 30
0.0
 11
9.6
 21
23.0
 31
0.0
  0
LINE
  5
18FF
330
762
100
AcDbEntity
  8
241
  6
HIDDEN2
100
AcDbLine
 10
19.0
 20
16.3
 30
0.0
 11
19.0
 21
23.0
 31
0.0
  0
LINE
  5
1900
330
762
100
AcDbEntity
  8
240
  6
CONTINUOUS
100
AcDbLine
 10
15.29059892
 20
19.0
 30
0.0
 11
17.6
 21
23.0
 31
0.0
  0
LINE
  5
1901
330
762
100
AcDbEntity
  8
240
  6
CONTINUOUS
100
AcDbLine
 10
11.90940108
 20
19.0
 30
0.0
 11
15.29059892
 21
19.0
 31
0.0
  0
ARC
  5
1902
330
762
100
AcDbEntity
  8
240
  6
CONTINUOUS
100
AcDbCircle
 10
25.0
 20
20.0
 30
0.0
 40
2.999999999999978
100
AcDbArc
 50
180.00000001
 51
236.0592058
1001
GRPNAME
1000
PASTMD0D
  0
LINE
  5
1903
330
762
100
AcDbEntity
  8
240
  6
CONTINUOUS
100
AcDbLine
 10
22.0
 20
23.0
 30
0.0
 11
22.0
 21
20.0
 31
0.0
  0
LINE
  5
1904
330
762
100
AcDbEntity
  8
241
100
AcDbLine
 10
53.92202417
 20
0.51405346
 30
0.0
 11
64.25
 21
-3.24502232
 31
0.0
  0
LINE
  5
1905
330
762
100
AcDbEntity
  8
241
100
AcDbLine
 10
55.18194298
 20
2.69629684
 30
0.0
 11
64.18414098
 21
1.10896645
 31
0.0
  0
LINE
  5
1906
330
762
100
AcDbEntity
  8
240
100
AcDbLine
 10
64.25
 20
9.39776986
 30
0.0
 11
55.18194299
 21
9.6
 31
0.0
  0
LINE
  5
1907
330
762
100
AcDbEntity
  8
241
100
AcDbLine
 10
48.64497901
 20
-5.06571999
 30
0.0
 11
64.25
 21
-8.8312396
 31
0.0
  0
LINE
  5
1908
330
762
100
AcDbEntity
  8
240
100
AcDbLine
 10
64.25
 20
-9.39776986
 30
0.0
 11
55.18194299
 21
-9.6
 31
0.0
  0
ARC
  5
1909
330
762
100
AcDbEntity
  8
241
100
AcDbCircle
 10
49.37893004
 20
-2.024089
 30
0.0
 40
3.128930035431662
100
AcDbArc
 50
79.9999824
 51
256.43374474
  0
LINE
  5
190A
330
762
100
AcDbEntity
  8
240
100
AcDbLine
 10
53.87572518
 20
-9.25
 30
0.0
 11
40.17748714
 21
-9.25
 31
0.0
  0
LINE
  5
190B
330
762
100
AcDbEntity
  8
240
100
AcDbLine
 10
53.87572518
 20
-9.25
 30
0.0
 11
55.18194299
 21
-9.6
 31
0.0
  0
LINE
  5
190C
330
762
100
AcDbEntity
  8
240
100
AcDbLine
 10
53.87572518
 20
9.25
 30
0.0
 11
40.17748713
 21
9.25
 31
0.0
  0
LINE
  5
190D
330
762
100
AcDbEntity
  8
241
100
AcDbLine
 10
53.83712813
 20
0.36700921
 30
0.0
 11
49.92226303
 21
1.05730555
 31
0.0
  0
LINE
  5
190E
330
762
100
AcDbEntity
  8
241
100
AcDbLine
 10
53.83712813
 20
0.36700921
 30
0.0
 11
55.18194298
 21
2.69629684
 31
0.0
  0
LINE
  5
190F
330
762
100
AcDbEntity
  8
240
100
AcDbLine
 10
53.87572518
 20
9.25
 30
0.0
 11
55.18194299
 21
9.6
 31
0.0
  0
LINE
  5
1910
330
762
100
AcDbEntity
  8
240
100
AcDbLine
 10
64.18414098
 20
1.10896645
 30
0.0
 11
65.0
 21
-3.518
 31
0.0
  0
LINE
  5
1911
330
762
100
AcDbEntity
  8
246
100
AcDbLine
 10
65.0
 20
10.0
 30
0.0
 11
65.0
 21
-10.0
 31
0.0
  0
LINE
  5
1912
330
762
100
AcDbEntity
  8
240
100
AcDbLine
 10
64.25
 20
-9.39776986
 30
0.0
 11
64.25
 21
-3.24502232
 31
0.0
  0
LINE
  5
1913
330
762
100
AcDbEntity
  8
246
100
AcDbLine
 10
65.0
 20
-10.0
 30
0.0
 11
57.0
 21
-10.0
 31
0.0
1001
GRPNAME
1000
PASTMD03
  0
LINE
  5
1914
330
762
100
AcDbEntity
  8
240
100
AcDbLine
 10
65.0
 20
-3.518
 30
0.0
 11
64.25
 21
-3.24502232
 31
0.0
  0
LINE
  5
1915
330
762
100
AcDbEntity
  8
240
100
AcDbLine
 10
64.25
 20
9.39776986
 30
0.0
 11
64.25
 21
1.09735373
 31
0.0
  0
POLYLINE
  5
1916
330
762
100
AcDbEntity
  8
241
100
AcDb3dPolyline
 66
     1
 10
0.0
 20
0.0
 30
0.0
 70
     8
  0
VERTEX
  5
1917
330
1916
100
AcDbEntity
  8
241
100
AcDbVertex
100
AcDb3dPolylineVertex
 10
58.6921
 20
6.68055
 30
0.0
 70
    32
  0
VERTEX
  5
1918
330
1916
100
AcDbEntity
  8
241
100
AcDbVertex
100
AcDb3dPolylineVertex
 10
58.6857
 20
6.64161
 30
0.0
 70
    32
  0
VERTEX
  5
1919
330
1916
100
AcDbEntity
  8
241
100
AcDbVertex
100
AcDb3dPolylineVertex
 10
58.68
 20
6.60255
 30
0.0
 70
    32
  0
VERTEX
  5
191A
330
1916
100
AcDbEntity
  8
241
100
AcDbVertex
100
AcDb3dPolylineVertex
 10
58.6752
 20
6.5634
 30
0.0
 70
    32
  0
VERTEX
  5
191B
330
1916
100
AcDbEntity
  8
241
100
AcDbVertex
100
AcDb3dPolylineVertex
 10
58.6712
 20
6.52418
 30
0.0
 70
    32
  0
VERTEX
  5
191C
330
1916
100
AcDbEntity
  8
241
100
AcDbVertex
100
AcDb3dPolylineVertex
 10
58.6679
 20
6.48491
 30
0.0
 70
    32
  0
VERTEX
  5
191D
330
1916
100
AcDbEntity
  8
241
100
AcDbVertex
100
AcDb3dPolylineVertex
 10
58.6655
 20
6.44562
 30
0.0
 70
    32
  0
VERTEX
  5
191E
330
1916
100
AcDbEntity
  8
241
100
AcDbVertex
100
AcDb3dPolylineVertex
 10
58.664
 20
6.40633
 30
0.0
 70
    32
  0
VERTEX
  5
191F
330
1916
100
AcDbEntity
  8
241
100
AcDbVertex
100
AcDb3dPolylineVertex
 10
58.6632
 20
6.36706
 30
0.0
 70
    32
  0
VERTEX
  5
1920
330
1916
100
AcDbEntity
  8
241
100
AcDbVertex
100
AcDb3dPolylineVertex
 10
58.6632
 20
6.32784
 30
0.0
 70
    32
  0
VERTEX
  5
1921
330
1916
100
AcDbEntity
  8
241
100
AcDbVertex
100
AcDb3dPolylineVertex
 10
58.6641
 20
6.28869
 30
0.0
 70
    32
  0
VERTEX
  5
1922
330
1916
100
AcDbEntity
  8
241
100
AcDbVertex
100
AcDb3dPolylineVertex
 10
58.6658
 20
6.24964
 30
0.0
 70
    32
  0
VERTEX
  5
1923
330
1916
100
AcDbEntity
  8
241
100
AcDbVertex
100
AcDb3dPolylineVertex
 10
58.6683
 20
6.2107
 30
0.0
 70
    32
  0
VERTEX
  5
1924
330
1916
100
AcDbEntity
  8
241
100
AcDbVertex
100
AcDb3dPolylineVertex
 10
58.6716
 20
6.1719
 30
0.0
 70
    32
  0
VERTEX
  5
1925
330
1916
100
AcDbEntity
  8
241
100
AcDbVertex
100
AcDb3dPolylineVertex
 10
58.6758
 20
6.13328
 30
0.0
 70
    32
  0
VERTEX
  5
1926
330
1916
100
AcDbEntity
  8
241
100
AcDbVertex
100
AcDb3dPolylineVertex
 10
58.6807
 20
6.09484
 30
0.0
 70
    32
  0
VERTEX
  5
1927
330
1916
100
AcDbEntity
  8
241
100
AcDbVertex
100
AcDb3dPolylineVertex
 10
58.6865
 20
6.05661
 30
0.0
 70
    32
  0
VERTEX
  5
1928
330
1916
100
AcDbEntity
  8
241
100
AcDbVertex
100
AcDb3dPolylineVertex
 10
58.693
 20
6.01861
 30
0.0
 70
    32
  0
VERTEX
  5
1929
330
1916
100
AcDbEntity
  8
241
100
AcDbVertex
100
AcDb3dPolylineVertex
 10
58.7004
 20
5.98087
 30
0.0
 70
    32
  0
VERTEX
  5
192A
330
1916
100
AcDbEntity
  8
241
100
AcDbVertex
100
AcDb3dPolylineVertex
 10
58.7085
 20
5.94342
 30
0.0
 70
    32
  0
VERTEX
  5
192B
330
1916
100
AcDbEntity
  8
241
100
AcDbVertex
100
AcDb3dPolylineVertex
 10
58.7175
 20
5.90626
 30
0.0
 70
    32
  0
VERTEX
  5
192C
330
1916
100
AcDbEntity
  8
241
100
AcDbVertex
100
AcDb3dPolylineVertex
 10
58.7272
 20
5.86944
 30
0.0
 70
    32
  0
VERTEX
  5
192D
330
1916
100
AcDbEntity
  8
241
100
AcDbVertex
100
AcDb3dPolylineVertex
 10
58.7377
 20
5.83295
 30
0.0
 70
    32
  0
VERTEX
  5
192E
330
1916
100
AcDbEntity
  8
241
100
AcDbVertex
100
AcDb3dPolylineVertex
 10
58.749
 20
5.79684
 30
0.0
 70
    32
  0
VERTEX
  5
192F
330
1916
100
AcDbEntity
  8
241
100
AcDbVertex
100
AcDb3dPolylineVertex
 10
58.761
 20
5.76112
 30
0.0
 70
    32
  0
VERTEX
  5
1930
330
1916
100
AcDbEntity
  8
241
100
AcDbVertex
100
AcDb3dPolylineVertex
 10
58.7738
 20
5.72581
 30
0.0
 70
    32
  0
VERTEX
  5
1931
330
1916
100
AcDbEntity
  8
241
100
AcDbVertex
100
AcDb3dPolylineVertex
 10
58.7874
 20
5.69094
 30
0.0
 70
    32
  0
VERTEX
  5
1932
330
1916
100
AcDbEntity
  8
241
100
AcDbVertex
100
AcDb3dPolylineVertex
 10
58.8017
 20
5.65652
 30
0.0
 70
    32
  0
VERTEX
  5
1933
330
1916
100
AcDbEntity
  8
241
100
AcDbVertex
100
AcDb3dPolylineVertex
 10
58.8167
 20
5.62258
 30
0.0
 70
    32
  0
VERTEX
  5
1934
330
1916
100
AcDbEntity
  8
241
100
AcDbVertex
100
AcDb3dPolylineVertex
 10
58.8325
 20
5.58913
 30
0.0
 70
    32
  0
VERTEX
  5
1935
330
1916
100
AcDbEntity
  8
241
100
AcDbVertex
100
AcDb3dPolylineVertex
 10
58.849
 20
5.5562
 30
0.0
 70
    32
  0
VERTEX
  5
1936
330
1916
100
AcDbEntity
  8
241
100
AcDbVertex
100
AcDb3dPolylineVertex
 10
58.8662
 20
5.5238
 30
0.0
 70
    32
  0
VERTEX
  5
1937
330
1916
100
AcDbEntity
  8
241
100
AcDbVertex
100
AcDb3dPolylineVertex
 10
58.8841
 20
5.49196
 30
0.0
 70
    32
  0
VERTEX
  5
1938
330
1916
100
AcDbEntity
  8
241
100
AcDbVertex
100
AcDb3dPolylineVertex
 10
58.9026
 20
5.4607
 30
0.0
 70
    32
  0
VERTEX
  5
1939
330
1916
100
AcDbEntity
  8
241
100
AcDbVertex
100
AcDb3dPolylineVertex
 10
58.9219
 20
5.43003
 30
0.0
 70
    32
  0
VERTEX
  5
193A
330
1916
100
AcDbEntity
  8
241
100
AcDbVertex
100
AcDb3dPolylineVertex
 10
58.9418
 20
5.39997
 30
0.0
 70
    32
  0
VERTEX
  5
193B
330
1916
100
AcDbEntity
  8
241
100
AcDbVertex
100
AcDb3dPolylineVertex
 10
58.9623
 20
5.37054
 30
0.0
 70
    32
  0
VERTEX
  5
193C
330
1916
100
AcDbEntity
  8
241
100
AcDbVertex
100
AcDb3dPolylineVertex
 10
58.9835
 20
5.34176
 30
0.0
 70
    32
  0
VERTEX
  5
193D
330
1916
100
AcDbEntity
  8
241
100
AcDbVertex
100
AcDb3dPolylineVertex
 10
59.0053
 20
5.31364
 30
0.0
 70
    32
  0
VERTEX
  5
193E
330
1916
100
AcDbEntity
  8
241
100
AcDbVertex
100
AcDb3dPolylineVertex
 10
59.0278
 20
5.28621
 30
0.0
 70
    32
  0
VERTEX
  5
193F
330
1916
100
AcDbEntity
  8
241
100
AcDbVertex
100
AcDb3dPolylineVertex
 10
59.0508
 20
5.25947
 30
0.0
 70
    32
  0
VERTEX
  5
1940
330
1916
100
AcDbEntity
  8
241
100
AcDbVertex
100
AcDb3dPolylineVertex
 10
59.0744
 20
5.23345
 30
0.0
 70
    32
  0
VERTEX
  5
1941
330
1916
100
AcDbEntity
  8
241
100
AcDbVertex
100
AcDb3dPolylineVertex
 10
59.0986
 20
5.20816
 30
0.0
 70
    32
  0
VERTEX
  5
1942
330
1916
100
AcDbEntity
  8
241
100
AcDbVertex
100
AcDb3dPolylineVertex
 10
59.1233
 20
5.18362
 30
0.0
 70
    32
  0
VERTEX
  5
1943
330
1916
100
AcDbEntity
  8
241
100
AcDbVertex
100
AcDb3dPolylineVertex
 10
59.1486
 20
5.15983
 30
0.0
 70
    32
  0
VERTEX
  5
1944
330
1916
100
AcDbEntity
  8
241
100
AcDbVertex
100
AcDb3dPolylineVertex
 10
59.1744
 20
5.13682
 30
0.0
 70
    32
  0
VERTEX
  5
1945
330
1916
100
AcDbEntity
  8
241
100
AcDbVertex
100
AcDb3dPolylineVertex
 10
59.2007
 20
5.1146
 30
0.0
 70
    32
  0
VERTEX
  5
1946
330
1916
100
AcDbEntity
  8
241
100
AcDbVertex
100
AcDb3dPolylineVertex
 10
59.2275
 20
5.09318
 30
0.0
 70
    32
  0
VERTEX
  5
1947
330
1916
100
AcDbEntity
  8
241
100
AcDbVertex
100
AcDb3dPolylineVertex
 10
59.2548
 20
5.07258
 30
0.0
 70
    32
  0
VERTEX
  5
1948
330
1916
100
AcDbEntity
  8
241
100
AcDbVertex
100
AcDb3dPolylineVertex
 10
59.2826
 20
5.0528
 30
0.0
 70
    32
  0
VERTEX
  5
1949
330
1916
100
AcDbEntity
  8
241
100
AcDbVertex
100
AcDb3dPolylineVertex
 10
59.3108
 20
5.03387
 30
0.0
 70
    32
  0
VERTEX
  5
194A
330
1916
100
AcDbEntity
  8
241
100
AcDbVertex
100
AcDb3dPolylineVertex
 10
59.3394
 20
5.01578
 30
0.0
 70
    32
  0
VERTEX
  5
194B
330
1916
100
AcDbEntity
  8
241
100
AcDbVertex
100
AcDb3dPolylineVertex
 10
59.3684
 20
4.99856
 30
0.0
 70
    32
  0
VERTEX
  5
194C
330
1916
100
AcDbEntity
  8
241
100
AcDbVertex
100
AcDb3dPolylineVertex
 10
59.3979
 20
4.98221
 30
0.0
 70
    32
  0
VERTEX
  5
194D
330
1916
100
AcDbEntity
  8
241
100
AcDbVertex
100
AcDb3dPolylineVertex
 10
59.4277
 20
4.96673
 30
0.0
 70
    32
  0
VERTEX
  5
194E
330
1916
100
AcDbEntity
  8
241
100
AcDbVertex
100
AcDb3dPolylineVertex
 10
59.4578
 20
4.95216
 30
0.0
 70
    32
  0
VERTEX
  5
194F
330
1916
100
AcDbEntity
  8
241
100
AcDbVertex
100
AcDb3dPolylineVertex
 10
59.4883
 20
4.93848
 30
0.0
 70
    32
  0
VERTEX
  5
1950
330
1916
100
AcDbEntity
  8
241
100
AcDbVertex
100
AcDb3dPolylineVertex
 10
59.5192
 20
4.9257
 30
0.0
 70
    32
  0
VERTEX
  5
1951
330
1916
100
AcDbEntity
  8
241
100
AcDbVertex
100
AcDb3dPolylineVertex
 10
59.5503
 20
4.91385
 30
0.0
 70
    32
  0
VERTEX
  5
1952
330
1916
100
AcDbEntity
  8
241
100
AcDbVertex
100
AcDb3dPolylineVertex
 10
59.5817
 20
4.90292
 30
0.0
 70
    32
  0
VERTEX
  5
1953
330
1916
100
AcDbEntity
  8
241
100
AcDbVertex
100
AcDb3dPolylineVertex
 10
59.6134
 20
4.89291
 30
0.0
 70
    32
  0
VERTEX
  5
1954
330
1916
100
AcDbEntity
  8
241
100
AcDbVertex
100
AcDb3dPolylineVertex
 10
59.6453
 20
4.88385
 30
0.0
 70
    32
  0
VERTEX
  5
1955
330
1916
100
AcDbEntity
  8
241
100
AcDbVertex
100
AcDb3dPolylineVertex
 10
59.6775
 20
4.87572
 30
0.0
 70
    32
  0
VERTEX
  5
1956
330
1916
100
AcDbEntity
  8
241
100
AcDbVertex
100
AcDb3dPolylineVertex
 10
59.7098
 20
4.86854
 30
0.0
 70
    32
  0
VERTEX
  5
1957
330
1916
100
AcDbEntity
  8
241
100
AcDbVertex
100
AcDb3dPolylineVertex
 10
59.7423
 20
4.86231
 30
0.0
 70
    32
  0
VERTEX
  5
1958
330
1916
100
AcDbEntity
  8
241
100
AcDbVertex
100
AcDb3dPolylineVertex
 10
59.7751
 20
4.85703
 30
0.0
 70
    32
  0
VERTEX
  5
1959
330
1916
100
AcDbEntity
  8
241
100
AcDbVertex
100
AcDb3dPolylineVertex
 10
59.8079
 20
4.85271
 30
0.0
 70
    32
  0
VERTEX
  5
195A
330
1916
100
AcDbEntity
  8
241
100
AcDbVertex
100
AcDb3dPolylineVertex
 10
59.8409
 20
4.84935
 30
0.0
 70
    32
  0
VERTEX
  5
195B
330
1916
100
AcDbEntity
  8
241
100
AcDbVertex
100
AcDb3dPolylineVertex
 10
59.874
 20
4.84696
 30
0.0
 70
    32
  0
VERTEX
  5
195C
330
1916
100
AcDbEntity
  8
241
100
AcDbVertex
100
AcDb3dPolylineVertex
 10
59.9072
 20
4.84552
 30
0.0
 70
    32
  0
VERTEX
  5
195D
330
1916
100
AcDbEntity
  8
241
100
AcDbVertex
100
AcDb3dPolylineVertex
 10
59.9404
 20
4.84505
 30
0.0
 70
    32
  0
VERTEX
  5
195E
330
1916
100
AcDbEntity
  8
241
100
AcDbVertex
100
AcDb3dPolylineVertex
 10
59.9738
 20
4.84555
 30
0.0
 70
    32
  0
VERTEX
  5
195F
330
1916
100
AcDbEntity
  8
241
100
AcDbVertex
100
AcDb3dPolylineVertex
 10
60.0071
 20
4.84701
 30
0.0
 70
    32
  0
VERTEX
  5
1960
330
1916
100
AcDbEntity
  8
241
100
AcDbVertex
100
AcDb3dPolylineVertex
 10
60.0404
 20
4.84943
 30
0.0
 70
    32
  0
VERTEX
  5
1961
330
1916
100
AcDbEntity
  8
241
100
AcDbVertex
100
AcDb3dPolylineVertex
 10
60.0738
 20
4.85281
 30
0.0
 70
    32
  0
VERTEX
  5
1962
330
1916
100
AcDbEntity
  8
241
100
AcDbVertex
100
AcDb3dPolylineVertex
 10
60.1071
 20
4.85716
 30
0.0
 70
    32
  0
VERTEX
  5
1963
330
1916
100
AcDbEntity
  8
241
100
AcDbVertex
100
AcDb3dPolylineVertex
 10
60.1403
 20
4.86246
 30
0.0
 70
    32
  0
VERTEX
  5
1964
330
1916
100
AcDbEntity
  8
241
100
AcDbVertex
100
AcDb3dPolylineVertex
 10
60.1735
 20
4.86871
 30
0.0
 70
    32
  0
VERTEX
  5
1965
330
1916
100
AcDbEntity
  8
241
100
AcDbVertex
100
AcDb3dPolylineVertex
 10
60.2066
 20
4.87592
 30
0.0
 70
    32
  0
VERTEX
  5
1966
330
1916
100
AcDbEntity
  8
241
100
AcDbVertex
100
AcDb3dPolylineVertex
 10
60.2395
 20
4.88407
 30
0.0
 70
    32
  0
VERTEX
  5
1967
330
1916
100
AcDbEntity
  8
241
100
AcDbVertex
100
AcDb3dPolylineVertex
 10
60.2724
 20
4.89316
 30
0.0
 70
    32
  0
VERTEX
  5
1968
330
1916
100
AcDbEntity
  8
241
100
AcDbVertex
100
AcDb3dPolylineVertex
 10
60.3051
 20
4.90319
 30
0.0
 70
    32
  0
VERTEX
  5
1969
330
1916
100
AcDbEntity
  8
241
100
AcDbVertex
100
AcDb3dPolylineVertex
 10
60.3376
 20
4.91414
 30
0.0
 70
    32
  0
VERTEX
  5
196A
330
1916
100
AcDbEntity
  8
241
100
AcDbVertex
100
AcDb3dPolylineVertex
 10
60.3699
 20
4.92602
 30
0.0
 70
    32
  0
VERTEX
  5
196B
330
1916
100
AcDbEntity
  8
241
100
AcDbVertex
100
AcDb3dPolylineVertex
 10
60.402
 20
4.93882
 30
0.0
 70
    32
  0
VERTEX
  5
196C
330
1916
100
AcDbEntity
  8
241
100
AcDbVertex
100
AcDb3dPolylineVertex
 10
60.4339
 20
4.95252
 30
0.0
 70
    32
  0
VERTEX
  5
196D
330
1916
100
AcDbEntity
  8
241
100
AcDbVertex
100
AcDb3dPolylineVertex
 10
60.4656
 20
4.96712
 30
0.0
 70
    32
  0
VERTEX
  5
196E
330
1916
100
AcDbEntity
  8
241
100
AcDbVertex
100
AcDb3dPolylineVertex
 10
60.497
 20
4.98262
 30
0.0
 70
    32
  0
VERTEX
  5
196F
330
1916
100
AcDbEntity
  8
241
100
AcDbVertex
100
AcDb3dPolylineVertex
 10
60.528
 20
4.99899
 30
0.0
 70
    32
  0
VERTEX
  5
1970
330
1916
100
AcDbEntity
  8
241
100
AcDbVertex
100
AcDb3dPolylineVertex
 10
60.5588
 20
5.01624
 30
0.0
 70
    32
  0
VERTEX
  5
1971
330
1916
100
AcDbEntity
  8
241
100
AcDbVertex
100
AcDb3dPolylineVertex
 10
60.5893
 20
5.03435
 30
0.0
 70
    32
  0
VERTEX
  5
1972
330
1916
100
AcDbEntity
  8
241
100
AcDbVertex
100
AcDb3dPolylineVertex
 10
60.6194
 20
5.0533
 30
0.0
 70
    32
  0
VERTEX
  5
1973
330
1916
100
AcDbEntity
  8
241
100
AcDbVertex
100
AcDb3dPolylineVertex
 10
60.6492
 20
5.0731
 30
0.0
 70
    32
  0
VERTEX
  5
1974
330
1916
100
AcDbEntity
  8
241
100
AcDbVertex
100
AcDb3dPolylineVertex
 10
60.6785
 20
5.09373
 30
0.0
 70
    32
  0
VERTEX
  5
1975
330
1916
100
AcDbEntity
  8
241
100
AcDbVertex
100
AcDb3dPolylineVertex
 10
60.7075
 20
5.11516
 30
0.0
 70
    32
  0
VERTEX
  5
1976
330
1916
100
AcDbEntity
  8
241
100
AcDbVertex
100
AcDb3dPolylineVertex
 10
60.7361
 20
5.13741
 30
0.0
 70
    32
  0
VERTEX
  5
1977
330
1916
100
AcDbEntity
  8
241
100
AcDbVertex
100
AcDb3dPolylineVertex
 10
60.7642
 20
5.16043
 30
0.0
 70
    32
  0
VERTEX
  5
1978
330
1916
100
AcDbEntity
  8
241
100
AcDbVertex
100
AcDb3dPolylineVertex
 10
60.7919
 20
5.18424
 30
0.0
 70
    32
  0
VERTEX
  5
1979
330
1916
100
AcDbEntity
  8
241
100
AcDbVertex
100
AcDb3dPolylineVertex
 10
60.8192
 20
5.2088
 30
0.0
 70
    32
  0
VERTEX
  5
197A
330
1916
100
AcDbEntity
  8
241
100
AcDbVertex
100
AcDb3dPolylineVertex
 10
60.8459
 20
5.23411
 30
0.0
 70
    32
  0
VERTEX
  5
197B
330
1916
100
AcDbEntity
  8
241
100
AcDbVertex
100
AcDb3dPolylineVertex
 10
60.8722
 20
5.26015
 30
0.0
 70
    32
  0
VERTEX
  5
197C
330
1916
100
AcDbEntity
  8
241
100
AcDbVertex
100
AcDb3dPolylineVertex
 10
60.8979
 20
5.2869
 30
0.0
 70
    32
  0
VERTEX
  5
197D
330
1916
100
AcDbEntity
  8
241
100
AcDbVertex
100
AcDb3dPolylineVertex
 10
60.9231
 20
5.31436
 30
0.0
 70
    32
  0
VERTEX
  5
197E
330
1916
100
AcDbEntity
  8
241
100
AcDbVertex
100
AcDb3dPolylineVertex
 10
60.9478
 20
5.34249
 30
0.0
 70
    32
  0
VERTEX
  5
197F
330
1916
100
AcDbEntity
  8
241
100
AcDbVertex
100
AcDb3dPolylineVertex
 10
60.9719
 20
5.37129
 30
0.0
 70
    32
  0
VERTEX
  5
1980
330
1916
100
AcDbEntity
  8
241
100
AcDbVertex
100
AcDb3dPolylineVertex
 10
60.9954
 20
5.40073
 30
0.0
 70
    32
  0
VERTEX
  5
1981
330
1916
100
AcDbEntity
  8
241
100
AcDbVertex
100
AcDb3dPolylineVertex
 10
61.0184
 20
5.43081
 30
0.0
 70
    32
  0
VERTEX
  5
1982
330
1916
100
AcDbEntity
  8
241
100
AcDbVertex
100
AcDb3dPolylineVertex
 10
61.0407
 20
5.4615
 30
0.0
 70
    32
  0
VERTEX
  5
1983
330
1916
100
AcDbEntity
  8
241
100
AcDbVertex
100
AcDb3dPolylineVertex
 10
61.0625
 20
5.49278
 30
0.0
 70
    32
  0
VERTEX
  5
1984
330
1916
100
AcDbEntity
  8
241
100
AcDbVertex
100
AcDb3dPolylineVertex
 10
61.0836
 20
5.52463
 30
0.0
 70
    32
  0
VERTEX
  5
1985
330
1916
100
AcDbEntity
  8
241
100
AcDbVertex
100
AcDb3dPolylineVertex
 10
61.1041
 20
5.55704
 30
0.0
 70
    32
  0
VERTEX
  5
1986
330
1916
100
AcDbEntity
  8
241
100
AcDbVertex
100
AcDb3dPolylineVertex
 10
61.1239
 20
5.58998
 30
0.0
 70
    32
  0
VERTEX
  5
1987
330
1916
100
AcDbEntity
  8
241
100
AcDbVertex
100
AcDb3dPolylineVertex
 10
61.143
 20
5.62345
 30
0.0
 70
    32
  0
VERTEX
  5
1988
330
1916
100
AcDbEntity
  8
241
100
AcDbVertex
100
AcDb3dPolylineVertex
 10
61.1615
 20
5.6574
 30
0.0
 70
    32
  0
VERTEX
  5
1989
330
1916
100
AcDbEntity
  8
241
100
AcDbVertex
100
AcDb3dPolylineVertex
 10
61.1793
 20
5.69183
 30
0.0
 70
    32
  0
VERTEX
  5
198A
330
1916
100
AcDbEntity
  8
241
100
AcDbVertex
100
AcDb3dPolylineVertex
 10
61.1964
 20
5.72672
 30
0.0
 70
    32
  0
VERTEX
  5
198B
330
1916
100
AcDbEntity
  8
241
100
AcDbVertex
100
AcDb3dPolylineVertex
 10
61.2128
 20
5.76204
 30
0.0
 70
    32
  0
VERTEX
  5
198C
330
1916
100
AcDbEntity
  8
241
100
AcDbVertex
100
AcDb3dPolylineVertex
 10
61.2285
 20
5.79777
 30
0.0
 70
    32
  0
VERTEX
  5
198D
330
1916
100
AcDbEntity
  8
241
100
AcDbVertex
100
AcDb3dPolylineVertex
 10
61.2434
 20
5.83389
 30
0.0
 70
    32
  0
VERTEX
  5
198E
330
1916
100
AcDbEntity
  8
241
100
AcDbVertex
100
AcDb3dPolylineVertex
 10
61.2576
 20
5.87038
 30
0.0
 70
    32
  0
VERTEX
  5
198F
330
1916
100
AcDbEntity
  8
241
100
AcDbVertex
100
AcDb3dPolylineVertex
 10
61.2711
 20
5.90722
 30
0.0
 70
    32
  0
VERTEX
  5
1990
330
1916
100
AcDbEntity
  8
241
100
AcDbVertex
100
AcDb3dPolylineVertex
 10
61.2838
 20
5.94438
 30
0.0
 70
    32
  0
VERTEX
  5
1991
330
1916
100
AcDbEntity
  8
241
100
AcDbVertex
100
AcDb3dPolylineVertex
 10
61.2957
 20
5.98184
 30
0.0
 70
    32
  0
VERTEX
  5
1992
330
1916
100
AcDbEntity
  8
241
100
AcDbVertex
100
AcDb3dPolylineVertex
 10
61.3069
 20
6.01959
 30
0.0
 70
    32
  0
VERTEX
  5
1993
330
1916
100
AcDbEntity
  8
241
100
AcDbVertex
100
AcDb3dPolylineVertex
 10
61.3173
 20
6.05759
 30
0.0
 70
    32
  0
VERTEX
  5
1994
330
1916
100
AcDbEntity
  8
241
100
AcDbVertex
100
AcDb3dPolylineVertex
 10
61.327
 20
6.09582
 30
0.0
 70
    32
  0
VERTEX
  5
1995
330
1916
100
AcDbEntity
  8
241
100
AcDbVertex
100
AcDb3dPolylineVertex
 10
61.3358
 20
6.13427
 30
0.0
 70
    32
  0
VERTEX
  5
1996
330
1916
100
AcDbEntity
  8
241
100
AcDbVertex
100
AcDb3dPolylineVertex
 10
61.3439
 20
6.1729
 30
0.0
 70
    32
  0
VERTEX
  5
1997
330
1916
100
AcDbEntity
  8
241
100
AcDbVertex
100
AcDb3dPolylineVertex
 10
61.3511
 20
6.2117
 30
0.0
 70
    32
  0
SEQEND
  5
1998
330
1916
100
AcDbEntity
  8
241
  0
LINE
  5
1999
330
762
100
AcDbEntity
  8
240
100
AcDbLine
 10
64.25
 20
1.09735373
 30
0.0
 11
64.18414098
 21
1.10896645
 31
0.0
  0
LINE
  5
199A
330
762
100
AcDbEntity
  8
246
100
AcDbLine
 10
65.0
 20
10.0
 30
0.0
 11
57.0
 21
10.0
 31
0.0
1001
GRPNAME
1000
PASTMD03
  0
POLYLINE
  5
199B
330
762
100
AcDbEntity
  8
241
100
AcDb3dPolyline
 66
     1
 10
0.0
 20
0.0
 30
0.0
 70
     8
  0
VERTEX
  5
199C
330
199B
100
AcDbEntity
  8
241
100
AcDbVertex
100
AcDb3dPolylineVertex
 10
61.3511
 20
6.2117
 30
0.0
 70
    32
  0
VERTEX
  5
199D
330
199B
100
AcDbEntity
  8
241
100
AcDbVertex
100
AcDb3dPolylineVertex
 10
61.3556
 20
6.23947
 30
0.0
 70
    32
  0
VERTEX
  5
199E
330
199B
100
AcDbEntity
  8
241
100
AcDbVertex
100
AcDb3dPolylineVertex
 10
61.3593
 20
6.26737
 30
0.0
 70
    32
  0
VERTEX
  5
199F
330
199B
100
AcDbEntity
  8
241
100
AcDbVertex
100
AcDb3dPolylineVertex
 10
61.3621
 20
6.29537
 30
0.0
 70
    32
  0
VERTEX
  5
19A0
330
199B
100
AcDbEntity
  8
241
100
AcDbVertex
100
AcDb3dPolylineVertex
 10
61.3642
 20
6.32346
 30
0.0
 70
    32
  0
VERTEX
  5
19A1
330
199B
100
AcDbEntity
  8
241
100
AcDbVertex
100
AcDb3dPolylineVertex
 10
61.3655
 20
6.35163
 30
0.0
 70
    32
  0
VERTEX
  5
19A2
330
199B
100
AcDbEntity
  8
241
100
AcDbVertex
100
AcDb3dPolylineVertex
 10
61.3659
 20
6.37985
 30
0.0
 70
    32
  0
VERTEX
  5
19A3
330
199B
100
AcDbEntity
  8
241
100
AcDbVertex
100
AcDb3dPolylineVertex
 10
61.3656
 20
6.40811
 30
0.0
 70
    32
  0
VERTEX
  5
19A4
330
199B
100
AcDbEntity
  8
241
100
AcDbVertex
100
AcDb3dPolylineVertex
 10
61.3644
 20
6.4364
 30
0.0
 70
    32
  0
VERTEX
  5
19A5
330
199B
100
AcDbEntity
  8
241
100
AcDbVertex
100
AcDb3dPolylineVertex
 10
61.3624
 20
6.46469
 30
0.0
 70
    32
  0
VERTEX
  5
19A6
330
199B
100
AcDbEntity
  8
241
100
AcDbVertex
100
AcDb3dPolylineVertex
 10
61.3596
 20
6.49297
 30
0.0
 70
    32
  0
VERTEX
  5
19A7
330
199B
100
AcDbEntity
  8
241
100
AcDbVertex
100
AcDb3dPolylineVertex
 10
61.356
 20
6.52123
 30
0.0
 70
    32
  0
VERTEX
  5
19A8
330
199B
100
AcDbEntity
  8
241
100
AcDbVertex
100
AcDb3dPolylineVertex
 10
61.3516
 20
6.54944
 30
0.0
 70
    32
  0
VERTEX
  5
19A9
330
199B
100
AcDbEntity
  8
241
100
AcDbVertex
100
AcDb3dPolylineVertex
 10
61.3464
 20
6.57758
 30
0.0
 70
    32
  0
VERTEX
  5
19AA
330
199B
100
AcDbEntity
  8
241
100
AcDbVertex
100
AcDb3dPolylineVertex
 10
61.3404
 20
6.60565
 30
0.0
 70
    32
  0
VERTEX
  5
19AB
330
199B
100
AcDbEntity
  8
241
100
AcDbVertex
100
AcDb3dPolylineVertex
 10
61.3337
 20
6.63362
 30
0.0
 70
    32
  0
VERTEX
  5
19AC
330
199B
100
AcDbEntity
  8
241
100
AcDbVertex
100
AcDb3dPolylineVertex
 10
61.3261
 20
6.66147
 30
0.0
 70
    32
  0
VERTEX
  5
19AD
330
199B
100
AcDbEntity
  8
241
100
AcDbVertex
100
AcDb3dPolylineVertex
 10
61.3177
 20
6.6892
 30
0.0
 70
    32
  0
VERTEX
  5
19AE
330
199B
100
AcDbEntity
  8
241
100
AcDbVertex
100
AcDb3dPolylineVertex
 10
61.3086
 20
6.71678
 30
0.0
 70
    32
  0
VERTEX
  5
19AF
330
199B
100
AcDbEntity
  8
241
100
AcDbVertex
100
AcDb3dPolylineVertex
 10
61.2986
 20
6.7442
 30
0.0
 70
    32
  0
VERTEX
  5
19B0
330
199B
100
AcDbEntity
  8
241
100
AcDbVertex
100
AcDb3dPolylineVertex
 10
61.2879
 20
6.77144
 30
0.0
 70
    32
  0
VERTEX
  5
19B1
330
199B
100
AcDbEntity
  8
241
100
AcDbVertex
100
AcDb3dPolylineVertex
 10
61.2765
 20
6.79848
 30
0.0
 70
    32
  0
VERTEX
  5
19B2
330
199B
100
AcDbEntity
  8
241
100
AcDbVertex
100
AcDb3dPolylineVertex
 10
61.2643
 20
6.82531
 30
0.0
 70
    32
  0
VERTEX
  5
19B3
330
199B
100
AcDbEntity
  8
241
100
AcDbVertex
100
AcDb3dPolylineVertex
 10
61.2513
 20
6.85191
 30
0.0
 70
    32
  0
VERTEX
  5
19B4
330
199B
100
AcDbEntity
  8
241
100
AcDbVertex
100
AcDb3dPolylineVertex
 10
61.2376
 20
6.87827
 30
0.0
 70
    32
  0
VERTEX
  5
19B5
330
199B
100
AcDbEntity
  8
241
100
AcDbVertex
100
AcDb3dPolylineVertex
 10
61.2232
 20
6.90437
 30
0.0
 70
    32
  0
VERTEX
  5
19B6
330
199B
100
AcDbEntity
  8
241
100
AcDbVertex
100
AcDb3dPolylineVertex
 10
61.208
 20
6.93019
 30
0.0
 70
    32
  0
VERTEX
  5
19B7
330
199B
100
AcDbEntity
  8
241
100
AcDbVertex
100
AcDb3dPolylineVertex
 10
61.1922
 20
6.95572
 30
0.0
 70
    32
  0
VERTEX
  5
19B8
330
199B
100
AcDbEntity
  8
241
100
AcDbVertex
100
AcDb3dPolylineVertex
 10
61.1756
 20
6.98094
 30
0.0
 70
    32
  0
VERTEX
  5
19B9
330
199B
100
AcDbEntity
  8
241
100
AcDbVertex
100
AcDb3dPolylineVertex
 10
61.1583
 20
7.00584
 30
0.0
 70
    32
  0
VERTEX
  5
19BA
330
199B
100
AcDbEntity
  8
241
100
AcDbVertex
100
AcDb3dPolylineVertex
 10
61.1404
 20
7.03041
 30
0.0
 70
    32
  0
VERTEX
  5
19BB
330
199B
100
AcDbEntity
  8
241
100
AcDbVertex
100
AcDb3dPolylineVertex
 10
61.1217
 20
7.05462
 30
0.0
 70
    32
  0
VERTEX
  5
19BC
330
199B
100
AcDbEntity
  8
241
100
AcDbVertex
100
AcDb3dPolylineVertex
 10
61.1024
 20
7.07846
 30
0.0
 70
    32
  0
VERTEX
  5
19BD
330
199B
100
AcDbEntity
  8
241
100
AcDbVertex
100
AcDb3dPolylineVertex
 10
61.0825
 20
7.10193
 30
0.0
 70
    32
  0
VERTEX
  5
19BE
330
199B
100
AcDbEntity
  8
241
100
AcDbVertex
100
AcDb3dPolylineVertex
 10
61.0619
 20
7.125
 30
0.0
 70
    32
  0
VERTEX
  5
19BF
330
199B
100
AcDbEntity
  8
241
100
AcDbVertex
100
AcDb3dPolylineVertex
 10
61.0407
 20
7.14766
 30
0.0
 70
    32
  0
VERTEX
  5
19C0
330
199B
100
AcDbEntity
  8
241
100
AcDbVertex
100
AcDb3dPolylineVertex
 10
61.0189
 20
7.16989
 30
0.0
 70
    32
  0
VERTEX
  5
19C1
330
199B
100
AcDbEntity
  8
241
100
AcDbVertex
100
AcDb3dPolylineVertex
 10
60.9965
 20
7.1917
 30
0.0
 70
    32
  0
VERTEX
  5
19C2
330
199B
100
AcDbEntity
  8
241
100
AcDbVertex
100
AcDb3dPolylineVertex
 10
60.9734
 20
7.21305
 30
0.0
 70
    32
  0
VERTEX
  5
19C3
330
199B
100
AcDbEntity
  8
241
100
AcDbVertex
100
AcDb3dPolylineVertex
 10
60.9499
 20
7.23394
 30
0.0
 70
    32
  0
VERTEX
  5
19C4
330
199B
100
AcDbEntity
  8
241
100
AcDbVertex
100
AcDb3dPolylineVertex
 10
60.9257
 20
7.25435
 30
0.0
 70
    32
  0
VERTEX
  5
19C5
330
199B
100
AcDbEntity
  8
241
100
AcDbVertex
100
AcDb3dPolylineVertex
 10
60.901
 20
7.27428
 30
0.0
 70
    32
  0
VERTEX
  5
19C6
330
199B
100
AcDbEntity
  8
241
100
AcDbVertex
100
AcDb3dPolylineVertex
 10
60.8758
 20
7.29371
 30
0.0
 70
    32
  0
VERTEX
  5
19C7
330
199B
100
AcDbEntity
  8
241
100
AcDbVertex
100
AcDb3dPolylineVertex
 10
60.8501
 20
7.31263
 30
0.0
 70
    32
  0
VERTEX
  5
19C8
330
199B
100
AcDbEntity
  8
241
100
AcDbVertex
100
AcDb3dPolylineVertex
 10
60.8239
 20
7.33103
 30
0.0
 70
    32
  0
VERTEX
  5
19C9
330
199B
100
AcDbEntity
  8
241
100
AcDbVertex
100
AcDb3dPolylineVertex
 10
60.7971
 20
7.34889
 30
0.0
 70
    32
  0
VERTEX
  5
19CA
330
199B
100
AcDbEntity
  8
241
100
AcDbVertex
100
AcDb3dPolylineVertex
 10
60.77
 20
7.36622
 30
0.0
 70
    32
  0
VERTEX
  5
19CB
330
199B
100
AcDbEntity
  8
241
100
AcDbVertex
100
AcDb3dPolylineVertex
 10
60.7423
 20
7.38298
 30
0.0
 70
    32
  0
VERTEX
  5
19CC
330
199B
100
AcDbEntity
  8
241
100
AcDbVertex
100
AcDb3dPolylineVertex
 10
60.7143
 20
7.39918
 30
0.0
 70
    32
  0
VERTEX
  5
19CD
330
199B
100
AcDbEntity
  8
241
100
AcDbVertex
100
AcDb3dPolylineVertex
 10
60.6858
 20
7.41481
 30
0.0
 70
    32
  0
VERTEX
  5
19CE
330
199B
100
AcDbEntity
  8
241
100
AcDbVertex
100
AcDb3dPolylineVertex
 10
60.6569
 20
7.42986
 30
0.0
 70
    32
  0
VERTEX
  5
19CF
330
199B
100
AcDbEntity
  8
241
100
AcDbVertex
100
AcDb3dPolylineVertex
 10
60.6276
 20
7.44431
 30
0.0
 70
    32
  0
VERTEX
  5
19D0
330
199B
100
AcDbEntity
  8
241
100
AcDbVertex
100
AcDb3dPolylineVertex
 10
60.598
 20
7.45816
 30
0.0
 70
    32
  0
VERTEX
  5
19D1
330
199B
100
AcDbEntity
  8
241
100
AcDbVertex
100
AcDb3dPolylineVertex
 10
60.568
 20
7.4714
 30
0.0
 70
    32
  0
VERTEX
  5
19D2
330
199B
100
AcDbEntity
  8
241
100
AcDbVertex
100
AcDb3dPolylineVertex
 10
60.5377
 20
7.48402
 30
0.0
 70
    32
  0
VERTEX
  5
19D3
330
199B
100
AcDbEntity
  8
241
100
AcDbVertex
100
AcDb3dPolylineVertex
 10
60.5071
 20
7.49602
 30
0.0
 70
    32
  0
VERTEX
  5
19D4
330
199B
100
AcDbEntity
  8
241
100
AcDbVertex
100
AcDb3dPolylineVertex
 10
60.4762
 20
7.50739
 30
0.0
 70
    32
  0
VERTEX
  5
19D5
330
199B
100
AcDbEntity
  8
241
100
AcDbVertex
100
AcDb3dPolylineVertex
 10
60.445
 20
7.51812
 30
0.0
 70
    32
  0
VERTEX
  5
19D6
330
199B
100
AcDbEntity
  8
241
100
AcDbVertex
100
AcDb3dPolylineVertex
 10
60.4136
 20
7.5282
 30
0.0
 70
    32
  0
VERTEX
  5
19D7
330
199B
100
AcDbEntity
  8
241
100
AcDbVertex
100
AcDb3dPolylineVertex
 10
60.3819
 20
7.53763
 30
0.0
 70
    32
  0
VERTEX
  5
19D8
330
199B
100
AcDbEntity
  8
241
100
AcDbVertex
100
AcDb3dPolylineVertex
 10
60.35
 20
7.5464
 30
0.0
 70
    32
  0
VERTEX
  5
19D9
330
199B
100
AcDbEntity
  8
241
100
AcDbVertex
100
AcDb3dPolylineVertex
 10
60.3179
 20
7.55451
 30
0.0
 70
    32
  0
VERTEX
  5
19DA
330
199B
100
AcDbEntity
  8
241
100
AcDbVertex
100
AcDb3dPolylineVertex
 10
60.2856
 20
7.56195
 30
0.0
 70
    32
  0
VERTEX
  5
19DB
330
199B
100
AcDbEntity
  8
241
100
AcDbVertex
100
AcDb3dPolylineVertex
 10
60.2532
 20
7.56872
 30
0.0
 70
    32
  0
VERTEX
  5
19DC
330
199B
100
AcDbEntity
  8
241
100
AcDbVertex
100
AcDb3dPolylineVertex
 10
60.2206
 20
7.57481
 30
0.0
 70
    32
  0
VERTEX
  5
19DD
330
199B
100
AcDbEntity
  8
241
100
AcDbVertex
100
AcDb3dPolylineVertex
 10
60.1879
 20
7.58022
 30
0.0
 70
    32
  0
VERTEX
  5
19DE
330
199B
100
AcDbEntity
  8
241
100
AcDbVertex
100
AcDb3dPolylineVertex
 10
60.1552
 20
7.58495
 30
0.0
 70
    32
  0
VERTEX
  5
19DF
330
199B
100
AcDbEntity
  8
241
100
AcDbVertex
100
AcDb3dPolylineVertex
 10
60.1223
 20
7.589
 30
0.0
 70
    32
  0
VERTEX
  5
19E0
330
199B
100
AcDbEntity
  8
241
100
AcDbVertex
100
AcDb3dPolylineVertex
 10
60.0894
 20
7.59235
 30
0.0
 70
    32
  0
VERTEX
  5
19E1
330
199B
100
AcDbEntity
  8
241
100
AcDbVertex
100
AcDb3dPolylineVertex
 10
60.0564
 20
7.59502
 30
0.0
 70
    32
  0
VERTEX
  5
19E2
330
199B
100
AcDbEntity
  8
241
100
AcDbVertex
100
AcDb3dPolylineVertex
 10
60.0234
 20
7.59699
 30
0.0
 70
    32
  0
VERTEX
  5
19E3
330
199B
100
AcDbEntity
  8
241
100
AcDbVertex
100
AcDb3dPolylineVertex
 10
59.9904
 20
7.59827
 30
0.0
 70
    32
  0
VERTEX
  5
19E4
330
199B
100
AcDbEntity
  8
241
100
AcDbVertex
100
AcDb3dPolylineVertex
 10
59.9574
 20
7.59886
 30
0.0
 70
    32
  0
VERTEX
  5
19E5
330
199B
100
AcDbEntity
  8
241
100
AcDbVertex
100
AcDb3dPolylineVertex
 10
59.9245
 20
7.59875
 30
0.0
 70
    32
  0
VERTEX
  5
19E6
330
199B
100
AcDbEntity
  8
241
100
AcDbVertex
100
AcDb3dPolylineVertex
 10
59.8916
 20
7.59795
 30
0.0
 70
    32
  0
VERTEX
  5
19E7
330
199B
100
AcDbEntity
  8
241
100
AcDbVertex
100
AcDb3dPolylineVertex
 10
59.8588
 20
7.59645
 30
0.0
 70
    32
  0
VERTEX
  5
19E8
330
199B
100
AcDbEntity
  8
241
100
AcDbVertex
100
AcDb3dPolylineVertex
 10
59.8261
 20
7.59426
 30
0.0
 70
    32
  0
VERTEX
  5
19E9
330
199B
100
AcDbEntity
  8
241
100
AcDbVertex
100
AcDb3dPolylineVertex
 10
59.7936
 20
7.59138
 30
0.0
 70
    32
  0
VERTEX
  5
19EA
330
199B
100
AcDbEntity
  8
241
100
AcDbVertex
100
AcDb3dPolylineVertex
 10
59.7611
 20
7.58781
 30
0.0
 70
    32
  0
VERTEX
  5
19EB
330
199B
100
AcDbEntity
  8
241
100
AcDbVertex
100
AcDb3dPolylineVertex
 10
59.7288
 20
7.58355
 30
0.0
 70
    32
  0
VERTEX
  5
19EC
330
199B
100
AcDbEntity
  8
241
100
AcDbVertex
100
AcDb3dPolylineVertex
 10
59.6967
 20
7.57861
 30
0.0
 70
    32
  0
VERTEX
  5
19ED
330
199B
100
AcDbEntity
  8
241
100
AcDbVertex
100
AcDb3dPolylineVertex
 10
59.6648
 20
7.57298
 30
0.0
 70
    32
  0
VERTEX
  5
19EE
330
199B
100
AcDbEntity
  8
241
100
AcDbVertex
100
AcDb3dPolylineVertex
 10
59.6331
 20
7.56667
 30
0.0
 70
    32
  0
VERTEX
  5
19EF
330
199B
100
AcDbEntity
  8
241
100
AcDbVertex
100
AcDb3dPolylineVertex
 10
59.6016
 20
7.55969
 30
0.0
 70
    32
  0
VERTEX
  5
19F0
330
199B
100
AcDbEntity
  8
241
100
AcDbVertex
100
AcDb3dPolylineVertex
 10
59.5704
 20
7.55204
 30
0.0
 70
    32
  0
VERTEX
  5
19F1
330
199B
100
AcDbEntity
  8
241
100
AcDbVertex
100
AcDb3dPolylineVertex
 10
59.5395
 20
7.54373
 30
0.0
 70
    32
  0
VERTEX
  5
19F2
330
199B
100
AcDbEntity
  8
241
100
AcDbVertex
100
AcDb3dPolylineVertex
 10
59.5088
 20
7.53475
 30
0.0
 70
    32
  0
VERTEX
  5
19F3
330
199B
100
AcDbEntity
  8
241
100
AcDbVertex
100
AcDb3dPolylineVertex
 10
59.4785
 20
7.52512
 30
0.0
 70
    32
  0
VERTEX
  5
19F4
330
199B
100
AcDbEntity
  8
241
100
AcDbVertex
100
AcDb3dPolylineVertex
 10
59.4485
 20
7.51483
 30
0.0
 70
    32
  0
VERTEX
  5
19F5
330
199B
100
AcDbEntity
  8
241
100
AcDbVertex
100
AcDb3dPolylineVertex
 10
59.4188
 20
7.50391
 30
0.0
 70
    32
  0
VERTEX
  5
19F6
330
199B
100
AcDbEntity
  8
241
100
AcDbVertex
100
AcDb3dPolylineVertex
 10
59.3895
 20
7.49234
 30
0.0
 70
    32
  0
VERTEX
  5
19F7
330
199B
100
AcDbEntity
  8
241
100
AcDbVertex
100
AcDb3dPolylineVertex
 10
59.3606
 20
7.48015
 30
0.0
 70
    32
  0
VERTEX
  5
19F8
330
199B
100
AcDbEntity
  8
241
100
AcDbVertex
100
AcDb3dPolylineVertex
 10
59.332
 20
7.46733
 30
0.0
 70
    32
  0
VERTEX
  5
19F9
330
199B
100
AcDbEntity
  8
241
100
AcDbVertex
100
AcDb3dPolylineVertex
 10
59.3039
 20
7.4539
 30
0.0
 70
    32
  0
VERTEX
  5
19FA
330
199B
100
AcDbEntity
  8
241
100
AcDbVertex
100
AcDb3dPolylineVertex
 10
59.2763
 20
7.43986
 30
0.0
 70
    32
  0
VERTEX
  5
19FB
330
199B
100
AcDbEntity
  8
241
100
AcDbVertex
100
AcDb3dPolylineVertex
 10
59.249
 20
7.42522
 30
0.0
 70
    32
  0
VERTEX
  5
19FC
330
199B
100
AcDbEntity
  8
241
100
AcDbVertex
100
AcDb3dPolylineVertex
 10
59.2223
 20
7.40999
 30
0.0
 70
    32
  0
VERTEX
  5
19FD
330
199B
100
AcDbEntity
  8
241
100
AcDbVertex
100
AcDb3dPolylineVertex
 10
59.196
 20
7.39418
 30
0.0
 70
    32
  0
VERTEX
  5
19FE
330
199B
100
AcDbEntity
  8
241
100
AcDbVertex
100
AcDb3dPolylineVertex
 10
59.1702
 20
7.3778
 30
0.0
 70
    32
  0
VERTEX
  5
19FF
330
199B
100
AcDbEntity
  8
241
100
AcDbVertex
100
AcDb3dPolylineVertex
 10
59.1449
 20
7.36086
 30
0.0
 70
    32
  0
VERTEX
  5
1A00
330
199B
100
AcDbEntity
  8
241
100
AcDbVertex
100
AcDb3dPolylineVertex
 10
59.1202
 20
7.34337
 30
0.0
 70
    32
  0
VERTEX
  5
1A01
330
199B
100
AcDbEntity
  8
241
100
AcDbVertex
100
AcDb3dPolylineVertex
 10
59.096
 20
7.32534
 30
0.0
 70
    32
  0
VERTEX
  5
1A02
330
199B
100
AcDbEntity
  8
241
100
AcDbVertex
100
AcDb3dPolylineVertex
 10
59.0723
 20
7.30677
 30
0.0
 70
    32
  0
VERTEX
  5
1A03
330
199B
100
AcDbEntity
  8
241
100
AcDbVertex
100
AcDb3dPolylineVertex
 10
59.0492
 20
7.28769
 30
0.0
 70
    32
  0
VERTEX
  5
1A04
330
199B
100
AcDbEntity
  8
241
100
AcDbVertex
100
AcDb3dPolylineVertex
 10
59.0268
 20
7.26811
 30
0.0
 70
    32
  0
VERTEX
  5
1A05
330
199B
100
AcDbEntity
  8
241
100
AcDbVertex
100
AcDb3dPolylineVertex
 10
59.0049
 20
7.24802
 30
0.0
 70
    32
  0
VERTEX
  5
1A06
330
199B
100
AcDbEntity
  8
241
100
AcDbVertex
100
AcDb3dPolylineVertex
 10
58.9836
 20
7.22746
 30
0.0
 70
    32
  0
VERTEX
  5
1A07
330
199B
100
AcDbEntity
  8
241
100
AcDbVertex
100
AcDb3dPolylineVertex
 10
58.9629
 20
7.20642
 30
0.0
 70
    32
  0
VERTEX
  5
1A08
330
199B
100
AcDbEntity
  8
241
100
AcDbVertex
100
AcDb3dPolylineVertex
 10
58.9429
 20
7.18493
 30
0.0
 70
    32
  0
VERTEX
  5
1A09
330
199B
100
AcDbEntity
  8
241
100
AcDbVertex
100
AcDb3dPolylineVertex
 10
58.9236
 20
7.16299
 30
0.0
 70
    32
  0
VERTEX
  5
1A0A
330
199B
100
AcDbEntity
  8
241
100
AcDbVertex
100
AcDb3dPolylineVertex
 10
58.9049
 20
7.14062
 30
0.0
 70
    32
  0
VERTEX
  5
1A0B
330
199B
100
AcDbEntity
  8
241
100
AcDbVertex
100
AcDb3dPolylineVertex
 10
58.8868
 20
7.11783
 30
0.0
 70
    32
  0
VERTEX
  5
1A0C
330
199B
100
AcDbEntity
  8
241
100
AcDbVertex
100
AcDb3dPolylineVertex
 10
58.8695
 20
7.09464
 30
0.0
 70
    32
  0
VERTEX
  5
1A0D
330
199B
100
AcDbEntity
  8
241
100
AcDbVertex
100
AcDb3dPolylineVertex
 10
58.8528
 20
7.07105
 30
0.0
 70
    32
  0
VERTEX
  5
1A0E
330
199B
100
AcDbEntity
  8
241
100
AcDbVertex
100
AcDb3dPolylineVertex
 10
58.8369
 20
7.04709
 30
0.0
 70
    32
  0
VERTEX
  5
1A0F
330
199B
100
AcDbEntity
  8
241
100
AcDbVertex
100
AcDb3dPolylineVertex
 10
58.8217
 20
7.02277
 30
0.0
 70
    32
  0
VERTEX
  5
1A10
330
199B
100
AcDbEntity
  8
241
100
AcDbVertex
100
AcDb3dPolylineVertex
 10
58.8071
 20
6.9981
 30
0.0
 70
    32
  0
VERTEX
  5
1A11
330
199B
100
AcDbEntity
  8
241
100
AcDbVertex
100
AcDb3dPolylineVertex
 10
58.7934
 20
6.97309
 30
0.0
 70
    32
  0
VERTEX
  5
1A12
330
199B
100
AcDbEntity
  8
241
100
AcDbVertex
100
AcDb3dPolylineVertex
 10
58.7803
 20
6.94777
 30
0.0
 70
    32
  0
VERTEX
  5
1A13
330
199B
100
AcDbEntity
  8
241
100
AcDbVertex
100
AcDb3dPolylineVertex
 10
58.768
 20
6.92215
 30
0.0
 70
    32
  0
VERTEX
  5
1A14
330
199B
100
AcDbEntity
  8
241
100
AcDbVertex
100
AcDb3dPolylineVertex
 10
58.7565
 20
6.89624
 30
0.0
 70
    32
  0
VERTEX
  5
1A15
330
199B
100
AcDbEntity
  8
241
100
AcDbVertex
100
AcDb3dPolylineVertex
 10
58.7457
 20
6.87006
 30
0.0
 70
    32
  0
VERTEX
  5
1A16
330
199B
100
AcDbEntity
  8
241
100
AcDbVertex
100
AcDb3dPolylineVertex
 10
58.7357
 20
6.84363
 30
0.0
 70
    32
  0
VERTEX
  5
1A17
330
199B
100
AcDbEntity
  8
241
100
AcDbVertex
100
AcDb3dPolylineVertex
 10
58.7265
 20
6.81695
 30
0.0
 70
    32
  0
VERTEX
  5
1A18
330
199B
100
AcDbEntity
  8
241
100
AcDbVertex
100
AcDb3dPolylineVertex
 10
58.718
 20
6.79005
 30
0.0
 70
    32
  0
VERTEX
  5
1A19
330
199B
100
AcDbEntity
  8
241
100
AcDbVertex
100
AcDb3dPolylineVertex
 10
58.7104
 20
6.76295
 30
0.0
 70
    32
  0
VERTEX
  5
1A1A
330
199B
100
AcDbEntity
  8
241
100
AcDbVertex
100
AcDb3dPolylineVertex
 10
58.7035
 20
6.73565
 30
0.0
 70
    32
  0
VERTEX
  5
1A1B
330
199B
100
AcDbEntity
  8
241
100
AcDbVertex
100
AcDb3dPolylineVertex
 10
58.6974
 20
6.70818
 30
0.0
 70
    32
  0
VERTEX
  5
1A1C
330
199B
100
AcDbEntity
  8
241
100
AcDbVertex
100
AcDb3dPolylineVertex
 10
58.6921
 20
6.68055
 30
0.0
 70
    32
  0
SEQEND
  5
1A1D
330
199B
100
AcDbEntity
  8
241
  0
ENDBLK
  5
94F
330
762
100
AcDbEntity
  8
0
100
AcDbBlockEnd
  0
BLOCK
  5
F4D
330
F43
100
AcDbEntity
  8
0
100
AcDbBlockBegin
  2
*D3
 70
     1
 10
0.0
 20
0.0
 30
0.0
  3
*D3
  1

  0
LINE
  5
FC9
330
F43
100
AcDbEntity
  8
250
  6
CONTINUOUS
100
AcDbLine
 10
65.5
 20
-10.0
 30
0.0
 11
78.0
 21
-10.0
 31
0.0
  0
LINE
  5
FCA
330
F43
100
AcDbEntity
  8
250
  6
CONTINUOUS
100
AcDbLine
 10
65.5
 20
10.0
 30
0.0
 11
78.0
 21
10.0
 31
0.0
  0
LINE
  5
FCB
330
F43
100
AcDbEntity
  8
250
  6
CONTINUOUS
100
AcDbLine
 10
77.0
 20
-7.77
 30
0.0
 11
77.0
 21
7.77
 31
0.0
  0
INSERT
  5
FCC
330
F43
100
AcDbEntity
  8
250
  6
CONTINUOUS
100
AcDbBlockReference
  2
_OPEN
 10
77.0
 20
-10.0
 30
0.0
 41
2.23
 42
2.23
 43
2.23
 50
270.0
  0
INSERT
  5
FCD
330
F43
100
AcDbEntity
  8
250
  6
CONTINUOUS
100
AcDbBlockReference
  2
_OPEN
 10
77.0
 20
10.0
 30
0.0
 41
2.23
 42
2.23
 43
2.23
 50
90.0
  0
MTEXT
  5
FCE
330
F43
100
AcDbEntity
  8
250
  6
CONTINUOUS
 62
    40
100
AcDbMText
 10
74.6
 20
0.0
 30
0.0
 40
2.8
 41
0.0
 71
     5
 72
     1
  1
\A1;{\H2.8;\U+2205}20
 11
0.0
 21
1.0
 31
0.0
1001
ACAD
1000
MTEXTBEGIN
1070
    73
1070
     1
1070
    44
1040
1.0
1070
    74
1070
     0
1000
MTEXTEND
1000
MTEXTBEGIN
1070
    73
1070
     1
1070
    44
1040
1.0
1070
    74
1070
     0
1000
MTEXTEND
1000
MTEXTBEGIN
1070
    73
1070
     1
1070
    44
1040
1.0
1070
    74
1070
     0
1000
MTEXTEND
  0
POINT
  5
FCF
330
F43
100
AcDbEntity
  8
DEFPOINTS
  6
CONTINUOUS
 62
     0
100
AcDbPoint
 10
65.0
 20
-10.0
 30
0.0
  0
POINT
  5
FD0
330
F43
100
AcDbEntity
  8
DEFPOINTS
  6
CONTINUOUS
 62
     0
100
AcDbPoint
 10
65.0
 20
10.0
 30
0.0
  0
POINT
  5
FD1
330
F43
100
AcDbEntity
  8
DEFPOINTS
  6
CONTINUOUS
 62
     0
100
AcDbPoint
 10
77.0
 20
10.0
 30
0.0
  0
ENDBLK
  5
F4E
330
F43
100
AcDbEntity
  8
0
100
AcDbBlockEnd
  0
BLOCK
  5
F5C
330
F52
100
AcDbEntity
  8
0
100
AcDbBlockBegin
  2
*D4
 70
     1
 10
0.0
 20
0.0
 30
0.0
  3
*D4
  1

  0
LINE
  5
FD2
330
F52
100
AcDbEntity
  8
250
  6
CONTINUOUS
100
AcDbLine
 10
57.0
 20
10.5
 30
0.0
 11
57.0
 21
22.0
 31
0.0
  0
LINE
  5
FD3
330
F52
100
AcDbEntity
  8
250
  6
CONTINUOUS
100
AcDbLine
 10
65.0
 20
10.5
 30
0.0
 11
65.0
 21
22.0
 31
0.0
  0
LINE
  5
FD4
330
F52
100
AcDbEntity
  8
250
  6
CONTINUOUS
100
AcDbLine
 10
59.23
 20
21.0
 30
0.0
 11
62.77
 21
21.0
 31
0.0
  0
INSERT
  5
FD5
330
F52
100
AcDbEntity
  8
250
  6
CONTINUOUS
100
AcDbBlockReference
  2
_OPEN
 10
57.0
 20
21.0
 30
0.0
 41
2.23
 42
2.23
 43
2.23
 50
180.0
  0
INSERT
  5
FD6
330
F52
100
AcDbEntity
  8
250
  6
CONTINUOUS
100
AcDbBlockReference
  2
_OPEN
 10
65.0
 20
21.0
 30
0.0
 41
2.23
 42
2.23
 43
2.23
  0
MTEXT
  5
FD7
330
F52
100
AcDbEntity
  8
250
  6
CONTINUOUS
 62
    40
100
AcDbMText
 10
61.0
 20
23.4
 30
0.0
 40
2.8
 41
0.0
 71
     5
 72
     1
  1
\A1;8
1001
ACAD
1000
MTEXTBEGIN
1070
    73
1070
     1
1070
    44
1040
1.0
1070
    74
1070
     0
1000
MTEXTEND
1000
MTEXTBEGIN
1070
    73
1070
     1
1070
    44
1040
1.0
1070
    74
1070
     0
1000
MTEXTEND
1000
MTEXTBEGIN
1070
    73
1070
     1
1070
    44
1040
1.0
1070
    74
1070
     0
1000
MTEXTEND
  0
POINT
  5
FD8
330
F52
100
AcDbEntity
  8
DEFPOINTS
  6
CONTINUOUS
 62
     0
100
AcDbPoint
 10
57.0
 20
10.0
 30
0.0
  0
POINT
  5
FD9
330
F52
100
AcDbEntity
  8
DEFPOINTS
  6
CONTINUOUS
 62
     0
100
AcDbPoint
 10
65.0
 20
10.0
 30
0.0
  0
POINT
  5
FDA
330
F52
100
AcDbEntity
  8
DEFPOINTS
  6
CONTINUOUS
 62
     0
100
AcDbPoint
 10
65.0
 20
21.0
 30
0.0
  0
ENDBLK
  5
F5D
330
F52
100
AcDbEntity
  8
0
100
AcDbBlockEnd
  0
BLOCK
  5
F6B
330
F61
100
AcDbEntity
  8
0
100
AcDbBlockBegin
  2
*D5
 70
     1
 10
0.0
 20
0.0
 30
0.0
  3
*D5
  1

  0
LINE
  5
FB7
330
F61
100
AcDbEntity
  8
250
  6
CONTINUOUS
100
AcDbLine
 10
37.0
 20
10.09041012
 30
0.0
 11
37.0
 21
29.0
 31
0.0
  0
LINE
  5
FB8
330
F61
100
AcDbEntity
  8
250
  6
CONTINUOUS
100
AcDbLine
 10
65.0
 20
10.5
 30
0.0
 11
65.0
 21
29.0
 31
0.0
  0
LINE
  5
FB9
330
F61
100
AcDbEntity
  8
250
  6
CONTINUOUS
100
AcDbLine
 10
39.23
 20
28.0
 30
0.0
 11
62.77
 21
28.0
 31
0.0
  0
INSERT
  5
FBA
330
F61
100
AcDbEntity
  8
250
  6
CONTINUOUS
100
AcDbBlockReference
  2
_OPEN
 10
37.0
 20
28.0
 30
0.0
 41
2.23
 42
2.23
 43
2.23
 50
180.0
  0
INSERT
  5
FBB
330
F61
100
AcDbEntity
  8
250
  6
CONTINUOUS
100
AcDbBlockReference
  2
_OPEN
 10
65.0
 20
28.0
 30
0.0
 41
2.23
 42
2.23
 43
2.23
  0
MTEXT
  5
FBC
330
F61
100
AcDbEntity
  8
250
  6
CONTINUOUS
 62
    40
100
AcDbMText
 10
51.0
 20
30.4
 30
0.0
 40
2.8
 41
0.0
 71
     5
 72
     1
  1
\A1;28
1001
ACAD
1000
MTEXTBEGIN
1070
    73
1070
     1
1070
    44
1040
1.0
1070
    74
1070
     0
1000
MTEXTEND
1000
MTEXTBEGIN
1070
    73
1070
     1
1070
    44
1040
1.0
1070
    74
1070
     0
1000
MTEXTEND
1000
MTEXTBEGIN
1070
    73
1070
     1
1070
    44
1040
1.0
1070
    74
1070
     0
1000
MTEXTEND
  0
POINT
  5
FBD
330
F61
100
AcDbEntity
  8
DEFPOINTS
  6
CONTINUOUS
 62
     0
100
AcDbPoint
 10
37.0
 20
9.59041012
 30
0.0
  0
POINT
  5
FBE
330
F61
100
AcDbEntity
  8
DEFPOINTS
  6
CONTINUOUS
 62
     0
100
AcDbPoint
 10
65.0
 20
10.0
 30
0.0
  0
POINT
  5
FBF
330
F61
100
AcDbEntity
  8
DEFPOINTS
  6
CONTINUOUS
 62
     0
100
AcDbPoint
 10
65.0
 20
28.0
 30
0.0
  0
ENDBLK
  5
F6C
330
F61
100
AcDbEntity
  8
0
100
AcDbBlockEnd
  0
BLOCK
  5
F7A
330
F70
100
AcDbEntity
  8
0
100
AcDbBlockBegin
  2
*D6
 70
     1
 10
0.0
 20
0.0
 30
0.0
  3
*D6
  1

  0
LINE
  5
FC0
330
F70
100
AcDbEntity
  8
250
  6
CONTINUOUS
100
AcDbLine
 10
0.0
 20
16.375
 30
0.0
 11
0.0
 21
36.0
 31
0.0
  0
LINE
  5
FC1
330
F70
100
AcDbEntity
  8
250
  6
CONTINUOUS
100
AcDbLine
 10
65.0
 20
10.5
 30
0.0
 11
65.0
 21
36.0
 31
0.0
  0
LINE
  5
FC2
330
F70
100
AcDbEntity
  8
250
  6
CONTINUOUS
100
AcDbLine
 10
2.23
 20
35.0
 30
0.0
 11
62.77
 21
35.0
 31
0.0
  0
INSERT
  5
FC3
330
F70
100
AcDbEntity
  8
250
  6
CONTINUOUS
100
AcDbBlockReference
  2
_OPEN
 10
0.0
 20
35.0
 30
0.0
 41
2.23
 42
2.23
 43
2.23
 50
180.0
  0
INSERT
  5
FC4
330
F70
100
AcDbEntity
  8
250
  6
CONTINUOUS
100
AcDbBlockReference
  2
_OPEN
 10
65.0
 20
35.0
 30
0.0
 41
2.23
 42
2.23
 43
2.23
  0
MTEXT
  5
FC5
330
F70
100
AcDbEntity
  8
250
  6
CONTINUOUS
 62
    40
100
AcDbMText
 10
32.5
 20
37.4
 30
0.0
 40
2.8
 41
0.0
 71
     5
 72
     1
  1
\A1;65
1001
ACAD
1000
MTEXTBEGIN
1070
    73
1070
     1
1070
    44
1040
1.0
1070
    74
1070
     0
1000
MTEXTEND
1000
MTEXTBEGIN
1070
    73
1070
     1
1070
    44
1040
1.0
1070
    74
1070
     0
1000
MTEXTEND
1000
MTEXTBEGIN
1070
    73
1070
     1
1070
    44
1040
1.0
1070
    74
1070
     0
1000
MTEXTEND
  0
POINT
  5
FC6
330
F70
100
AcDbEntity
  8
DEFPOINTS
  6
CONTINUOUS
 62
     0
100
AcDbPoint
 10
0.0
 20
15.875
 30
0.0
  0
POINT
  5
FC7
330
F70
100
AcDbEntity
  8
DEFPOINTS
  6
CONTINUOUS
 62
     0
100
AcDbPoint
 10
65.0
 20
10.0
 30
0.0
  0
POINT
  5
FC8
330
F70
100
AcDbEntity
  8
DEFPOINTS
  6
CONTINUOUS
 62
     0
100
AcDbPoint
 10
65.0
 20
35.0
 30
0.0
  0
ENDBLK
  5
F7B
330
F70
100
AcDbEntity
  8
0
100
AcDbBlockEnd
  0
ENDSEC
  0
SECTION
  2
ENTITIES
  0
INSERT
  5
6E6
330
1A
100
AcDbEntity
  8
245
100
AcDbBlockReference
  2
矢印なし
 10
175.62382697
 20
90.55123572
 30
0.0
  0
TEXT
  5
CB0
330
1A
100
AcDbEntity
  8
241
100
AcDbText
 10
-48.4
 20
49.0
 30
0.0
 40
5.0
  1
BBT30-FCR20083-65
  7
YOKO
 11
-48.4
 21
49.0
 31
0.0
100
AcDbText
 73
     1
  0
DIMENSION
  5
F42
330
1A
100
AcDbEntity
  8
250
  6
CONTINUOUS
100
AcDbDimension
  2
*D3
 10
77.0
 20
10.0
 30
0.0
 11
74.6
 21
0.0
 31
0.0
 70
    32
  1
{\H2.8;\U+2205}<>
  3
BIGT
100
AcDbAlignedDimension
 13
65.0
 23
-10.0
 33
0.0
 14
65.0
 24
10.0
 34
0.0
 50
90.0
100
AcDbRotatedDimension
  0
DIMENSION
  5
F51
330
1A
100
AcDbEntity
  8
250
  6
CONTINUOUS
100
AcDbDimension
  2
*D4
 10
65.0
 20
21.0
 30
0.0
 11
61.0
 21
23.4
 31
0.0
 70
    32
  3
BIGT
100
AcDbAlignedDimension
 13
57.0
 23
10.0
 33
0.0
 14
65.0
 24
10.0
 34
0.0
100
AcDbRotatedDimension
  0
DIMENSION
  5
F60
330
1A
100
AcDbEntity
  8
250
  6
CONTINUOUS
100
AcDbDimension
  2
*D5
 10
65.0
 20
28.0
 30
0.0
 11
51.0
 21
30.4
 31
0.0
 70
    32
  3
BIGT
100
AcDbAlignedDimension
 13
37.0
 23
9.59041012
 33
0.0
 14
65.0
 24
10.0
 34
0.0
100
AcDbRotatedDimension
  0
DIMENSION
  5
F6F
330
1A
100
AcDbEntity
  8
250
  6
CONTINUOUS
100
AcDbDimension
  2
*D6
 10
65.0
 20
35.0
 30
0.0
 11
32.5
 21
37.4
 31
0.0
 70
    32
  3
BIGT
100
AcDbAlignedDimension
 13
0.0
 23
15.875
 33
0.0
 14
65.0
 24
10.0
 34
0.0
100
AcDbRotatedDimension
  0
MTEXT
  5
1860
330
1A
100
AcDbEntity
  8
251
  6
CONTINUOUS
100
AcDbMText
 10
-42.44207074
 20
-20.23884234
 30
0.0
 40
2.8
 41
0.0
 71
     7
 72
     1
  1
BBT30
  7
YOKO
1001
ITEMNAME
1000
LNSP3
1001
ACAD
1000
MTEXTBEGIN
1070
    73
1070
     1
1070
    44
1040
1.0
1070
    74
1070
     0
1000
MTEXTEND
1000
MTEXTBEGIN
1070
    73
1070
     1
1070
    44
1040
1.0
1070
    74
1070
     0
1000
MTEXTEND
1000
MTEXTBEGIN
1070
    73
1070
     1
1070
    44
1040
1.0
1070
    74
1070
     0
1000
MTEXTEND
  0
LEADER
  5
1861
330
1A
100
AcDbEntity
  8
250
  6
CONTINUOUS
100
AcDbLeader
  3
BIGT
 76
     2
 10
-22.51609141
 20
-12.5913258
 30
0.0
 10
-27.50873741
 20
-21.23884234
 30
0.0
1001
ACAD
1000
DSTYLE
1002
{
1070
     6
1000
OPEN
1070
   343
1005
594
1002
}
  0
LINE
  5
1862
330
1A
100
AcDbEntity
  8
250
  6
CONTINUOUS
100
AcDbLine
 10
-27.50873741
 20
-21.23884234
 30
0.0
 11
-45.24207074
 21
-21.23884234
 31
0.0
1001
ITEMNAME
1000
LNSP2
  0
INSERT
  5
1A1E
330
1A
100
AcDbEntity
  8
245
100
AcDbBlockReference
  2
1
 10
0.0
 20
0.0
 30
0.0
  0
VIEWPORT
  5
22
330
17
100
AcDbEntity
 67
     1
  8
0
100
AcDbViewport
 10
261.51769912
 20
148.5
 30
0.0
 40
523.03539823
 41
297.0
 68
     1
 69
     1
1001
ACAD
1000
MVIEW
1002
{
1070
    16
1010
0.0
1020
0.0
1030
0.0
1010
0.0
1020
0.0
1030
1.0
1040
0.0
1040
297.0
1040
261.51769912
1040
148.5
1040
50.0
1040
0.0
1040
0.0
1070
     0
1070
   100
1070
     1
1070
     1
1070
     0
1070
     0
1070
     0
1070
     0
1040
0.0
1040
0.0
1040
0.0
1040
1.0
1040
1.0
1040
10.0
1040
10.0
1070
     0
1002
{
1002
}
1002
}
  0
ENDSEC
  0
SECTION
  2
OBJECTS
  0
DICTIONARY
  5
C
330
0
100
AcDbDictionary
  3
ACAD_GROUP
350
D
  3
ACAD_LAYOUT
350
565
  3
ACAD_MLINESTYLE
350
E
  3
ACAD_PLOTSETTINGS
350
566
  3
ACAD_PLOTSTYLENAME
350
563
  3
ACDBHEADERROUNDTRIPXREC
350
1A20
  3
GRADE_DWG
350
540
  0
DICTIONARY
  5
1218
330
1A
100
AcDbDictionary
280
     1
  3
ACAD_LAYOUTSELFREF
360
1A42
  0
DICTIONARY
  5
1216
330
17
100
AcDbDictionary
280
     1
  3
ACAD_LAYOUTSELFREF
360
1A41
  0
DICTIONARY
  5
D
102
{ACAD_REACTORS
330
C
102
}
330
C
100
AcDbDictionary
  3
*A1
350
6C7
  3
*A2
350
6C8
  3
*A3
350
6D4
  3
*A4
350
6D5
  3
DREC-1
350
5FC
  3
DREC-2
350
654
  3
DREC-3
350
673
  0
DICTIONARY
  5
565
102
{ACAD_REACTORS
330
C
102
}
330
C
100
AcDbDictionary
  0
DICTIONARY
  5
E
102
{ACAD_REACTORS
330
C
102
}
330
C
100
AcDbDictionary
  3
STANDARD
350
13
  0
DICTIONARY
  5
566
102
{ACAD_REACTORS
330
C
102
}
330
C
100
AcDbDictionary
  3
A3_0_5倍_
350
758
  3
A3_1倍_
350
757
  3
A3_1倍__2000_
350
707
  3
A3_2倍_
350
759
  3
A4_0_5倍_
350
755
  3
A4_1倍_
350
754
  3
A4_1倍__2000_
350
708
  3
A4_2倍_
350
756
  0
ACDBDICTIONARYWDFLT
  5
563
102
{ACAD_REACTORS
330
C
102
}
330
C
100
AcDbDictionary
281
     1
  3
Normal
350
564
100
AcDbDictionaryWithDefault
340
564
  0
DICTIONARY
  5
1A20
102
{ACAD_REACTORS
330
C
102
}
330
C
100
AcDbDictionary
  3
CEPSNTYPE
350
1A2A
  3
DIMSTYLEDATA
350
1A2E
  3
FINGERPRINTGUID
350
1A2B
  3
HYPERLINKBASE
350
1A23
  3
INSUNITS
350
1A29
  3
LAYOUTDICT
350
1A25
  3
LWETCUNION
350
1A28
  3
PLOTSETDICT
350
1A26
  3
PLOTSTYLNAMDICT
350
1A27
  3
PSVPSCALE
350
1A2D
  3
PUCSBASE
350
1A31
  3
PUCSORGBACK
350
1A37
  3
PUCSORGBOTTOM
350
1A33
  3
PUCSORGFRONT
350
1A36
  3
PUCSORGLEFT
350
1A34
  3
PUCSORGRIGHT
350
1A35
  3
PUCSORGTOP
350
1A32
  3
PUCSORTHOREF
350
1A2F
  3
PUCSORTHOVIEW
350
1A30
  3
STYLESHEET
350
1A24
  3
TSTACKALIGN
350
1A21
  3
TSTACKSIZE
350
1A22
  3
UCSBASE
350
1A3A
  3
UCSORGBACK
350
1A40
  3
UCSORGBOTTOM
350
1A3C
  3
UCSORGFRONT
350
1A3F
  3
UCSORGLEFT
350
1A3D
  3
UCSORGRIGHT
350
1A3E
  3
UCSORGTOP
350
1A3B
  3
UCSORTHOREF
350
1A38
  3
UCSORTHOVIEW
350
1A39
  3
VERSIONGUID
350
1A2C
  0
DICTIONARY
  5
540
102
{ACAD_REACTORS
330
C
102
}
330
C
100
AcDbDictionary
  3
VERSION
350
560
  0
XRECORD
  5
1A42
102
{ACAD_REACTORS
330
1218
102
}
330
1218
100
AcDbXrecord
340
1A
  0
XRECORD
  5
1A41
102
{ACAD_REACTORS
330
1216
102
}
330
1216
100
AcDbXrecord
340
17
  0
GROUP
  5
6C7
102
{ACAD_REACTORS
330
D
102
}
330
D
100
AcDbGroup
300

 70
     0
 71
     1
1001
GRPNAME
1000
DMA00
  0
GROUP
  5
6C8
102
{ACAD_REACTORS
330
D
102
}
330
D
100
AcDbGroup
300

 70
     0
 71
     1
1001
GRPNAME
1000
DMA00
  0
GROUP
  5
6D4
102
{ACAD_REACTORS
330
D
102
}
330
D
100
AcDbGroup
300

 70
     0
 71
     1
1001
GRPNAME
1000
DMA00
  0
GROUP
  5
6D5
102
{ACAD_REACTORS
330
D
102
}
330
D
100
AcDbGroup
300

 70
     0
 71
     1
1001
GRPNAME
1000
DMA00
  0
GROUP
  5
5FC
102
{ACAD_REACTORS
330
D
102
}
330
D
100
AcDbGroup
300

 70
     0
 71
     1
1001
GRPNAME
1000
DREC-
1001
GPARA
1000
xsiz
1000
44.182
1000
ysiz
1000
40.677
1000
angl
1000
0
1000
ctyp
1000
0
1000
csiz
1000
5
1000
lfnt
1000
cont
1000
hcnt
1000
hoff
1000
vcnt
1000
voff
1000
opnt
1000
4
1000
dxpt
1000
0
1000
dypt
1000
0
  0
GROUP
  5
654
102
{ACAD_REACTORS
330
D
102
}
330
D
100
AcDbGroup
300

 70
     0
 71
     1
1001
GRPNAME
1000
DREC-
1001
GPARA
1000
xsiz
1000
54.592
1000
ysiz
1000
53.036
1000
angl
1000
0
1000
ctyp
1000
0
1000
csiz
1000
5
1000
lfnt
1000
cont
1000
hcnt
1000
hoff
1000
vcnt
1000
voff
1000
opnt
1000
4
1000
dxpt
1000
0
1000
dypt
1000
0
  0
GROUP
  5
673
102
{ACAD_REACTORS
330
D
102
}
330
D
100
AcDbGroup
300

 70
     0
 71
     1
1001
GRPNAME
1000
DREC-
1001
GPARA
1000
xsiz
1000
30.363
1000
ysiz
1000
36.175
1000
angl
1000
0
1000
ctyp
1000
0
1000
csiz
1000
5
1000
lfnt
1000
cont
1000
hcnt
1000
hoff
1000
vcnt
1000
voff
1000
opnt
1000
4
1000
dxpt
1000
0
1000
dypt
1000
0
  0
MLINESTYLE
  5
13
102
{ACAD_REACTORS
330
E
102
}
330
E
100
AcDbMlineStyle
  2
STANDARD
 70
     0
  3

 62
     0
 51
90.0
 52
90.0
 71
     2
 49
0.5
 62
   256
  6
BYLAYER
 49
-0.5
 62
   256
  6
BYLAYER
  0
PLOTSETTINGS
  5
758
102
{ACAD_REACTORS
330
566
102
}
330
566
100
AcDbPlotSettings
  1
A3(0.5倍)
  2
\\AWTECPC05\HP DeskJet 1120C
  4
A3
  6

 40
5.95841646
 41
13.49375153
 42
6.04309082
 43
3.67242432
 44
296.92599487
 45
419.94665527
 46
89.96
 47
127.14
 48
0.0
 49
0.0
140
0.0
141
0.0
142
1.0
143
2.0
 70
  1716
 72
     1
 73
     1
 74
     2
  7
big.ctb
 75
    17
147
0.5
148
0.0
149
0.0
  0
PLOTSETTINGS
  5
757
102
{ACAD_REACTORS
330
566
102
}
330
566
100
AcDbPlotSettings
  1
A3(1倍)
  2
\\AWTECPC05\HP DeskJet 1120C
  4
A3
  6

 40
5.95841646
 41
13.49375153
 42
6.04309082
 43
3.67242432
 44
296.92599487
 45
419.94665527
 46
37.46
 47
52.89
 48
0.0
 49
0.0
140
0.0
141
0.0
142
1.0
143
1.0
 70
  1716
 72
     1
 73
     1
 74
     2
  7
big.ctb
 75
    16
147
1.0
148
0.0
149
0.0
  0
PLOTSETTINGS
  5
707
102
{ACAD_REACTORS
330
566
102
}
330
566
100
AcDbPlotSettings
  1
A3(1倍)(2000)
  2
SII LS-1300 (D-SCAN)
  4
User258
  6

 40
3.17499995
 41
3.17499995
 42
3.17498779
 43
3.17498779
 44
419.98898315
 45
296.98950195
 46
58.32
 47
40.32
 48
0.0
 49
0.0
140
0.0
141
0.0
142
1.0
143
1.0
 70
  1716
 72
     1
 73
     0
 74
     2
  7
big.ctb
 75
    16
147
1.0
148
0.0
149
0.0
  0
PLOTSETTINGS
  5
759
102
{ACAD_REACTORS
330
566
102
}
330
566
100
AcDbPlotSettings
  1
A3(2倍)
  2
\\AWTECPC05\HP DeskJet 1120C
  4
A3
  6

 40
5.95841646
 41
13.49375153
 42
6.04309082
 43
3.67242432
 44
296.92599487
 45
419.94665527
 46
-67.54
 47
-95.61
 48
0.0
 49
0.0
140
0.0
141
0.0
142
1.0
143
0.5
 70
  1716
 72
     1
 73
     1
 74
     2
  7
big.ctb
 75
    27
147
2.0
148
0.0
149
0.0
  0
PLOTSETTINGS
  5
755
102
{ACAD_REACTORS
330
566
102
}
330
566
100
AcDbPlotSettings
  1
A4(0.5倍)
  2
\\AWTECPC05\HP DeskJet 1120C
  4
A4
  6

 40
4.18041658
 41
13.49374962
 42
4.18040466
 43
3.92642212
 44
209.97332764
 45
296.92599487
 46
48.31
 47
65.5
 48
0.0
 49
0.0
140
0.0
141
0.0
142
1.0
143
2.0
 70
  1716
 72
     1
 73
     1
 74
     2
  7
big.ctb
 75
    17
147
0.5
148
0.0
149
0.0
  0
PLOTSETTINGS
  5
754
102
{ACAD_REACTORS
330
566
102
}
330
566
100
AcDbPlotSettings
  1
A4(1倍)
  2
\\AWTECPC05\HP DeskJet 1120C
  4
A4
  6

 40
4.18041658
 41
13.49374962
 42
4.18040466
 43
3.92642212
 44
209.97332764
 45
296.92599487
 46
-4.19
 47
-8.75
 48
0.0
 49
0.0
140
0.0
141
0.0
142
1.0
143
1.0
 70
  1716
 72
     1
 73
     1
 74
     2
  7
big.ctb
 75
    16
147
1.0
148
0.0
149
0.0
  0
PLOTSETTINGS
  5
708
102
{ACAD_REACTORS
330
566
102
}
330
566
100
AcDbPlotSettings
  1
A4(1倍)(2000)
  2
SII LS-1300 (D-SCAN)
  4
User259
  6

 40
3.17499995
 41
3.17499995
 42
3.17498779
 43
3.17500305
 44
296.98950195
 45
209.99449158
 46
-3.18
 47
-3.18
 48
0.0
 49
0.0
140
0.0
141
0.0
142
1.0
143
1.0
 70
  1716
 72
     1
 73
     0
 74
     2
  7
big.ctb
 75
    16
147
1.0
148
0.0
149
0.0
  0
PLOTSETTINGS
  5
756
102
{ACAD_REACTORS
330
566
102
}
330
566
100
AcDbPlotSettings
  1
A4(2倍)
  2
\\AWTECPC05\HP DeskJet 1120C
  4
A4
  6

 40
4.18041658
 41
13.49374962
 42
4.18040466
 43
3.92642212
 44
209.97332764
 45
296.92599487
 46
-109.19
 47
-157.25
 48
0.0
 49
0.0
140
0.0
141
0.0
142
1.0
143
0.5
 70
  1716
 72
     1
 73
     1
 74
     2
  7
big.ctb
 75
    27
147
2.0
148
0.0
149
0.0
  0
ACDBPLACEHOLDER
  5
564
102
{ACAD_REACTORS
330
563
102
}
330
563
100
AcDbPlaceHolder
280
     0
  0
XRECORD
  5
1A2A
102
{ACAD_REACTORS
330
1A20
102
}
330
1A20
100
AcDbXrecord
 90
        0
  0
XRECORD
  5
1A2E
102
{ACAD_REACTORS
330
1A20
102
}
330
1A20
100
AcDbXrecord
1000
DSTYLE
1002
{
1070
    79
 70
     2
1070
   179
 70
     3
1070
   341
340
594
1070
   343
340
594
1070
   344
340
594
1070
   371
 70
    -1
1070
   372
 70
    -1
1002
}
  0
XRECORD
  5
1A2B
102
{ACAD_REACTORS
330
1A20
102
}
330
1A20
100
AcDbXrecord
  1
{51294030-9CB4-11D3-8E18-00A0C925D94D}
  0
XRECORD
  5
1A23
102
{ACAD_REACTORS
330
1A20
102
}
330
1A20
100
AcDbXrecord
  1

  0
XRECORD
  5
1A29
102
{ACAD_REACTORS
330
1A20
102
}
330
1A20
100
AcDbXrecord
 90
        0
  0
XRECORD
  5
1A25
102
{ACAD_REACTORS
330
1A20
102
}
330
1A20
100
AcDbXrecord
340
565
  0
XRECORD
  5
1A28
102
{ACAD_REACTORS
330
1A20
102
}
330
1A20
100
AcDbXrecord
 90
    10781
  0
XRECORD
  5
1A26
102
{ACAD_REACTORS
330
1A20
102
}
330
1A20
100
AcDbXrecord
340
566
  0
XRECORD
  5
1A27
102
{ACAD_REACTORS
330
1A20
102
}
330
1A20
100
AcDbXrecord
340
563
  0
XRECORD
  5
1A2D
102
{ACAD_REACTORS
330
1A20
102
}
330
1A20
100
AcDbXrecord
 40
0.0
  0
XRECORD
  5
1A31
102
{ACAD_REACTORS
330
1A20
102
}
330
1A20
100
AcDbXrecord
340
0
  0
XRECORD
  5
1A37
102
{ACAD_REACTORS
330
1A20
102
}
330
1A20
100
AcDbXrecord
 10
0.0
 20
0.0
 30
0.0
  0
XRECORD
  5
1A33
102
{ACAD_REACTORS
330
1A20
102
}
330
1A20
100
AcDbXrecord
 10
0.0
 20
0.0
 30
0.0
  0
XRECORD
  5
1A36
102
{ACAD_REACTORS
330
1A20
102
}
330
1A20
100
AcDbXrecord
 10
0.0
 20
0.0
 30
0.0
  0
XRECORD
  5
1A34
102
{ACAD_REACTORS
330
1A20
102
}
330
1A20
100
AcDbXrecord
 10
0.0
 20
0.0
 30
0.0
  0
XRECORD
  5
1A35
102
{ACAD_REACTORS
330
1A20
102
}
330
1A20
100
AcDbXrecord
 10
0.0
 20
0.0
 30
0.0
  0
XRECORD
  5
1A32
102
{ACAD_REACTORS
330
1A20
102
}
330
1A20
100
AcDbXrecord
 10
0.0
 20
0.0
 30
0.0
  0
XRECORD
  5
1A2F
102
{ACAD_REACTORS
330
1A20
102
}
330
1A20
100
AcDbXrecord
340
0
  0
XRECORD
  5
1A30
102
{ACAD_REACTORS
330
1A20
102
}
330
1A20
100
AcDbXrecord
 70
     0
  0
XRECORD
  5
1A24
102
{ACAD_REACTORS
330
1A20
102
}
330
1A20
100
AcDbXrecord
  1
big.ctb
  0
XRECORD
  5
1A21
102
{ACAD_REACTORS
330
1A20
102
}
330
1A20
100
AcDbXrecord
 90
        1
  0
XRECORD
  5
1A22
102
{ACAD_REACTORS
330
1A20
102
}
330
1A20
100
AcDbXrecord
 90
       70
  0
XRECORD
  5
1A3A
102
{ACAD_REACTORS
330
1A20
102
}
330
1A20
100
AcDbXrecord
340
0
  0
XRECORD
  5
1A40
102
{ACAD_REACTORS
330
1A20
102
}
330
1A20
100
AcDbXrecord
 10
0.0
 20
0.0
 30
0.0
  0
XRECORD
  5
1A3C
102
{ACAD_REACTORS
330
1A20
102
}
330
1A20
100
AcDbXrecord
 10
0.0
 20
0.0
 30
0.0
  0
XRECORD
  5
1A3F
102
{ACAD_REACTORS
330
1A20
102
}
330
1A20
100
AcDbXrecord
 10
0.0
 20
0.0
 30
0.0
  0
XRECORD
  5
1A3D
102
{ACAD_REACTORS
330
1A20
102
}
330
1A20
100
AcDbXrecord
 10
0.0
 20
0.0
 30
0.0
  0
XRECORD
  5
1A3E
102
{ACAD_REACTORS
330
1A20
102
}
330
1A20
100
AcDbXrecord
 10
0.0
 20
0.0
 30
0.0
  0
XRECORD
  5
1A3B
102
{ACAD_REACTORS
330
1A20
102
}
330
1A20
100
AcDbXrecord
 10
0.0
 20
0.0
 30
0.0
  0
XRECORD
  5
1A38
102
{ACAD_REACTORS
330
1A20
102
}
330
1A20
100
AcDbXrecord
340
0
  0
XRECORD
  5
1A39
102
{ACAD_REACTORS
330
1A20
102
}
330
1A20
100
AcDbXrecord
 70
     0
  0
XRECORD
  5
1A2C
102
{ACAD_REACTORS
330
1A20
102
}
330
1A20
100
AcDbXrecord
  1
{8F46EC64-3F91-42DC-BC73-4C10759BA8E7}
  0
XRECORD
  5
560
102
{ACAD_REACTORS
330
540
102
}
330
540
100
AcDbXrecord
  1
2.0.0
  0
ENDSEC
  0
EOF
