  0
SECTION
  2
HEADER
  9
$ACADVER
  1
AC1014
  9
$ACADMAINTVER
 70
     9
  9
$DWGCODEPAGE
  3
ANSI_932
  9
$INSBASE
 10
0.0
 20
0.0
 30
0.0
  9
$EXTMIN
 10
-49.41432386
 20
-23.00976488
 30
-0.00152582
  9
$EXTMAX
 10
78.00611642
 20
54.01660202
 30
0.00000003
  9
$LIMMIN
 10
0.0
 20
0.0
  9
$LIMMAX
 10
420.0
 20
297.0
  9
$ORTHOMODE
 70
     0
  9
$REGENMODE
 70
     1
  9
$FILLMODE
 70
     1
  9
$QTEXTMODE
 70
     0
  9
$MIRRTEXT
 70
     1
  9
$DRAGMODE
 70
     2
  9
$LTSCALE
 40
10.0
  9
$OSMODE
 70
   549
  9
$ATTMODE
 70
     1
  9
$TEXTSIZE
 40
3.0
  9
$TRACEWID
 40
1.0
  9
$TEXTSTYLE
  7
YOKO
  9
$CLAYER
  8
245
  9
$CELTYPE
  6
BYLAYER
  9
$CECOLOR
 62
   256
  9
$CELTSCALE
 40
1.0
  9
$DELOBJ
 70
     1
  9
$DISPSILH
 70
     0
  9
$DIMSCALE
 40
1.0
  9
$DIMASZ
 40
2.23
  9
$DIMEXO
 40
0.5
  9
$DIMDLI
 40
2.5
  9
$DIMRND
 40
0.0
  9
$DIMDLE
 40
0.0
  9
$DIMEXE
 40
1.0
  9
$DIMTP
 40
0.0
  9
$DIMTM
 40
0.0
  9
$DIMTXT
 40
2.8
  9
$DIMCEN
 40
0.0
  9
$DIMTSZ
 40
0.0
  9
$DIMTOL
 70
     0
  9
$DIMLIM
 70
     0
  9
$DIMTIH
 70
     0
  9
$DIMTOH
 70
     0
  9
$DIMSE1
 70
     0
  9
$DIMSE2
 70
     0
  9
$DIMTAD
 70
     3
  9
$DIMZIN
 70
     8
  9
$DIMBLK
  1

  9
$DIMASO
 70
     1
  9
$DIMSHO
 70
     1
  9
$DIMPOST
  1

  9
$DIMAPOST
  1

  9
$DIMALT
 70
     0
  9
$DIMALTD
 70
     2
  9
$DIMALTF
 40
25.4
  9
$DIMLFAC
 40
1.0
  9
$DIMTOFL
 70
     1
  9
$DIMTVP
 40
0.0
  9
$DIMTIX
 70
     1
  9
$DIMSOXD
 70
     0
  9
$DIMSAH
 70
     1
  9
$DIMBLK1
  1
OPEN
  9
$DIMBLK2
  1
OPEN
  9
$DIMSTYLE
  2
BIGT
  9
$DIMCLRD
 70
   256
  9
$DIMCLRE
 70
   256
  9
$DIMCLRT
 70
    40
  9
$DIMTFAC
 40
1.0
  9
$DIMGAP
 40
1.0
  9
$DIMJUST
 70
     0
  9
$DIMSD1
 70
     0
  9
$DIMSD2
 70
     0
  9
$DIMTOLJ
 70
     1
  9
$DIMTZIN
 70
     8
  9
$DIMALTZ
 70
     0
  9
$DIMALTTZ
 70
     0
  9
$DIMFIT
 70
     3
  9
$DIMUPT
 70
     0
  9
$DIMUNIT
 70
     2
  9
$DIMDEC
 70
     3
  9
$DIMTDEC
 70
     3
  9
$DIMALTU
 70
     2
  9
$DIMALTTD
 70
     2
  9
$DIMTXSTY
  7
STANDARD
  9
$DIMAUNIT
 70
     0
  9
$LUNITS
 70
     2
  9
$LUPREC
 70
     3
  9
$SKETCHINC
 40
1.0
  9
$FILLETRAD
 40
0.0
  9
$AUNITS
 70
     0
  9
$AUPREC
 70
     3
  9
$MENU
  1
.
  9
$ELEVATION
 40
0.0
  9
$PELEVATION
 40
0.0
  9
$THICKNESS
 40
0.0
  9
$LIMCHECK
 70
     0
  9
$BLIPMODE
 70
     0
  9
$CHAMFERA
 40
10.0
  9
$CHAMFERB
 40
10.0
  9
$CHAMFERC
 40
0.0
  9
$CHAMFERD
 40
0.0
  9
$SKPOLY
 70
     0
  9
$TDCREATE
 40
2455141.382738345
  9
$TDUPDATE
 40
2455380.708179062
  9
$TDINDWG
 40
0.0068612616
  9
$TDUSRTIMER
 40
0.0068610880
  9
$USRTIMER
 70
     1
  9
$ANGBASE
 50
0.0
  9
$ANGDIR
 70
     0
  9
$PDMODE
 70
     1
  9
$PDSIZE
 40
-5.0
  9
$PLINEWID
 40
0.0
  9
$COORDS
 70
     0
  9
$SPLFRAME
 70
     0
  9
$SPLINETYPE
 70
     6
  9
$SPLINESEGS
 70
     8
  9
$ATTDIA
 70
     0
  9
$ATTREQ
 70
     1
  9
$HANDLING
 70
-16383
  9
$HANDSEED
  5
126C
  9
$SURFTAB1
 70
     6
  9
$SURFTAB2
 70
     6
  9
$SURFTYPE
 70
     6
  9
$SURFU
 70
     6
  9
$SURFV
 70
     6
  9
$UCSNAME
  2

  9
$UCSORG
 10
0.0
 20
0.0
 30
0.0
  9
$UCSXDIR
 10
1.0
 20
0.0
 30
0.0
  9
$UCSYDIR
 10
0.0
 20
1.0
 30
0.0
  9
$PUCSNAME
  2

  9
$PUCSORG
 10
0.0
 20
0.0
 30
0.0
  9
$PUCSXDIR
 10
1.0
 20
0.0
 30
0.0
  9
$PUCSYDIR
 10
0.0
 20
1.0
 30
0.0
  9
$USERI1
 70
     1
  9
$USERI2
 70
     0
  9
$USERI3
 70
     0
  9
$USERI4
 70
     0
  9
$USERI5
 70
     0
  9
$USERR1
 40
0.0
  9
$USERR2
 40
0.0
  9
$USERR3
 40
0.0
  9
$USERR4
 40
0.0
  9
$USERR5
 40
0.0
  9
$WORLDVIEW
 70
     1
  9
$SHADEDGE
 70
     3
  9
$SHADEDIF
 70
    70
  9
$TILEMODE
 70
     1
  9
$MAXACTVP
 70
    16
  9
$PINSBASE
 10
0.0
 20
0.0
 30
0.0
  9
$PLIMCHECK
 70
     0
  9
$PEXTMIN
 10
1.00000000E+20
 20
1.00000000E+20
 30
1.00000000E+20
  9
$PEXTMAX
 10
-1.00000000E+20
 20
-1.00000000E+20
 30
-1.00000000E+20
  9
$PLIMMIN
 10
0.0
 20
0.0
  9
$PLIMMAX
 10
420.0
 20
297.0
  9
$UNITMODE
 70
     0
  9
$VISRETAIN
 70
     0
  9
$PLINEGEN
 70
     0
  9
$PSLTSCALE
 70
     1
  9
$TREEDEPTH
 70
  3020
  9
$PICKSTYLE
 70
     0
  9
$CMLSTYLE
  2
STANDARD
  9
$CMLJUST
 70
     0
  9
$CMLSCALE
 40
1.0
  9
$PROXYGRAPHICS
 70
     1
  9
$MEASUREMENT
 70
     1
  0
ENDSEC
  0
SECTION
  2
CLASSES
  0
CLASS
  1
XRECORD
  2
AcDbXrecord
  3
AutoCAD 2000
 90
        0
280
     0
281
     0
  0
CLASS
  1
ACDBDICTIONARYWDFLT
  2
AcDbDictionaryWithDefault
  3
AutoCAD 2000
 90
        0
280
     0
281
     0
  0
CLASS
  1
ACDBPLACEHOLDER
  2
AcDbPlaceHolder
  3
AutoCAD 2000
 90
        0
280
     0
281
     0
  0
CLASS
  1
LAYOUT
  2
AcDbLayout
  3
AutoCAD 2000
 90
        0
280
     0
281
     0
  0
CLASS
  1
PLOTSETTINGS
  2
AcDbPlotSettings
  3
AutoCAD 2000
 90
        0
280
     0
281
     0
  0
CLASS
  1
LONG_TRANSACTION
  2
AcDbLongTransaction
  3
AutoCAD 2000
 90
        0
280
     0
281
     0
  0
CLASS
  1
LWPOLYLINE
  2
AcDbPolyline
  3
AutoCAD 2000
 90
        0
280
     0
281
     1
  0
CLASS
  1
HATCH
  2
AcDbHatch
  3
AutoCAD 2000
 90
        0
280
     0
281
     1
  0
CLASS
  1
XRECORD
  2
AcDbXrecord
  3
AutoCAD 2000
 90
        0
280
     0
281
     0
  0
CLASS
  1
LONG_TRANSACTION
  2
AcDbLongTransaction
  3
AutoCAD 2000
 90
        0
280
     0
281
     0
  0
CLASS
  1
LWPOLYLINE
  2
AcDbPolyline
  3
AutoCAD 2000
 90
        0
280
     0
281
     1
  0
CLASS
  1
HATCH
  2
AcDbHatch
  3
AutoCAD 2000
 90
        0
280
     0
281
     1
  0
CLASS
  1
XRECORD
  2
AcDbXrecord
  3
AutoCAD 2000
 90
        0
280
     0
281
     0
  0
CLASS
  1
LONG_TRANSACTION
  2
AcDbLongTransaction
  3
AutoCAD 2000
 90
        0
280
     0
281
     0
  0
CLASS
  1
LWPOLYLINE
  2
AcDbPolyline
  3
AutoCAD 2000
 90
        0
280
     0
281
     1
  0
CLASS
  1
HATCH
  2
AcDbHatch
  3
AutoCAD 2000
 90
        0
280
     0
281
     1
  0
CLASS
  1
XRECORD
  2
AcDbXrecord
  3
AutoCAD 2000
 90
        0
280
     0
281
     0
  0
ENDSEC
  0
SECTION
  2
TABLES
  0
TABLE
  2
VPORT
  5
8
330
0
100
AcDbSymbolTable
 70
     2
  0
VPORT
  5
1247
330
8
100
AcDbSymbolTableRecord
100
AcDbViewportTableRecord
  2
*ACTIVE
 70
     0
 10
0.0
 20
0.0
 11
1.0
 21
1.0
 12
14.29589628
 22
15.50341857
 13
0.0
 23
0.0
 14
7.0
 24
7.0
 15
7.0
 25
7.0
 16
0.0
 26
0.0
 36
1.0
 17
0.0
 27
0.0
 37
0.0
 40
87.98309588
 41
1.45595855
 42
50.0
 43
0.0
 44
0.0
 50
0.0
 51
0.0
 71
     0
 72
  2000
 73
     1
 74
     0
 75
     0
 76
     0
 77
     0
 78
     0
  0
ENDTAB
  0
TABLE
  2
LTYPE
  5
5
330
0
100
AcDbSymbolTable
 70
     4
  0
LTYPE
  5
14
330
5
100
AcDbSymbolTableRecord
100
AcDbLinetypeTableRecord
  2
BYBLOCK
 70
     0
  3

 72
    65
 73
     0
 40
0.0
  0
LTYPE
  5
15
330
5
100
AcDbSymbolTableRecord
100
AcDbLinetypeTableRecord
  2
BYLAYER
 70
     0
  3

 72
    65
 73
     0
 40
0.0
  0
LTYPE
  5
16
330
5
100
AcDbSymbolTableRecord
100
AcDbLinetypeTableRecord
  2
CONTINUOUS
 70
     0
  3
Solid line
 72
    65
 73
     0
 40
0.0
  0
LTYPE
  5
258
330
5
100
AcDbSymbolTableRecord
100
AcDbLinetypeTableRecord
  2
CENTER2
 70
     0
  3
___ _ ___ _ ___ _ ___ _ ___ _ ___ _ ___ _ ___ _
 72
    65
 73
     4
 40
1.125
 49
0.75
 74
     0
 49
-0.125
 74
     0
 49
0.125
 74
     0
 49
-0.125
 74
     0
  0
LTYPE
  5
25C
330
5
100
AcDbSymbolTableRecord
100
AcDbLinetypeTableRecord
  2
HIDDEN2
 70
     0
  3
_ _ _ _ _ _ _ _ _ _ _ _ _ _ _ _ _ _ _ _ _ _ _ _
 72
    65
 73
     2
 40
0.1875
 49
0.125
 74
     0
 49
-0.0625
 74
     0
  0
LTYPE
  5
25D
330
5
100
AcDbSymbolTableRecord
100
AcDbLinetypeTableRecord
  2
PHANTOM2
 70
     0
  3
___ _ _ ___ _ _ ___ _ _ ___ _ _ ___ _ _ ___ _ _
 72
    65
 73
     6
 40
1.25
 49
0.625
 74
     0
 49
-0.125
 74
     0
 49
0.125
 74
     0
 49
-0.125
 74
     0
 49
0.125
 74
     0
 49
-0.125
 74
     0
  0
ENDTAB
  0
TABLE
  2
LAYER
  5
2
330
0
100
AcDbSymbolTable
 70
    10
  0
LAYER
  5
F
330
2
100
AcDbSymbolTableRecord
100
AcDbLayerTableRecord
  2
0
 70
     0
 62
     7
  6
CONTINUOUS
  0
LAYER
  5
1AA
330
2
100
AcDbSymbolTableRecord
100
AcDbLayerTableRecord
  2
240
 70
     0
 62
     4
  6
CONTINUOUS
  0
LAYER
  5
1AB
330
2
100
AcDbSymbolTableRecord
100
AcDbLayerTableRecord
  2
241
 70
     0
 62
   211
  6
CONTINUOUS
  0
LAYER
  5
1AD
330
2
100
AcDbSymbolTableRecord
100
AcDbLayerTableRecord
  2
243
 70
     0
 62
   211
  6
HIDDEN2
  0
LAYER
  5
1AF
330
2
100
AcDbSymbolTableRecord
100
AcDbLayerTableRecord
  2
245
 70
     0
 62
     2
  6
CENTER2
  0
LAYER
  5
21A
330
2
100
AcDbSymbolTableRecord
100
AcDbLayerTableRecord
  2
246
 70
     0
 62
     3
  6
PHANTOM2
  0
LAYER
  5
21E
330
2
100
AcDbSymbolTableRecord
100
AcDbLayerTableRecord
  2
250
 70
     0
 62
     3
  6
CONTINUOUS
  0
LAYER
  5
21F
330
2
100
AcDbSymbolTableRecord
100
AcDbLayerTableRecord
  2
251
 70
     0
 62
    40
  6
CONTINUOUS
  0
LAYER
  5
5C4
330
2
100
AcDbSymbolTableRecord
100
AcDbLayerTableRecord
  2
DEFPOINTS
 70
     0
 62
     7
  6
CONTINUOUS
  0
ENDTAB
  0
TABLE
  2
STYLE
  5
3
330
0
100
AcDbSymbolTable
 70
     2
  0
STYLE
  5
10
330
3
100
AcDbSymbolTableRecord
100
AcDbTextStyleTableRecord
  2
STANDARD
 70
     0
 40
0.0
 41
1.0
 50
0.0
 71
     0
 42
3.0
  3
romans.shx
  4
BIGFONT.SHX
  0
STYLE
  5
339
330
3
100
AcDbSymbolTableRecord
100
AcDbTextStyleTableRecord
  2
YOKO
 70
     0
 40
0.0
 41
1.0
 50
0.0
 71
     0
 42
3.0
  3
romans.shx
  4
extfont.shx
  0
ENDTAB
  0
TABLE
  2
VIEW
  5
6
330
0
100
AcDbSymbolTable
 70
     0
  0
ENDTAB
  0
TABLE
  2
UCS
  5
7
330
0
100
AcDbSymbolTable
 70
     0
  0
ENDTAB
  0
TABLE
  2
APPID
  5
9
330
0
100
AcDbSymbolTable
 70
     9
  0
APPID
  5
11
330
9
100
AcDbSymbolTableRecord
100
AcDbRegAppTableRecord
  2
ACAD
 70
     0
  0
APPID
  5
1B1
330
9
100
AcDbSymbolTableRecord
100
AcDbRegAppTableRecord
  2
GLOBAL
 70
     0
  0
APPID
  5
2A4
330
9
100
AcDbSymbolTableRecord
100
AcDbRegAppTableRecord
  2
DETAIL
 70
     0
  0
APPID
  5
5FD
330
9
100
AcDbSymbolTableRecord
100
AcDbRegAppTableRecord
  2
GRPNAME
 70
     0
  0
APPID
  5
5FE
330
9
100
AcDbSymbolTableRecord
100
AcDbRegAppTableRecord
  2
GPARA
 70
     0
  0
APPID
  5
6C4
330
9
100
AcDbSymbolTableRecord
100
AcDbRegAppTableRecord
  2
DCO15
 70
     0
  0
APPID
  5
6C5
330
9
100
AcDbSymbolTableRecord
100
AcDbRegAppTableRecord
  2
ITEMNAME
 70
     0
  0
APPID
  5
6C6
330
9
100
AcDbSymbolTableRecord
100
AcDbRegAppTableRecord
  2
GRADE_0
 70
     0
  0
APPID
  5
E29
330
9
100
AcDbSymbolTableRecord
100
AcDbRegAppTableRecord
  2
CONTENTBLOCKICON
 70
     0
  0
ENDTAB
  0
TABLE
  2
DIMSTYLE
  5
A
330
0
100
AcDbSymbolTable
 70
     1
  0
DIMSTYLE
105
725
102
{ACAD_REACTORS
330
A49
330
96B
330
B9A
330
BA9
102
}
330
A
100
AcDbSymbolTableRecord
100
AcDbDimStyleTableRecord
  2
BIGT
 70
     0
  3

  4

  5

  6
OPEN
  7
OPEN
 40
1.0
 41
2.23
 42
0.5
 43
2.5
 44
1.0
 45
0.0
 46
0.0
 47
0.0
 48
0.0
140
2.8
141
0.0
142
0.0
143
25.4
144
1.0
145
0.0
146
1.0
147
1.0
 71
     0
 72
     0
 73
     0
 74
     0
 75
     0
 76
     0
 77
     3
 78
     8
170
     0
171
     2
172
     1
173
     1
174
     1
175
     0
176
   256
177
   256
178
    40
270
     2
271
     3
272
     3
273
     2
274
     2
340
10
275
     0
280
     0
281
     0
282
     0
283
     1
284
     8
285
     0
286
     0
287
     3
288
     0
  0
ENDTAB
  0
TABLE
  2
BLOCK_RECORD
  5
1
330
0
100
AcDbSymbolTable
 70
     7
  0
BLOCK_RECORD
  5
1A
102
{ACAD_XDICTIONARY
360
E27
102
}
330
1
100
AcDbSymbolTableRecord
100
AcDbBlockTableRecord
  2
*MODEL_SPACE
  0
BLOCK_RECORD
  5
17
102
{ACAD_XDICTIONARY
360
E25
102
}
330
1
100
AcDbSymbolTableRecord
100
AcDbBlockTableRecord
  2
*PAPER_SPACE
  0
BLOCK_RECORD
  5
594
330
1
100
AcDbSymbolTableRecord
100
AcDbBlockTableRecord
  2
_OPEN
  0
BLOCK_RECORD
  5
6E3
330
1
100
AcDbSymbolTableRecord
100
AcDbBlockTableRecord
  2
矢印なし
  0
BLOCK_RECORD
  5
B58
330
1
100
AcDbSymbolTableRecord
100
AcDbBlockTableRecord
  2
*D2
  0
BLOCK_RECORD
  5
B64
330
1
100
AcDbSymbolTableRecord
100
AcDbBlockTableRecord
  2
*D3
  0
BLOCK_RECORD
  5
B9B
330
1
100
AcDbSymbolTableRecord
100
AcDbBlockTableRecord
  2
*D4
  0
BLOCK_RECORD
  5
BAA
330
1
100
AcDbSymbolTableRecord
100
AcDbBlockTableRecord
  2
*D5
  0
BLOCK_RECORD
  5
BED
330
1
100
AcDbSymbolTableRecord
100
AcDbBlockTableRecord
  2
1
1001
CONTENTBLOCKICON
1071
        0
1004
2800000020000000200000000100080000000000000400000000000000000000000000000000000000000000000080000080000000808000800000008000800080800000C0C0C000C0DCC000F0CAA6000020400000206000002080000020A0000020C0000020E00000400000004020000040400000406000004080000040A0
1004
000040C0000040E00000600000006020000060400000606000006080000060A0000060C0000060E00000800000008020000080400000806000008080000080A0000080C0000080E00000A0000000A0200000A0400000A0600000A0800000A0A00000A0C00000A0E00000C0000000C0200000C0400000C0600000C0800000C0
1004
A00000C0C00000C0E00000E0000000E0200000E0400000E0600000E0800000E0A00000E0C00000E0E00040000000400020004000400040006000400080004000A0004000C0004000E00040200000402020004020400040206000402080004020A0004020C0004020E000404000004040200040404000404060004040800040
1004
40A0004040C0004040E00040600000406020004060400040606000406080004060A0004060C0004060E00040800000408020004080400040806000408080004080A0004080C0004080E00040A0000040A0200040A0400040A0600040A0800040A0A00040A0C00040A0E00040C0000040C0200040C0400040C0600040C08000
1004
40C0A00040C0C00040C0E00040E0000040E0200040E0400040E0600040E0800040E0A00040E0C00040E0E00080000000800020008000400080006000800080008000A0008000C0008000E00080200000802020008020400080206000802080008020A0008020C0008020E00080400000804020008040400080406000804080
1004
008040A0008040C0008040E00080600000806020008060400080606000806080008060A0008060C0008060E00080800000808020008080400080806000808080008080A0008080C0008080E00080A0000080A0200080A0400080A0600080A0800080A0A00080A0C00080A0E00080C0000080C0200080C0400080C0600080C0
1004
800080C0A00080C0C00080C0E00080E0000080E0200080E0400080E0600080E0800080E0A00080E0C00080E0E000C0000000C0002000C0004000C0006000C0008000C000A000C000C000C000E000C0200000C0202000C0204000C0206000C0208000C020A000C020C000C020E000C0400000C0402000C0404000C0406000C0
1004
408000C040A000C040C000C040E000C0600000C0602000C0604000C0606000C0608000C060A000C060C000C060E000C0800000C0802000C0804000C0806000C0808000C080A000C080C000C080E000C0A00000C0A02000C0A04000C0A06000C0A08000C0A0A000C0A0C000C0A0E000C0C00000C0C02000C0C04000C0C06000
1004
C0C08000C0C0A000F0FBFF00A4A0A000808080000000FF0000FF000000FFFF00FF000000FF00FF00FFFF0000FFFFFF0000000000000000000000000000000000000000000000000000000000000000000000000000000000000000000000000000000000000000000000000000000000000000000000000000000000000000
1004
00000000000000000000000000000000000000000000000000000000000000000000000000000000000000000000000000000000000000000000000000000000000000000000000000000000000000000000000000000000000000000000000000000000000000000000000000000000000000000000000000000000000000
1004
00000000000000000000000000000000000000000000000000000000000000000000000000000000000000000000000000000000000000000000000000000000000000000000000000000000000000000000000000000000000000000000000000000000000000000000000000000000000000000000000000000000000000
1004
00FEFEFEFBE7FE0000000000000000000000000000000000000000000000000000FE00FEFEE7FE0000000000000000000000000000000000000000FEFEFEFEFEFEFEE7E7E7E7E7E7FE000000000000000000000000FEFEFEFEFEFE0000000000E7E700E7E7E7E7E7E7FE0000000000000000000000FE000000000000000000
1004
00E7E700E7E7E7E7E7E7E7FEFEFEFEFAFAFA00000000FE00000000000000000000E7E700E7E7E7E7E7E7E70000E700E700FE000000FBFEFBFBFBFBFBFBFBFBFBFBE7E7FBE7E7E7E7E7E7E7FBFBE7E7E7E7FEFB000000FE00000000000000000000E7E700E7E7E7E7E7E7E7FEFEFEFEFAFAFA00000000FEFEFEFEFEFE000000
1004
0000E7E700E7E7E7E7E7E7FE0000000000000000000000000000000000FEFEFEFEFEFEFEE7E7E7E7E7E7FE000000000000000000000000000000000000000000000000FE00FEFEE7FE0000000000000000000000000000000000000000000000000000FEFEFEFBFEFE00000000000000000000000000000000000000000000
1004
00000000000000000000000000000000000000000000000000000000000000000000000000000000000000000000000000000000000000000000000000000000000000000000000000000000000000000000000000000000000000000000000000000000000000000000000000000000000000000000000000000000000000
1004
00000000000000000000000000000000000000000000000000000000000000000000000000000000000000000000000000000000000000000000000000000000000000000000000000000000000000000000000000000000000000000000000000000000000000000000000000000000000000000000000000000000000000
1004
0000000000000000000000000000000000000000000000000000000000000000000000000000000000000000000000000000000000000000
  0
ENDTAB
  0
ENDSEC
  0
SECTION
  2
BLOCKS
  0
BLOCK
  5
1B
330
1A
100
AcDbEntity
  8
0
100
AcDbBlockBegin
  2
*MODEL_SPACE
 70
     0
 10
0.0
 20
0.0
 30
0.0
  3
*MODEL_SPACE
  1

  0
ENDBLK
  5
1C
330
1A
100
AcDbEntity
  8
0
100
AcDbBlockEnd
  0
BLOCK
  5
18
330
17
100
AcDbEntity
 67
     1
  8
0
100
AcDbBlockBegin
  2
*PAPER_SPACE
 70
     0
 10
0.0
 20
0.0
 30
0.0
  3
*PAPER_SPACE
  1

  0
ENDBLK
  5
19
330
17
100
AcDbEntity
 67
     1
  8
0
100
AcDbBlockEnd
  0
BLOCK
  5
598
330
594
100
AcDbEntity
  8
0
100
AcDbBlockBegin
  2
_OPEN
 70
     0
 10
0.0
 20
0.0
 30
0.0
  3
_OPEN
  1

  0
LINE
  5
595
330
594
100
AcDbEntity
  8
0
  6
BYBLOCK
 62
     0
100
AcDbLine
 10
-1.0
 20
0.16666667
 30
0.0
 11
0.0
 21
0.0
 31
0.0
  0
LINE
  5
596
330
594
100
AcDbEntity
  8
0
  6
BYBLOCK
 62
     0
100
AcDbLine
 10
-1.0
 20
-0.16666667
 30
0.0
 11
0.0
 21
0.0
 31
0.0
  0
LINE
  5
597
330
594
100
AcDbEntity
  8
0
  6
BYBLOCK
 62
     0
100
AcDbLine
 10
0.0
 20
0.0
 30
0.0
 11
-1.0
 21
0.0
 31
0.0
  0
ENDBLK
  5
599
330
594
100
AcDbEntity
  8
0
100
AcDbBlockEnd
  0
BLOCK
  5
6E4
330
6E3
100
AcDbEntity
  8
0
100
AcDbBlockBegin
  2
矢印なし
 70
     0
 10
0.0
 20
0.0
 30
0.0
  3
矢印なし
  1

  0
ENDBLK
  5
6E5
330
6E3
100
AcDbEntity
  8
0
100
AcDbBlockEnd
  0
BLOCK
  5
B62
330
B58
100
AcDbEntity
  8
0
100
AcDbBlockBegin
  2
*D2
 70
     1
 10
0.0
 20
0.0
 30
0.0
  3
*D2
  1

  0
LINE
  5
BE4
330
B58
100
AcDbEntity
  8
250
  6
CONTINUOUS
100
AcDbLine
 10
57.0
 20
8.5
 30
0.0
 11
57.0
 21
22.0
 31
0.0
  0
LINE
  5
BE5
330
B58
100
AcDbEntity
  8
250
  6
CONTINUOUS
100
AcDbLine
 10
65.0
 20
8.5
 30
0.0
 11
65.0
 21
22.0
 31
0.0
  0
LINE
  5
BE6
330
B58
100
AcDbEntity
  8
250
  6
CONTINUOUS
100
AcDbLine
 10
59.23
 20
21.0
 30
0.0
 11
62.77
 21
21.0
 31
0.0
  0
INSERT
  5
BE7
330
B58
100
AcDbEntity
  8
250
  6
CONTINUOUS
100
AcDbBlockReference
  2
_OPEN
 10
57.0
 20
21.0
 30
0.0
 41
2.23
 42
2.23
 43
2.23
 50
180.0
  0
INSERT
  5
BE8
330
B58
100
AcDbEntity
  8
250
  6
CONTINUOUS
100
AcDbBlockReference
  2
_OPEN
 10
65.0
 20
21.0
 30
0.0
 41
2.23
 42
2.23
 43
2.23
  0
MTEXT
  5
BE9
330
B58
100
AcDbEntity
  8
250
  6
CONTINUOUS
 62
    40
100
AcDbMText
 10
61.0
 20
23.4
 30
0.0
 40
2.8
 41
0.0
 71
     5
 72
     1
  1
\A1;8
1001
ACAD
1000
MTEXTBEGIN
1070
    73
1070
     1
1070
    44
1040
1.0
1070
    74
1070
     0
1000
MTEXTEND
1000
MTEXTBEGIN
1070
    73
1070
     1
1070
    44
1040
1.0
1070
    74
1070
     0
1000
MTEXTEND
1000
MTEXTBEGIN
1070
    73
1070
     1
1070
    44
1040
1.0
1070
    74
1070
     0
1000
MTEXTEND
  0
POINT
  5
BEA
330
B58
100
AcDbEntity
  8
DEFPOINTS
  6
CONTINUOUS
 62
     0
100
AcDbPoint
 10
57.0
 20
8.0
 30
0.0
  0
POINT
  5
BEB
330
B58
100
AcDbEntity
  8
DEFPOINTS
  6
CONTINUOUS
 62
     0
100
AcDbPoint
 10
65.0
 20
8.0
 30
0.0
  0
POINT
  5
BEC
330
B58
100
AcDbEntity
  8
DEFPOINTS
  6
CONTINUOUS
 62
     0
100
AcDbPoint
 10
65.0
 20
21.0
 30
0.0
  0
ENDBLK
  5
B63
330
B58
100
AcDbEntity
  8
0
100
AcDbBlockEnd
  0
BLOCK
  5
B6E
330
B64
100
AcDbEntity
  8
0
100
AcDbBlockBegin
  2
*D3
 70
     1
 10
0.0
 20
0.0
 30
0.0
  3
*D3
  1

  0
LINE
  5
BDB
330
B64
100
AcDbEntity
  8
250
  6
CONTINUOUS
100
AcDbLine
 10
65.5
 20
-8.0
 30
0.0
 11
78.0
 21
-8.0
 31
0.0
  0
LINE
  5
BDC
330
B64
100
AcDbEntity
  8
250
  6
CONTINUOUS
100
AcDbLine
 10
65.5
 20
8.0
 30
0.0
 11
78.0
 21
8.0
 31
0.0
  0
LINE
  5
BDD
330
B64
100
AcDbEntity
  8
250
  6
CONTINUOUS
100
AcDbLine
 10
77.0
 20
-5.77
 30
0.0
 11
77.0
 21
5.77
 31
0.0
  0
INSERT
  5
BDE
330
B64
100
AcDbEntity
  8
250
  6
CONTINUOUS
100
AcDbBlockReference
  2
_OPEN
 10
77.0
 20
-8.0
 30
0.0
 41
2.23
 42
2.23
 43
2.23
 50
270.0
  0
INSERT
  5
BDF
330
B64
100
AcDbEntity
  8
250
  6
CONTINUOUS
100
AcDbBlockReference
  2
_OPEN
 10
77.0
 20
8.0
 30
0.0
 41
2.23
 42
2.23
 43
2.23
 50
90.0
  0
MTEXT
  5
BE0
330
B64
100
AcDbEntity
  8
250
  6
CONTINUOUS
 62
    40
100
AcDbMText
 10
74.6
 20
0.0
 30
0.0
 40
2.8
 41
0.0
 71
     5
 72
     1
  1
\A1;{\H2.8;\U+2205}16
 11
0.0
 21
1.0
 31
0.0
1001
ACAD
1000
MTEXTBEGIN
1070
    73
1070
     1
1070
    44
1040
1.0
1070
    74
1070
     0
1000
MTEXTEND
1000
MTEXTBEGIN
1070
    73
1070
     1
1070
    44
1040
1.0
1070
    74
1070
     0
1000
MTEXTEND
1000
MTEXTBEGIN
1070
    73
1070
     1
1070
    44
1040
1.0
1070
    74
1070
     0
1000
MTEXTEND
  0
POINT
  5
BE1
330
B64
100
AcDbEntity
  8
DEFPOINTS
  6
CONTINUOUS
 62
     0
100
AcDbPoint
 10
65.0
 20
-8.0
 30
0.0
  0
POINT
  5
BE2
330
B64
100
AcDbEntity
  8
DEFPOINTS
  6
CONTINUOUS
 62
     0
100
AcDbPoint
 10
65.0
 20
8.0
 30
0.0
  0
POINT
  5
BE3
330
B64
100
AcDbEntity
  8
DEFPOINTS
  6
CONTINUOUS
 62
     0
100
AcDbPoint
 10
77.0
 20
8.0
 30
0.0
  0
ENDBLK
  5
B6F
330
B64
100
AcDbEntity
  8
0
100
AcDbBlockEnd
  0
BLOCK
  5
BA5
330
B9B
100
AcDbEntity
  8
0
100
AcDbBlockBegin
  2
*D4
 70
     1
 10
0.0
 20
0.0
 30
0.0
  3
*D4
  1

  0
LINE
  5
BD2
330
B9B
100
AcDbEntity
  8
250
  6
CONTINUOUS
100
AcDbLine
 10
37.0
 20
8.07702937
 30
0.0
 11
37.0
 21
29.0
 31
0.0
  0
LINE
  5
BD3
330
B9B
100
AcDbEntity
  8
250
  6
CONTINUOUS
100
AcDbLine
 10
65.0
 20
8.5
 30
0.0
 11
65.0
 21
29.0
 31
0.0
  0
LINE
  5
BD4
330
B9B
100
AcDbEntity
  8
250
  6
CONTINUOUS
100
AcDbLine
 10
39.23
 20
28.0
 30
0.0
 11
62.77
 21
28.0
 31
0.0
  0
INSERT
  5
BD5
330
B9B
100
AcDbEntity
  8
250
  6
CONTINUOUS
100
AcDbBlockReference
  2
_OPEN
 10
37.0
 20
28.0
 30
0.0
 41
2.23
 42
2.23
 43
2.23
 50
180.0
  0
INSERT
  5
BD6
330
B9B
100
AcDbEntity
  8
250
  6
CONTINUOUS
100
AcDbBlockReference
  2
_OPEN
 10
65.0
 20
28.0
 30
0.0
 41
2.23
 42
2.23
 43
2.23
  0
MTEXT
  5
BD7
330
B9B
100
AcDbEntity
  8
250
  6
CONTINUOUS
 62
    40
100
AcDbMText
 10
51.0
 20
30.4
 30
0.0
 40
2.8
 41
0.0
 71
     5
 72
     1
  1
\A1;28
1001
ACAD
1000
MTEXTBEGIN
1070
    73
1070
     1
1070
    44
1040
1.0
1070
    74
1070
     0
1000
MTEXTEND
1000
MTEXTBEGIN
1070
    73
1070
     1
1070
    44
1040
1.0
1070
    74
1070
     0
1000
MTEXTEND
1000
MTEXTBEGIN
1070
    73
1070
     1
1070
    44
1040
1.0
1070
    74
1070
     0
1000
MTEXTEND
  0
POINT
  5
BD8
330
B9B
100
AcDbEntity
  8
DEFPOINTS
  6
CONTINUOUS
 62
     0
100
AcDbPoint
 10
37.0
 20
7.57702937
 30
0.0
  0
POINT
  5
BD9
330
B9B
100
AcDbEntity
  8
DEFPOINTS
  6
CONTINUOUS
 62
     0
100
AcDbPoint
 10
65.0
 20
8.0
 30
0.0
  0
POINT
  5
BDA
330
B9B
100
AcDbEntity
  8
DEFPOINTS
  6
CONTINUOUS
 62
     0
100
AcDbPoint
 10
65.0
 20
28.0
 30
0.0
  0
ENDBLK
  5
BA6
330
B9B
100
AcDbEntity
  8
0
100
AcDbBlockEnd
  0
BLOCK
  5
BB4
330
BAA
100
AcDbEntity
  8
0
100
AcDbBlockBegin
  2
*D5
 70
     1
 10
0.0
 20
0.0
 30
0.0
  3
*D5
  1

  0
LINE
  5
BC9
330
BAA
100
AcDbEntity
  8
250
  6
CONTINUOUS
100
AcDbLine
 10
0.0
 20
16.375
 30
0.0
 11
0.0
 21
36.0
 31
0.0
  0
LINE
  5
BCA
330
BAA
100
AcDbEntity
  8
250
  6
CONTINUOUS
100
AcDbLine
 10
65.0
 20
8.5
 30
0.0
 11
65.0
 21
36.0
 31
0.0
  0
LINE
  5
BCB
330
BAA
100
AcDbEntity
  8
250
  6
CONTINUOUS
100
AcDbLine
 10
2.23
 20
35.0
 30
0.0
 11
62.77
 21
35.0
 31
0.0
  0
INSERT
  5
BCC
330
BAA
100
AcDbEntity
  8
250
  6
CONTINUOUS
100
AcDbBlockReference
  2
_OPEN
 10
0.0
 20
35.0
 30
0.0
 41
2.23
 42
2.23
 43
2.23
 50
180.0
  0
INSERT
  5
BCD
330
BAA
100
AcDbEntity
  8
250
  6
CONTINUOUS
100
AcDbBlockReference
  2
_OPEN
 10
65.0
 20
35.0
 30
0.0
 41
2.23
 42
2.23
 43
2.23
  0
MTEXT
  5
BCE
330
BAA
100
AcDbEntity
  8
250
  6
CONTINUOUS
 62
    40
100
AcDbMText
 10
32.5
 20
37.4
 30
0.0
 40
2.8
 41
0.0
 71
     5
 72
     1
  1
\A1;65
1001
ACAD
1000
MTEXTBEGIN
1070
    73
1070
     1
1070
    44
1040
1.0
1070
    74
1070
     0
1000
MTEXTEND
1000
MTEXTBEGIN
1070
    73
1070
     1
1070
    44
1040
1.0
1070
    74
1070
     0
1000
MTEXTEND
1000
MTEXTBEGIN
1070
    73
1070
     1
1070
    44
1040
1.0
1070
    74
1070
     0
1000
MTEXTEND
  0
POINT
  5
BCF
330
BAA
100
AcDbEntity
  8
DEFPOINTS
  6
CONTINUOUS
 62
     0
100
AcDbPoint
 10
0.0
 20
15.875
 30
0.0
  0
POINT
  5
BD0
330
BAA
100
AcDbEntity
  8
DEFPOINTS
  6
CONTINUOUS
 62
     0
100
AcDbPoint
 10
65.0
 20
8.0
 30
0.0
  0
POINT
  5
BD1
330
BAA
100
AcDbEntity
  8
DEFPOINTS
  6
CONTINUOUS
 62
     0
100
AcDbPoint
 10
65.0
 20
35.0
 30
0.0
  0
ENDBLK
  5
BB5
330
BAA
100
AcDbEntity
  8
0
100
AcDbBlockEnd
  0
BLOCK
  5
BEE
330
BED
100
AcDbEntity
  8
0
100
AcDbBlockBegin
  2
1
 70
     0
 10
0.0
 20
0.0
 30
0.0
  3
1
  1

  0
ARC
  5
10C2
330
BED
100
AcDbEntity
  8
240
100
AcDbCircle
 10
39.53646196
 20
17.25
 30
0.0
 40
10.0
100
AcDbArc
 50
231.04810597
 51
270.0
  0
ARC
  5
10C3
330
BED
100
AcDbEntity
  8
240
100
AcDbCircle
 10
39.53646196
 20
-17.25
 30
0.0
 40
10.0
100
AcDbArc
 50
90.0
 51
128.95189403
  0
LINE
  5
10C4
330
BED
100
AcDbEntity
  8
245
  6
CENTER2
100
AcDbLine
 10
-49.4
 20
0.0
 30
0.0
 11
66.0
 21
0.0
 31
0.0
1001
GRPNAME
1000
PASTMD03
  0
LINE
  5
10C5
330
BED
100
AcDbEntity
  8
240
  6
CONTINUOUS
100
AcDbLine
 10
-47.54431023
 20
8.94129104
 30
0.0
 11
0.0
 21
15.875
 31
0.0
  0
LINE
  5
10C6
330
BED
100
AcDbEntity
  8
240
  6
CONTINUOUS
100
AcDbLine
 10
-47.54431023
 20
-8.94129104
 30
0.0
 11
0.0
 21
-15.875
 31
0.0
  0
LINE
  5
10C7
330
BED
100
AcDbEntity
  8
240
  6
CONTINUOUS
100
AcDbLine
 10
-48.4
 20
-7.95175854
 30
0.0
 11
-48.4
 21
0.0
 31
0.0
  0
ARC
  5
10C8
330
BED
100
AcDbEntity
  8
240
  6
CONTINUOUS
100
AcDbCircle
 10
-47.4
 20
-7.95175854
 30
0.0
 40
1.0
100
AcDbArc
 50
180.0
 51
261.70266184
  0
LINE
  5
10C9
330
BED
100
AcDbEntity
  8
240
  6
CONTINUOUS
100
AcDbLine
 10
-48.4
 20
7.95175854
 30
0.0
 11
-48.4
 21
0.0
 31
0.0
  0
ARC
  5
10CA
330
BED
100
AcDbEntity
  8
240
  6
CONTINUOUS
100
AcDbCircle
 10
-47.4
 20
7.95175854
 30
0.0
 40
1.0
100
AcDbArc
 50
98.29733816
 51
180.0
  0
LINE
  5
10CB
330
BED
100
AcDbEntity
  8
240
100
AcDbLine
 10
33.24978524
 20
-9.4732593
 30
0.0
 11
23.11399698
 21
-17.66697778
 31
0.0
  0
LINE
  5
10CC
330
BED
100
AcDbEntity
  8
241
  6
CONTINUOUS
100
AcDbLine
 10
26.9636703
 20
-14.55492191
 30
0.0
 11
26.9636703
 21
0.0
 31
0.0
1001
GRPNAME
1000
PASTMD01
  0
LINE
  5
10CD
330
BED
100
AcDbEntity
  8
241
  6
CONTINUOUS
100
AcDbLine
 10
26.03046142
 20
-15.30932312
 30
0.0
 11
26.03046142
 21
0.0
 31
0.0
1001
GRPNAME
1000
PASTMD01
  0
LINE
  5
10CE
330
BED
100
AcDbEntity
  8
241
  6
CONTINUOUS
100
AcDbLine
 10
22.0
 20
0.0
 30
0.0
 11
22.0
 21
-20.0
 31
0.0
  0
LINE
  5
10CF
330
BED
100
AcDbEntity
  8
241
100
AcDbLine
 10
0.0
 20
-15.875
 30
0.0
 11
0.0
 21
0.0
 31
0.0
  0
LINE
  5
10D0
330
BED
100
AcDbEntity
  8
241
100
AcDbLine
 10
1.0
 20
0.0
 30
0.0
 11
1.0
 21
-15.875
 31
0.0
  0
LINE
  5
10D1
330
BED
100
AcDbEntity
  8
245
  6
CENTER2
100
AcDbLine
 10
13.6
 20
-23.0
 30
0.0
 11
13.6
 21
23.0
 31
0.0
  0
LINE
  5
10D2
330
BED
100
AcDbEntity
  8
241
  6
CONTINUOUS
100
AcDbLine
 10
15.29059892
 20
-19.0
 30
0.0
 11
15.29059892
 21
0.04377196
 31
0.0
  0
LINE
  5
10D3
330
BED
100
AcDbEntity
  8
241
  6
CONTINUOUS
100
AcDbLine
 10
17.6
 20
0.0
 30
0.0
 11
17.6
 21
-23.0
 31
0.0
  0
LINE
  5
10D4
330
BED
100
AcDbEntity
  8
241
  6
CONTINUOUS
100
AcDbLine
 10
11.90940108
 20
-19.0
 30
0.0
 11
11.90940108
 21
0.04377196
 31
0.0
  0
LINE
  5
10D5
330
BED
100
AcDbEntity
  8
241
  6
CONTINUOUS
100
AcDbLine
 10
9.6
 20
-23.0
 30
0.0
 11
9.6
 21
0.0
 31
0.0
  0
LINE
  5
10D6
330
BED
100
AcDbEntity
  8
243
  6
HIDDEN2
100
AcDbLine
 10
19.0
 20
-16.3
 30
0.0
 11
1.0
 21
-16.3
 31
0.0
  0
LINE
  5
10D7
330
BED
100
AcDbEntity
  8
240
  6
CONTINUOUS
100
AcDbLine
 10
9.6
 20
-23.0
 30
0.0
 11
1.0
 21
-23.0
 31
0.0
  0
LINE
  5
10D8
330
BED
100
AcDbEntity
  8
240
  6
CONTINUOUS
100
AcDbLine
 10
1.0
 20
-15.875
 30
0.0
 11
1.0
 21
-23.0
 31
0.0
  0
LINE
  5
10D9
330
BED
100
AcDbEntity
  8
240
100
AcDbLine
 10
0.0
 20
-15.875
 30
0.0
 11
1.0
 21
-15.875
 31
0.0
  0
LINE
  5
10DA
330
BED
100
AcDbEntity
  8
240
  6
CONTINUOUS
100
AcDbLine
 10
17.6
 20
-23.0
 30
0.0
 11
22.0
 21
-23.0
 31
0.0
  0
LINE
  5
10DB
330
BED
100
AcDbEntity
  8
240
  6
CONTINUOUS
100
AcDbLine
 10
11.90940108
 20
-19.0
 30
0.0
 11
9.6
 21
-23.0
 31
0.0
  0
LINE
  5
10DC
330
BED
100
AcDbEntity
  8
240
  6
CONTINUOUS
100
AcDbLine
 10
15.29059892
 20
-19.0
 30
0.0
 11
17.6
 21
-23.0
 31
0.0
  0
LINE
  5
10DD
330
BED
100
AcDbEntity
  8
243
  6
HIDDEN2
100
AcDbLine
 10
19.0
 20
-16.3
 30
0.0
 11
19.0
 21
-23.0
 31
0.0
  0
LINE
  5
10DE
330
BED
100
AcDbEntity
  8
240
  6
CONTINUOUS
100
AcDbLine
 10
11.90940108
 20
-19.0
 30
0.0
 11
15.29059892
 21
-19.0
 31
0.0
  0
ARC
  5
10DF
330
BED
100
AcDbEntity
  8
240
  6
CONTINUOUS
100
AcDbCircle
 10
25.0
 20
-20.0
 30
0.0
 40
3.0
100
AcDbArc
 50
128.95189403
 51
179.99999999
1001
GRPNAME
1000
PASTMD01
  0
LINE
  5
10E0
330
BED
100
AcDbEntity
  8
240
  6
CONTINUOUS
100
AcDbLine
 10
22.0
 20
-23.0
 30
0.0
 11
22.0
 21
-20.0
 31
0.0
  0
LINE
  5
10E1
330
BED
100
AcDbEntity
  8
240
  6
CONTINUOUS
100
AcDbLine
 10
9.6
 20
23.0
 30
0.0
 11
1.0
 21
23.0
 31
0.0
  0
LINE
  5
10E2
330
BED
100
AcDbEntity
  8
241
  6
HIDDEN2
100
AcDbLine
 10
19.0
 20
16.3
 30
0.0
 11
1.0
 21
16.3
 31
0.0
  0
LINE
  5
10E3
330
BED
100
AcDbEntity
  8
241
100
AcDbLine
 10
0.0
 20
15.875
 30
0.0
 11
0.0
 21
0.0
 31
0.0
  0
LINE
  5
10E4
330
BED
100
AcDbEntity
  8
241
100
AcDbLine
 10
1.0
 20
0.0
 30
0.0
 11
1.0
 21
15.875
 31
0.0
  0
LINE
  5
10E5
330
BED
100
AcDbEntity
  8
240
  6
CONTINUOUS
100
AcDbLine
 10
1.0
 20
15.875
 30
0.0
 11
1.0
 21
23.0
 31
0.0
  0
LINE
  5
10E6
330
BED
100
AcDbEntity
  8
240
100
AcDbLine
 10
0.0
 20
15.875
 30
0.0
 11
1.0
 21
15.875
 31
0.0
  0
LINE
  5
10E7
330
BED
100
AcDbEntity
  8
240
100
AcDbLine
 10
33.24978524
 20
9.4732593
 30
0.0
 11
23.11399698
 21
17.66697778
 31
0.0
  0
LINE
  5
10E8
330
BED
100
AcDbEntity
  8
241
  6
CONTINUOUS
100
AcDbLine
 10
30.03046142
 20
12.07574393
 30
0.0
 11
30.03046142
 21
0.0
 31
0.0
1001
GRPNAME
1000
PASTMD01
  0
LINE
  5
10E9
330
BED
100
AcDbEntity
  8
241
  6
CONTINUOUS
100
AcDbLine
 10
26.03046142
 20
15.30932312
 30
0.0
 11
26.03046142
 21
0.0
 31
0.0
1001
GRPNAME
1000
PASTMD01
  0
LINE
  5
10EA
330
BED
100
AcDbEntity
  8
241
  6
CONTINUOUS
100
AcDbLine
 10
26.9636703
 20
14.55492191
 30
0.0
 11
26.9636703
 21
0.0
 31
0.0
1001
GRPNAME
1000
PASTMD01
  0
LINE
  5
10EB
330
BED
100
AcDbEntity
  8
241
  6
CONTINUOUS
100
AcDbLine
 10
22.0
 20
0.0
 30
0.0
 11
22.0
 21
20.0
 31
0.0
  0
LINE
  5
10EC
330
BED
100
AcDbEntity
  8
241
  6
CONTINUOUS
100
AcDbLine
 10
11.90940108
 20
19.0
 30
0.0
 11
11.90940108
 21
-0.04377196
 31
0.0
  0
LINE
  5
10ED
330
BED
100
AcDbEntity
  8
241
  6
CONTINUOUS
100
AcDbLine
 10
15.29059892
 20
19.0
 30
0.0
 11
15.29059892
 21
-0.04377196
 31
0.0
  0
LINE
  5
10EE
330
BED
100
AcDbEntity
  8
241
  6
CONTINUOUS
100
AcDbLine
 10
17.6
 20
0.0
 30
0.0
 11
17.6
 21
23.0
 31
0.0
  0
LINE
  5
10EF
330
BED
100
AcDbEntity
  8
241
  6
CONTINUOUS
100
AcDbLine
 10
9.6
 20
23.0
 30
0.0
 11
9.6
 21
0.0
 31
0.0
  0
LINE
  5
10F0
330
BED
100
AcDbEntity
  8
241
100
AcDbLine
 10
36.0
 20
0.0
 30
0.0
 11
36.0
 21
-7.25
 31
0.0
  0
LINE
  5
10F1
330
BED
100
AcDbEntity
  8
241
  6
CONTINUOUS
100
AcDbLine
 10
30.9636703
 20
-11.32134272
 30
0.0
 11
30.9636703
 21
0.0
 31
0.0
1001
GRPNAME
1000
PASTMD01
  0
LINE
  5
10F2
330
BED
100
AcDbEntity
  8
241
  6
CONTINUOUS
100
AcDbLine
 10
30.03046142
 20
-12.07574393
 30
0.0
 11
30.03046142
 21
0.0
 31
0.0
1001
GRPNAME
1000
PASTMD01
  0
LINE
  5
10F3
330
BED
100
AcDbEntity
  8
241
  6
CONTINUOUS
100
AcDbLine
 10
30.9636703
 20
11.32134272
 30
0.0
 11
30.9636703
 21
0.0
 31
0.0
1001
GRPNAME
1000
PASTMD01
  0
LINE
  5
10F4
330
BED
100
AcDbEntity
  8
241
100
AcDbLine
 10
36.0
 20
0.0
 30
0.0
 11
36.0
 21
7.25
 31
0.0
  0
LINE
  5
10F5
330
BED
100
AcDbEntity
  8
240
  6
CONTINUOUS
100
AcDbLine
 10
17.6
 20
23.0
 30
0.0
 11
22.0
 21
23.0
 31
0.0
  0
LINE
  5
10F6
330
BED
100
AcDbEntity
  8
240
  6
CONTINUOUS
100
AcDbLine
 10
11.90940108
 20
19.0
 30
0.0
 11
9.6
 21
23.0
 31
0.0
  0
LINE
  5
10F7
330
BED
100
AcDbEntity
  8
241
  6
HIDDEN2
100
AcDbLine
 10
19.0
 20
16.3
 30
0.0
 11
19.0
 21
23.0
 31
0.0
  0
LINE
  5
10F8
330
BED
100
AcDbEntity
  8
240
  6
CONTINUOUS
100
AcDbLine
 10
15.29059892
 20
19.0
 30
0.0
 11
17.6
 21
23.0
 31
0.0
  0
LINE
  5
10F9
330
BED
100
AcDbEntity
  8
240
  6
CONTINUOUS
100
AcDbLine
 10
11.90940108
 20
19.0
 30
0.0
 11
15.29059892
 21
19.0
 31
0.0
  0
ARC
  5
10FA
330
BED
100
AcDbEntity
  8
240
  6
CONTINUOUS
100
AcDbCircle
 10
25.0
 20
20.0
 30
0.0
 40
3.0
100
AcDbArc
 50
180.00000001
 51
231.04810597
1001
GRPNAME
1000
PASTMD01
  0
LINE
  5
10FB
330
BED
100
AcDbEntity
  8
240
  6
CONTINUOUS
100
AcDbLine
 10
22.0
 20
23.0
 30
0.0
 11
22.0
 21
20.0
 31
0.0
  0
LINE
  5
10FC
330
BED
100
AcDbEntity
  8
241
100
AcDbLine
 10
55.19330642
 20
2.42629043
 30
0.0
 11
64.19615249
 21
0.83884577
 31
0.0
  0
LINE
  5
10FD
330
BED
100
AcDbEntity
  8
241
100
AcDbLine
 10
53.96385985
 20
0.29682651
 30
0.0
 11
64.25
 21
-3.44702232
 31
0.0
  0
LINE
  5
10FE
330
BED
100
AcDbEntity
  8
240
100
AcDbLine
 10
64.25
 20
7.39776704
 30
0.0
 11
55.19330643
 21
7.6
 31
0.0
  0
LINE
  5
10FF
330
BED
100
AcDbEntity
  8
241
100
AcDbLine
 10
48.36390401
 20
-4.31821439
 30
0.0
 11
64.25
 21
-7.23344519
 31
0.0
  0
LINE
  5
1100
330
BED
100
AcDbEntity
  8
240
100
AcDbLine
 10
64.25
 20
-7.39776704
 30
0.0
 11
55.19330643
 21
-7.6
 31
0.0
  0
ARC
  5
1101
330
BED
100
AcDbEntity
  8
241
100
AcDbCircle
 10
48.8294869
 20
-1.78109295
 30
0.0
 40
2.5794868956407
100
AcDbArc
 50
79.9999824
 51
259.60142489
  0
LINE
  5
1102
330
BED
100
AcDbEntity
  8
240
100
AcDbLine
 10
53.88708862
 20
-7.25
 30
0.0
 11
39.53646196
 21
-7.25
 31
0.0
  0
LINE
  5
1103
330
BED
100
AcDbEntity
  8
240
100
AcDbLine
 10
53.88708862
 20
-7.25
 30
0.0
 11
55.19330643
 21
-7.6
 31
0.0
  0
LINE
  5
1104
330
BED
100
AcDbEntity
  8
240
100
AcDbLine
 10
53.88708862
 20
7.25
 30
0.0
 11
39.53646196
 21
7.25
 31
0.0
  0
LINE
  5
1105
330
BED
100
AcDbEntity
  8
241
100
AcDbLine
 10
53.77313855
 20
-0.03351248
 30
0.0
 11
49.27741009
 21
0.75920574
 31
0.0
  0
LINE
  5
1106
330
BED
100
AcDbEntity
  8
241
100
AcDbLine
 10
55.19330642
 20
2.42629043
 30
0.0
 11
53.77313855
 21
-0.03351248
 31
0.0
  0
LINE
  5
1107
330
BED
100
AcDbEntity
  8
240
100
AcDbLine
 10
53.88708862
 20
7.25
 30
0.0
 11
55.19330643
 21
7.6
 31
0.0
  0
LINE
  5
1108
330
BED
100
AcDbEntity
  8
240
100
AcDbLine
 10
64.19615249
 20
0.83884577
 30
0.0
 11
65.0
 21
-3.72
 31
0.0
  0
LINE
  5
1109
330
BED
100
AcDbEntity
  8
246
100
AcDbLine
 10
65.0
 20
-8.0
 30
0.0
 11
65.0
 21
8.0
 31
0.0
  0
LINE
  5
110A
330
BED
100
AcDbEntity
  8
240
100
AcDbLine
 10
64.25
 20
-7.39776704
 30
0.0
 11
64.25
 21
-3.44702232
 31
0.0
  0
LINE
  5
110B
330
BED
100
AcDbEntity
  8
246
100
AcDbLine
 10
65.0
 20
-8.0
 30
0.0
 11
57.0
 21
-8.0
 31
0.0
1001
GRPNAME
1000
PASTMD03
  0
LINE
  5
110C
330
BED
100
AcDbEntity
  8
240
100
AcDbLine
 10
65.0
 20
-3.72
 30
0.0
 11
64.25
 21
-3.44702232
 31
0.0
  0
LINE
  5
110D
330
BED
100
AcDbEntity
  8
240
100
AcDbLine
 10
64.25
 20
7.39776704
 30
0.0
 11
64.25
 21
0.829351
 31
0.0
  0
POLYLINE
  5
110E
330
BED
100
AcDbEntity
  8
241
100
AcDb3dPolyline
 66
     1
 10
0.0
 20
0.0
 30
0.0
 70
     8
  0
VERTEX
  5
110F
330
110E
100
AcDbEntity
  8
241
100
AcDbVertex
100
AcDb3dPolylineVertex
 10
58.5983
 20
5.90613
 30
0.0
 70
    32
  0
VERTEX
  5
1110
330
110E
100
AcDbEntity
  8
241
100
AcDbVertex
100
AcDb3dPolylineVertex
 10
58.5939
 20
5.87893
 30
0.0
 70
    32
  0
VERTEX
  5
1111
330
110E
100
AcDbEntity
  8
241
100
AcDbVertex
100
AcDb3dPolylineVertex
 10
58.5903
 20
5.85161
 30
0.0
 70
    32
  0
VERTEX
  5
1112
330
110E
100
AcDbEntity
  8
241
100
AcDbVertex
100
AcDb3dPolylineVertex
 10
58.5876
 20
5.82419
 30
0.0
 70
    32
  0
VERTEX
  5
1113
330
110E
100
AcDbEntity
  8
241
100
AcDbVertex
100
AcDb3dPolylineVertex
 10
58.5856
 20
5.79666
 30
0.0
 70
    32
  0
VERTEX
  5
1114
330
110E
100
AcDbEntity
  8
241
100
AcDbVertex
100
AcDb3dPolylineVertex
 10
58.5844
 20
5.76907
 30
0.0
 70
    32
  0
VERTEX
  5
1115
330
110E
100
AcDbEntity
  8
241
100
AcDbVertex
100
AcDb3dPolylineVertex
 10
58.5841
 20
5.74141
 30
0.0
 70
    32
  0
VERTEX
  5
1116
330
110E
100
AcDbEntity
  8
241
100
AcDbVertex
100
AcDb3dPolylineVertex
 10
58.5846
 20
5.71372
 30
0.0
 70
    32
  0
VERTEX
  5
1117
330
110E
100
AcDbEntity
  8
241
100
AcDbVertex
100
AcDb3dPolylineVertex
 10
58.5858
 20
5.68599
 30
0.0
 70
    32
  0
VERTEX
  5
1118
330
110E
100
AcDbEntity
  8
241
100
AcDbVertex
100
AcDb3dPolylineVertex
 10
58.5879
 20
5.65826
 30
0.0
 70
    32
  0
VERTEX
  5
1119
330
110E
100
AcDbEntity
  8
241
100
AcDbVertex
100
AcDb3dPolylineVertex
 10
58.5908
 20
5.63054
 30
0.0
 70
    32
  0
VERTEX
  5
111A
330
110E
100
AcDbEntity
  8
241
100
AcDbVertex
100
AcDb3dPolylineVertex
 10
58.5945
 20
5.60284
 30
0.0
 70
    32
  0
VERTEX
  5
111B
330
110E
100
AcDbEntity
  8
241
100
AcDbVertex
100
AcDb3dPolylineVertex
 10
58.599
 20
5.57519
 30
0.0
 70
    32
  0
VERTEX
  5
111C
330
110E
100
AcDbEntity
  8
241
100
AcDbVertex
100
AcDb3dPolylineVertex
 10
58.6043
 20
5.54759
 30
0.0
 70
    32
  0
VERTEX
  5
111D
330
110E
100
AcDbEntity
  8
241
100
AcDbVertex
100
AcDb3dPolylineVertex
 10
58.6104
 20
5.52007
 30
0.0
 70
    32
  0
VERTEX
  5
111E
330
110E
100
AcDbEntity
  8
241
100
AcDbVertex
100
AcDb3dPolylineVertex
 10
58.6172
 20
5.49263
 30
0.0
 70
    32
  0
VERTEX
  5
111F
330
110E
100
AcDbEntity
  8
241
100
AcDbVertex
100
AcDb3dPolylineVertex
 10
58.6249
 20
5.46531
 30
0.0
 70
    32
  0
VERTEX
  5
1120
330
110E
100
AcDbEntity
  8
241
100
AcDbVertex
100
AcDb3dPolylineVertex
 10
58.6334
 20
5.43811
 30
0.0
 70
    32
  0
VERTEX
  5
1121
330
110E
100
AcDbEntity
  8
241
100
AcDbVertex
100
AcDb3dPolylineVertex
 10
58.6426
 20
5.41105
 30
0.0
 70
    32
  0
VERTEX
  5
1122
330
110E
100
AcDbEntity
  8
241
100
AcDbVertex
100
AcDb3dPolylineVertex
 10
58.6526
 20
5.38415
 30
0.0
 70
    32
  0
VERTEX
  5
1123
330
110E
100
AcDbEntity
  8
241
100
AcDbVertex
100
AcDb3dPolylineVertex
 10
58.6634
 20
5.35742
 30
0.0
 70
    32
  0
VERTEX
  5
1124
330
110E
100
AcDbEntity
  8
241
100
AcDbVertex
100
AcDb3dPolylineVertex
 10
58.675
 20
5.33088
 30
0.0
 70
    32
  0
VERTEX
  5
1125
330
110E
100
AcDbEntity
  8
241
100
AcDbVertex
100
AcDb3dPolylineVertex
 10
58.6873
 20
5.30455
 30
0.0
 70
    32
  0
VERTEX
  5
1126
330
110E
100
AcDbEntity
  8
241
100
AcDbVertex
100
AcDb3dPolylineVertex
 10
58.7003
 20
5.27843
 30
0.0
 70
    32
  0
VERTEX
  5
1127
330
110E
100
AcDbEntity
  8
241
100
AcDbVertex
100
AcDb3dPolylineVertex
 10
58.7141
 20
5.25256
 30
0.0
 70
    32
  0
VERTEX
  5
1128
330
110E
100
AcDbEntity
  8
241
100
AcDbVertex
100
AcDb3dPolylineVertex
 10
58.7286
 20
5.22693
 30
0.0
 70
    32
  0
VERTEX
  5
1129
330
110E
100
AcDbEntity
  8
241
100
AcDbVertex
100
AcDb3dPolylineVertex
 10
58.7438
 20
5.20158
 30
0.0
 70
    32
  0
VERTEX
  5
112A
330
110E
100
AcDbEntity
  8
241
100
AcDbVertex
100
AcDb3dPolylineVertex
 10
58.7598
 20
5.1765
 30
0.0
 70
    32
  0
VERTEX
  5
112B
330
110E
100
AcDbEntity
  8
241
100
AcDbVertex
100
AcDb3dPolylineVertex
 10
58.7764
 20
5.15173
 30
0.0
 70
    32
  0
VERTEX
  5
112C
330
110E
100
AcDbEntity
  8
241
100
AcDbVertex
100
AcDb3dPolylineVertex
 10
58.7938
 20
5.12727
 30
0.0
 70
    32
  0
VERTEX
  5
112D
330
110E
100
AcDbEntity
  8
241
100
AcDbVertex
100
AcDb3dPolylineVertex
 10
58.8118
 20
5.10314
 30
0.0
 70
    32
  0
VERTEX
  5
112E
330
110E
100
AcDbEntity
  8
241
100
AcDbVertex
100
AcDb3dPolylineVertex
 10
58.8305
 20
5.07934
 30
0.0
 70
    32
  0
VERTEX
  5
112F
330
110E
100
AcDbEntity
  8
241
100
AcDbVertex
100
AcDb3dPolylineVertex
 10
58.8499
 20
5.05591
 30
0.0
 70
    32
  0
VERTEX
  5
1130
330
110E
100
AcDbEntity
  8
241
100
AcDbVertex
100
AcDb3dPolylineVertex
 10
58.8699
 20
5.03285
 30
0.0
 70
    32
  0
VERTEX
  5
1131
330
110E
100
AcDbEntity
  8
241
100
AcDbVertex
100
AcDb3dPolylineVertex
 10
58.8906
 20
5.01017
 30
0.0
 70
    32
  0
VERTEX
  5
1132
330
110E
100
AcDbEntity
  8
241
100
AcDbVertex
100
AcDb3dPolylineVertex
 10
58.9118
 20
4.98789
 30
0.0
 70
    32
  0
VERTEX
  5
1133
330
110E
100
AcDbEntity
  8
241
100
AcDbVertex
100
AcDb3dPolylineVertex
 10
58.9337
 20
4.96602
 30
0.0
 70
    32
  0
VERTEX
  5
1134
330
110E
100
AcDbEntity
  8
241
100
AcDbVertex
100
AcDb3dPolylineVertex
 10
58.9562
 20
4.94458
 30
0.0
 70
    32
  0
VERTEX
  5
1135
330
110E
100
AcDbEntity
  8
241
100
AcDbVertex
100
AcDb3dPolylineVertex
 10
58.9793
 20
4.92357
 30
0.0
 70
    32
  0
VERTEX
  5
1136
330
110E
100
AcDbEntity
  8
241
100
AcDbVertex
100
AcDb3dPolylineVertex
 10
59.0029
 20
4.90302
 30
0.0
 70
    32
  0
VERTEX
  5
1137
330
110E
100
AcDbEntity
  8
241
100
AcDbVertex
100
AcDb3dPolylineVertex
 10
59.0271
 20
4.88293
 30
0.0
 70
    32
  0
VERTEX
  5
1138
330
110E
100
AcDbEntity
  8
241
100
AcDbVertex
100
AcDb3dPolylineVertex
 10
59.0519
 20
4.86331
 30
0.0
 70
    32
  0
VERTEX
  5
1139
330
110E
100
AcDbEntity
  8
241
100
AcDbVertex
100
AcDb3dPolylineVertex
 10
59.0771
 20
4.84419
 30
0.0
 70
    32
  0
VERTEX
  5
113A
330
110E
100
AcDbEntity
  8
241
100
AcDbVertex
100
AcDb3dPolylineVertex
 10
59.1029
 20
4.82555
 30
0.0
 70
    32
  0
VERTEX
  5
113B
330
110E
100
AcDbEntity
  8
241
100
AcDbVertex
100
AcDb3dPolylineVertex
 10
59.1292
 20
4.80743
 30
0.0
 70
    32
  0
VERTEX
  5
113C
330
110E
100
AcDbEntity
  8
241
100
AcDbVertex
100
AcDb3dPolylineVertex
 10
59.156
 20
4.78983
 30
0.0
 70
    32
  0
VERTEX
  5
113D
330
110E
100
AcDbEntity
  8
241
100
AcDbVertex
100
AcDb3dPolylineVertex
 10
59.1832
 20
4.77276
 30
0.0
 70
    32
  0
VERTEX
  5
113E
330
110E
100
AcDbEntity
  8
241
100
AcDbVertex
100
AcDb3dPolylineVertex
 10
59.2109
 20
4.75624
 30
0.0
 70
    32
  0
VERTEX
  5
113F
330
110E
100
AcDbEntity
  8
241
100
AcDbVertex
100
AcDb3dPolylineVertex
 10
59.239
 20
4.74026
 30
0.0
 70
    32
  0
VERTEX
  5
1140
330
110E
100
AcDbEntity
  8
241
100
AcDbVertex
100
AcDb3dPolylineVertex
 10
59.2675
 20
4.72485
 30
0.0
 70
    32
  0
VERTEX
  5
1141
330
110E
100
AcDbEntity
  8
241
100
AcDbVertex
100
AcDb3dPolylineVertex
 10
59.2964
 20
4.71
 30
0.0
 70
    32
  0
VERTEX
  5
1142
330
110E
100
AcDbEntity
  8
241
100
AcDbVertex
100
AcDb3dPolylineVertex
 10
59.3257
 20
4.69574
 30
0.0
 70
    32
  0
VERTEX
  5
1143
330
110E
100
AcDbEntity
  8
241
100
AcDbVertex
100
AcDb3dPolylineVertex
 10
59.3554
 20
4.68206
 30
0.0
 70
    32
  0
VERTEX
  5
1144
330
110E
100
AcDbEntity
  8
241
100
AcDbVertex
100
AcDb3dPolylineVertex
 10
59.3854
 20
4.66898
 30
0.0
 70
    32
  0
VERTEX
  5
1145
330
110E
100
AcDbEntity
  8
241
100
AcDbVertex
100
AcDb3dPolylineVertex
 10
59.4157
 20
4.6565
 30
0.0
 70
    32
  0
VERTEX
  5
1146
330
110E
100
AcDbEntity
  8
241
100
AcDbVertex
100
AcDb3dPolylineVertex
 10
59.4463
 20
4.64463
 30
0.0
 70
    32
  0
VERTEX
  5
1147
330
110E
100
AcDbEntity
  8
241
100
AcDbVertex
100
AcDb3dPolylineVertex
 10
59.4773
 20
4.63339
 30
0.0
 70
    32
  0
VERTEX
  5
1148
330
110E
100
AcDbEntity
  8
241
100
AcDbVertex
100
AcDb3dPolylineVertex
 10
59.5085
 20
4.62277
 30
0.0
 70
    32
  0
VERTEX
  5
1149
330
110E
100
AcDbEntity
  8
241
100
AcDbVertex
100
AcDb3dPolylineVertex
 10
59.5399
 20
4.61278
 30
0.0
 70
    32
  0
VERTEX
  5
114A
330
110E
100
AcDbEntity
  8
241
100
AcDbVertex
100
AcDb3dPolylineVertex
 10
59.5716
 20
4.60342
 30
0.0
 70
    32
  0
VERTEX
  5
114B
330
110E
100
AcDbEntity
  8
241
100
AcDbVertex
100
AcDb3dPolylineVertex
 10
59.6035
 20
4.59472
 30
0.0
 70
    32
  0
VERTEX
  5
114C
330
110E
100
AcDbEntity
  8
241
100
AcDbVertex
100
AcDb3dPolylineVertex
 10
59.6356
 20
4.58666
 30
0.0
 70
    32
  0
VERTEX
  5
114D
330
110E
100
AcDbEntity
  8
241
100
AcDbVertex
100
AcDb3dPolylineVertex
 10
59.6679
 20
4.57925
 30
0.0
 70
    32
  0
VERTEX
  5
114E
330
110E
100
AcDbEntity
  8
241
100
AcDbVertex
100
AcDb3dPolylineVertex
 10
59.7003
 20
4.5725
 30
0.0
 70
    32
  0
VERTEX
  5
114F
330
110E
100
AcDbEntity
  8
241
100
AcDbVertex
100
AcDb3dPolylineVertex
 10
59.7329
 20
4.56642
 30
0.0
 70
    32
  0
VERTEX
  5
1150
330
110E
100
AcDbEntity
  8
241
100
AcDbVertex
100
AcDb3dPolylineVertex
 10
59.7656
 20
4.561
 30
0.0
 70
    32
  0
VERTEX
  5
1151
330
110E
100
AcDbEntity
  8
241
100
AcDbVertex
100
AcDb3dPolylineVertex
 10
59.7984
 20
4.55624
 30
0.0
 70
    32
  0
VERTEX
  5
1152
330
110E
100
AcDbEntity
  8
241
100
AcDbVertex
100
AcDb3dPolylineVertex
 10
59.8312
 20
4.55216
 30
0.0
 70
    32
  0
VERTEX
  5
1153
330
110E
100
AcDbEntity
  8
241
100
AcDbVertex
100
AcDb3dPolylineVertex
 10
59.8642
 20
4.54876
 30
0.0
 70
    32
  0
VERTEX
  5
1154
330
110E
100
AcDbEntity
  8
241
100
AcDbVertex
100
AcDb3dPolylineVertex
 10
59.8971
 20
4.54603
 30
0.0
 70
    32
  0
VERTEX
  5
1155
330
110E
100
AcDbEntity
  8
241
100
AcDbVertex
100
AcDb3dPolylineVertex
 10
59.9301
 20
4.54398
 30
0.0
 70
    32
  0
VERTEX
  5
1156
330
110E
100
AcDbEntity
  8
241
100
AcDbVertex
100
AcDb3dPolylineVertex
 10
59.9631
 20
4.54261
 30
0.0
 70
    32
  0
VERTEX
  5
1157
330
110E
100
AcDbEntity
  8
241
100
AcDbVertex
100
AcDb3dPolylineVertex
 10
59.996
 20
4.54192
 30
0.0
 70
    32
  0
VERTEX
  5
1158
330
110E
100
AcDbEntity
  8
241
100
AcDbVertex
100
AcDb3dPolylineVertex
 10
60.0289
 20
4.54191
 30
0.0
 70
    32
  0
VERTEX
  5
1159
330
110E
100
AcDbEntity
  8
241
100
AcDbVertex
100
AcDb3dPolylineVertex
 10
60.0618
 20
4.54258
 30
0.0
 70
    32
  0
VERTEX
  5
115A
330
110E
100
AcDbEntity
  8
241
100
AcDbVertex
100
AcDb3dPolylineVertex
 10
60.0946
 20
4.54393
 30
0.0
 70
    32
  0
VERTEX
  5
115B
330
110E
100
AcDbEntity
  8
241
100
AcDbVertex
100
AcDb3dPolylineVertex
 10
60.1272
 20
4.54596
 30
0.0
 70
    32
  0
VERTEX
  5
115C
330
110E
100
AcDbEntity
  8
241
100
AcDbVertex
100
AcDb3dPolylineVertex
 10
60.1598
 20
4.54867
 30
0.0
 70
    32
  0
VERTEX
  5
115D
330
110E
100
AcDbEntity
  8
241
100
AcDbVertex
100
AcDb3dPolylineVertex
 10
60.1922
 20
4.55205
 30
0.0
 70
    32
  0
VERTEX
  5
115E
330
110E
100
AcDbEntity
  8
241
100
AcDbVertex
100
AcDb3dPolylineVertex
 10
60.2244
 20
4.55611
 30
0.0
 70
    32
  0
VERTEX
  5
115F
330
110E
100
AcDbEntity
  8
241
100
AcDbVertex
100
AcDb3dPolylineVertex
 10
60.2565
 20
4.56084
 30
0.0
 70
    32
  0
VERTEX
  5
1160
330
110E
100
AcDbEntity
  8
241
100
AcDbVertex
100
AcDb3dPolylineVertex
 10
60.2884
 20
4.56624
 30
0.0
 70
    32
  0
VERTEX
  5
1161
330
110E
100
AcDbEntity
  8
241
100
AcDbVertex
100
AcDb3dPolylineVertex
 10
60.32
 20
4.57231
 30
0.0
 70
    32
  0
VERTEX
  5
1162
330
110E
100
AcDbEntity
  8
241
100
AcDbVertex
100
AcDb3dPolylineVertex
 10
60.3515
 20
4.57903
 30
0.0
 70
    32
  0
VERTEX
  5
1163
330
110E
100
AcDbEntity
  8
241
100
AcDbVertex
100
AcDb3dPolylineVertex
 10
60.3826
 20
4.58642
 30
0.0
 70
    32
  0
VERTEX
  5
1164
330
110E
100
AcDbEntity
  8
241
100
AcDbVertex
100
AcDb3dPolylineVertex
 10
60.4135
 20
4.59446
 30
0.0
 70
    32
  0
VERTEX
  5
1165
330
110E
100
AcDbEntity
  8
241
100
AcDbVertex
100
AcDb3dPolylineVertex
 10
60.4441
 20
4.60315
 30
0.0
 70
    32
  0
VERTEX
  5
1166
330
110E
100
AcDbEntity
  8
241
100
AcDbVertex
100
AcDb3dPolylineVertex
 10
60.4744
 20
4.61248
 30
0.0
 70
    32
  0
VERTEX
  5
1167
330
110E
100
AcDbEntity
  8
241
100
AcDbVertex
100
AcDb3dPolylineVertex
 10
60.5044
 20
4.62245
 30
0.0
 70
    32
  0
VERTEX
  5
1168
330
110E
100
AcDbEntity
  8
241
100
AcDbVertex
100
AcDb3dPolylineVertex
 10
60.534
 20
4.63305
 30
0.0
 70
    32
  0
VERTEX
  5
1169
330
110E
100
AcDbEntity
  8
241
100
AcDbVertex
100
AcDb3dPolylineVertex
 10
60.5632
 20
4.64428
 30
0.0
 70
    32
  0
VERTEX
  5
116A
330
110E
100
AcDbEntity
  8
241
100
AcDbVertex
100
AcDb3dPolylineVertex
 10
60.5921
 20
4.65613
 30
0.0
 70
    32
  0
VERTEX
  5
116B
330
110E
100
AcDbEntity
  8
241
100
AcDbVertex
100
AcDb3dPolylineVertex
 10
60.6206
 20
4.66859
 30
0.0
 70
    32
  0
VERTEX
  5
116C
330
110E
100
AcDbEntity
  8
241
100
AcDbVertex
100
AcDb3dPolylineVertex
 10
60.6486
 20
4.68165
 30
0.0
 70
    32
  0
VERTEX
  5
116D
330
110E
100
AcDbEntity
  8
241
100
AcDbVertex
100
AcDb3dPolylineVertex
 10
60.6762
 20
4.69531
 30
0.0
 70
    32
  0
VERTEX
  5
116E
330
110E
100
AcDbEntity
  8
241
100
AcDbVertex
100
AcDb3dPolylineVertex
 10
60.7034
 20
4.70956
 30
0.0
 70
    32
  0
VERTEX
  5
116F
330
110E
100
AcDbEntity
  8
241
100
AcDbVertex
100
AcDb3dPolylineVertex
 10
60.7301
 20
4.72438
 30
0.0
 70
    32
  0
VERTEX
  5
1170
330
110E
100
AcDbEntity
  8
241
100
AcDbVertex
100
AcDb3dPolylineVertex
 10
60.7563
 20
4.73978
 30
0.0
 70
    32
  0
VERTEX
  5
1171
330
110E
100
AcDbEntity
  8
241
100
AcDbVertex
100
AcDb3dPolylineVertex
 10
60.782
 20
4.75574
 30
0.0
 70
    32
  0
VERTEX
  5
1172
330
110E
100
AcDbEntity
  8
241
100
AcDbVertex
100
AcDb3dPolylineVertex
 10
60.8072
 20
4.77225
 30
0.0
 70
    32
  0
VERTEX
  5
1173
330
110E
100
AcDbEntity
  8
241
100
AcDbVertex
100
AcDb3dPolylineVertex
 10
60.8319
 20
4.7893
 30
0.0
 70
    32
  0
VERTEX
  5
1174
330
110E
100
AcDbEntity
  8
241
100
AcDbVertex
100
AcDb3dPolylineVertex
 10
60.856
 20
4.80689
 30
0.0
 70
    32
  0
VERTEX
  5
1175
330
110E
100
AcDbEntity
  8
241
100
AcDbVertex
100
AcDb3dPolylineVertex
 10
60.8796
 20
4.82499
 30
0.0
 70
    32
  0
VERTEX
  5
1176
330
110E
100
AcDbEntity
  8
241
100
AcDbVertex
100
AcDb3dPolylineVertex
 10
60.9025
 20
4.84361
 30
0.0
 70
    32
  0
VERTEX
  5
1177
330
110E
100
AcDbEntity
  8
241
100
AcDbVertex
100
AcDb3dPolylineVertex
 10
60.9249
 20
4.86272
 30
0.0
 70
    32
  0
VERTEX
  5
1178
330
110E
100
AcDbEntity
  8
241
100
AcDbVertex
100
AcDb3dPolylineVertex
 10
60.9468
 20
4.88232
 30
0.0
 70
    32
  0
VERTEX
  5
1179
330
110E
100
AcDbEntity
  8
241
100
AcDbVertex
100
AcDb3dPolylineVertex
 10
60.9679
 20
4.9024
 30
0.0
 70
    32
  0
VERTEX
  5
117A
330
110E
100
AcDbEntity
  8
241
100
AcDbVertex
100
AcDb3dPolylineVertex
 10
60.9885
 20
4.92294
 30
0.0
 70
    32
  0
VERTEX
  5
117B
330
110E
100
AcDbEntity
  8
241
100
AcDbVertex
100
AcDb3dPolylineVertex
 10
61.0084
 20
4.94393
 30
0.0
 70
    32
  0
VERTEX
  5
117C
330
110E
100
AcDbEntity
  8
241
100
AcDbVertex
100
AcDb3dPolylineVertex
 10
61.0277
 20
4.96536
 30
0.0
 70
    32
  0
VERTEX
  5
117D
330
110E
100
AcDbEntity
  8
241
100
AcDbVertex
100
AcDb3dPolylineVertex
 10
61.0463
 20
4.98722
 30
0.0
 70
    32
  0
VERTEX
  5
117E
330
110E
100
AcDbEntity
  8
241
100
AcDbVertex
100
AcDb3dPolylineVertex
 10
61.0642
 20
5.00948
 30
0.0
 70
    32
  0
VERTEX
  5
117F
330
110E
100
AcDbEntity
  8
241
100
AcDbVertex
100
AcDb3dPolylineVertex
 10
61.0815
 20
5.03215
 30
0.0
 70
    32
  0
VERTEX
  5
1180
330
110E
100
AcDbEntity
  8
241
100
AcDbVertex
100
AcDb3dPolylineVertex
 10
61.0981
 20
5.0552
 30
0.0
 70
    32
  0
VERTEX
  5
1181
330
110E
100
AcDbEntity
  8
241
100
AcDbVertex
100
AcDb3dPolylineVertex
 10
61.1139
 20
5.07862
 30
0.0
 70
    32
  0
VERTEX
  5
1182
330
110E
100
AcDbEntity
  8
241
100
AcDbVertex
100
AcDb3dPolylineVertex
 10
61.129
 20
5.1024
 30
0.0
 70
    32
  0
VERTEX
  5
1183
330
110E
100
AcDbEntity
  8
241
100
AcDbVertex
100
AcDb3dPolylineVertex
 10
61.1435
 20
5.12653
 30
0.0
 70
    32
  0
VERTEX
  5
1184
330
110E
100
AcDbEntity
  8
241
100
AcDbVertex
100
AcDb3dPolylineVertex
 10
61.1571
 20
5.15098
 30
0.0
 70
    32
  0
VERTEX
  5
1185
330
110E
100
AcDbEntity
  8
241
100
AcDbVertex
100
AcDb3dPolylineVertex
 10
61.1701
 20
5.17574
 30
0.0
 70
    32
  0
VERTEX
  5
1186
330
110E
100
AcDbEntity
  8
241
100
AcDbVertex
100
AcDb3dPolylineVertex
 10
61.1823
 20
5.20081
 30
0.0
 70
    32
  0
VERTEX
  5
1187
330
110E
100
AcDbEntity
  8
241
100
AcDbVertex
100
AcDb3dPolylineVertex
 10
61.1937
 20
5.22615
 30
0.0
 70
    32
  0
VERTEX
  5
1188
330
110E
100
AcDbEntity
  8
241
100
AcDbVertex
100
AcDb3dPolylineVertex
 10
61.2044
 20
5.25177
 30
0.0
 70
    32
  0
VERTEX
  5
1189
330
110E
100
AcDbEntity
  8
241
100
AcDbVertex
100
AcDb3dPolylineVertex
 10
61.2143
 20
5.27764
 30
0.0
 70
    32
  0
VERTEX
  5
118A
330
110E
100
AcDbEntity
  8
241
100
AcDbVertex
100
AcDb3dPolylineVertex
 10
61.2234
 20
5.30374
 30
0.0
 70
    32
  0
VERTEX
  5
118B
330
110E
100
AcDbEntity
  8
241
100
AcDbVertex
100
AcDb3dPolylineVertex
 10
61.2318
 20
5.33007
 30
0.0
 70
    32
  0
VERTEX
  5
118C
330
110E
100
AcDbEntity
  8
241
100
AcDbVertex
100
AcDb3dPolylineVertex
 10
61.2393
 20
5.35661
 30
0.0
 70
    32
  0
VERTEX
  5
118D
330
110E
100
AcDbEntity
  8
241
100
AcDbVertex
100
AcDb3dPolylineVertex
 10
61.2461
 20
5.38333
 30
0.0
 70
    32
  0
VERTEX
  5
118E
330
110E
100
AcDbEntity
  8
241
100
AcDbVertex
100
AcDb3dPolylineVertex
 10
61.2521
 20
5.41023
 30
0.0
 70
    32
  0
VERTEX
  5
118F
330
110E
100
AcDbEntity
  8
241
100
AcDbVertex
100
AcDb3dPolylineVertex
 10
61.2573
 20
5.43728
 30
0.0
 70
    32
  0
SEQEND
  5
1190
330
110E
100
AcDbEntity
  8
241
  0
POLYLINE
  5
1191
330
BED
100
AcDbEntity
  8
241
100
AcDb3dPolyline
 66
     1
 10
0.0
 20
0.0
 30
0.0
 70
     8
  0
VERTEX
  5
1192
330
1191
100
AcDbEntity
  8
241
100
AcDbVertex
100
AcDb3dPolylineVertex
 10
61.2573
 20
5.43728
 30
0.0
 70
    32
  0
VERTEX
  5
1193
330
1191
100
AcDbEntity
  8
241
100
AcDbVertex
100
AcDb3dPolylineVertex
 10
61.2605
 20
5.45791
 30
0.0
 70
    32
  0
VERTEX
  5
1194
330
1191
100
AcDbEntity
  8
241
100
AcDbVertex
100
AcDb3dPolylineVertex
 10
61.2629
 20
5.47866
 30
0.0
 70
    32
  0
VERTEX
  5
1195
330
1191
100
AcDbEntity
  8
241
100
AcDbVertex
100
AcDb3dPolylineVertex
 10
61.2645
 20
5.49953
 30
0.0
 70
    32
  0
VERTEX
  5
1196
330
1191
100
AcDbEntity
  8
241
100
AcDbVertex
100
AcDb3dPolylineVertex
 10
61.2654
 20
5.5205
 30
0.0
 70
    32
  0
VERTEX
  5
1197
330
1191
100
AcDbEntity
  8
241
100
AcDbVertex
100
AcDb3dPolylineVertex
 10
61.2654
 20
5.54157
 30
0.0
 70
    32
  0
VERTEX
  5
1198
330
1191
100
AcDbEntity
  8
241
100
AcDbVertex
100
AcDb3dPolylineVertex
 10
61.2646
 20
5.56271
 30
0.0
 70
    32
  0
VERTEX
  5
1199
330
1191
100
AcDbEntity
  8
241
100
AcDbVertex
100
AcDb3dPolylineVertex
 10
61.263
 20
5.58392
 30
0.0
 70
    32
  0
VERTEX
  5
119A
330
1191
100
AcDbEntity
  8
241
100
AcDbVertex
100
AcDb3dPolylineVertex
 10
61.2606
 20
5.60519
 30
0.0
 70
    32
  0
VERTEX
  5
119B
330
1191
100
AcDbEntity
  8
241
100
AcDbVertex
100
AcDb3dPolylineVertex
 10
61.2573
 20
5.62649
 30
0.0
 70
    32
  0
VERTEX
  5
119C
330
1191
100
AcDbEntity
  8
241
100
AcDbVertex
100
AcDb3dPolylineVertex
 10
61.2533
 20
5.64782
 30
0.0
 70
    32
  0
VERTEX
  5
119D
330
1191
100
AcDbEntity
  8
241
100
AcDbVertex
100
AcDb3dPolylineVertex
 10
61.2485
 20
5.66916
 30
0.0
 70
    32
  0
VERTEX
  5
119E
330
1191
100
AcDbEntity
  8
241
100
AcDbVertex
100
AcDb3dPolylineVertex
 10
61.2429
 20
5.69051
 30
0.0
 70
    32
  0
VERTEX
  5
119F
330
1191
100
AcDbEntity
  8
241
100
AcDbVertex
100
AcDb3dPolylineVertex
 10
61.2365
 20
5.71184
 30
0.0
 70
    32
  0
VERTEX
  5
11A0
330
1191
100
AcDbEntity
  8
241
100
AcDbVertex
100
AcDb3dPolylineVertex
 10
61.2293
 20
5.73315
 30
0.0
 70
    32
  0
VERTEX
  5
11A1
330
1191
100
AcDbEntity
  8
241
100
AcDbVertex
100
AcDb3dPolylineVertex
 10
61.2214
 20
5.75442
 30
0.0
 70
    32
  0
VERTEX
  5
11A2
330
1191
100
AcDbEntity
  8
241
100
AcDbVertex
100
AcDb3dPolylineVertex
 10
61.2126
 20
5.77565
 30
0.0
 70
    32
  0
VERTEX
  5
11A3
330
1191
100
AcDbEntity
  8
241
100
AcDbVertex
100
AcDb3dPolylineVertex
 10
61.2031
 20
5.79681
 30
0.0
 70
    32
  0
VERTEX
  5
11A4
330
1191
100
AcDbEntity
  8
241
100
AcDbVertex
100
AcDb3dPolylineVertex
 10
61.1928
 20
5.81789
 30
0.0
 70
    32
  0
VERTEX
  5
11A5
330
1191
100
AcDbEntity
  8
241
100
AcDbVertex
100
AcDb3dPolylineVertex
 10
61.1817
 20
5.83889
 30
0.0
 70
    32
  0
VERTEX
  5
11A6
330
1191
100
AcDbEntity
  8
241
100
AcDbVertex
100
AcDb3dPolylineVertex
 10
61.1699
 20
5.85979
 30
0.0
 70
    32
  0
VERTEX
  5
11A7
330
1191
100
AcDbEntity
  8
241
100
AcDbVertex
100
AcDb3dPolylineVertex
 10
61.1574
 20
5.88057
 30
0.0
 70
    32
  0
VERTEX
  5
11A8
330
1191
100
AcDbEntity
  8
241
100
AcDbVertex
100
AcDb3dPolylineVertex
 10
61.1441
 20
5.90123
 30
0.0
 70
    32
  0
VERTEX
  5
11A9
330
1191
100
AcDbEntity
  8
241
100
AcDbVertex
100
AcDb3dPolylineVertex
 10
61.13
 20
5.92174
 30
0.0
 70
    32
  0
VERTEX
  5
11AA
330
1191
100
AcDbEntity
  8
241
100
AcDbVertex
100
AcDb3dPolylineVertex
 10
61.1153
 20
5.94211
 30
0.0
 70
    32
  0
VERTEX
  5
11AB
330
1191
100
AcDbEntity
  8
241
100
AcDbVertex
100
AcDb3dPolylineVertex
 10
61.0998
 20
5.96232
 30
0.0
 70
    32
  0
VERTEX
  5
11AC
330
1191
100
AcDbEntity
  8
241
100
AcDbVertex
100
AcDb3dPolylineVertex
 10
61.0836
 20
5.98235
 30
0.0
 70
    32
  0
VERTEX
  5
11AD
330
1191
100
AcDbEntity
  8
241
100
AcDbVertex
100
AcDb3dPolylineVertex
 10
61.0668
 20
6.00219
 30
0.0
 70
    32
  0
VERTEX
  5
11AE
330
1191
100
AcDbEntity
  8
241
100
AcDbVertex
100
AcDb3dPolylineVertex
 10
61.0492
 20
6.02184
 30
0.0
 70
    32
  0
VERTEX
  5
11AF
330
1191
100
AcDbEntity
  8
241
100
AcDbVertex
100
AcDb3dPolylineVertex
 10
61.031
 20
6.04127
 30
0.0
 70
    32
  0
VERTEX
  5
11B0
330
1191
100
AcDbEntity
  8
241
100
AcDbVertex
100
AcDb3dPolylineVertex
 10
61.0121
 20
6.06048
 30
0.0
 70
    32
  0
VERTEX
  5
11B1
330
1191
100
AcDbEntity
  8
241
100
AcDbVertex
100
AcDb3dPolylineVertex
 10
60.9925
 20
6.07946
 30
0.0
 70
    32
  0
VERTEX
  5
11B2
330
1191
100
AcDbEntity
  8
241
100
AcDbVertex
100
AcDb3dPolylineVertex
 10
60.9723
 20
6.09819
 30
0.0
 70
    32
  0
VERTEX
  5
11B3
330
1191
100
AcDbEntity
  8
241
100
AcDbVertex
100
AcDb3dPolylineVertex
 10
60.9515
 20
6.11666
 30
0.0
 70
    32
  0
VERTEX
  5
11B4
330
1191
100
AcDbEntity
  8
241
100
AcDbVertex
100
AcDb3dPolylineVertex
 10
60.9301
 20
6.13487
 30
0.0
 70
    32
  0
VERTEX
  5
11B5
330
1191
100
AcDbEntity
  8
241
100
AcDbVertex
100
AcDb3dPolylineVertex
 10
60.908
 20
6.1528
 30
0.0
 70
    32
  0
VERTEX
  5
11B6
330
1191
100
AcDbEntity
  8
241
100
AcDbVertex
100
AcDb3dPolylineVertex
 10
60.8854
 20
6.17043
 30
0.0
 70
    32
  0
VERTEX
  5
11B7
330
1191
100
AcDbEntity
  8
241
100
AcDbVertex
100
AcDb3dPolylineVertex
 10
60.8622
 20
6.18777
 30
0.0
 70
    32
  0
VERTEX
  5
11B8
330
1191
100
AcDbEntity
  8
241
100
AcDbVertex
100
AcDb3dPolylineVertex
 10
60.8384
 20
6.2048
 30
0.0
 70
    32
  0
VERTEX
  5
11B9
330
1191
100
AcDbEntity
  8
241
100
AcDbVertex
100
AcDb3dPolylineVertex
 10
60.8141
 20
6.2215
 30
0.0
 70
    32
  0
VERTEX
  5
11BA
330
1191
100
AcDbEntity
  8
241
100
AcDbVertex
100
AcDb3dPolylineVertex
 10
60.7892
 20
6.23787
 30
0.0
 70
    32
  0
VERTEX
  5
11BB
330
1191
100
AcDbEntity
  8
241
100
AcDbVertex
100
AcDb3dPolylineVertex
 10
60.7638
 20
6.25391
 30
0.0
 70
    32
  0
VERTEX
  5
11BC
330
1191
100
AcDbEntity
  8
241
100
AcDbVertex
100
AcDb3dPolylineVertex
 10
60.738
 20
6.26959
 30
0.0
 70
    32
  0
VERTEX
  5
11BD
330
1191
100
AcDbEntity
  8
241
100
AcDbVertex
100
AcDb3dPolylineVertex
 10
60.7116
 20
6.28491
 30
0.0
 70
    32
  0
VERTEX
  5
11BE
330
1191
100
AcDbEntity
  8
241
100
AcDbVertex
100
AcDb3dPolylineVertex
 10
60.6848
 20
6.29986
 30
0.0
 70
    32
  0
VERTEX
  5
11BF
330
1191
100
AcDbEntity
  8
241
100
AcDbVertex
100
AcDb3dPolylineVertex
 10
60.6575
 20
6.31444
 30
0.0
 70
    32
  0
VERTEX
  5
11C0
330
1191
100
AcDbEntity
  8
241
100
AcDbVertex
100
AcDb3dPolylineVertex
 10
60.6297
 20
6.32862
 30
0.0
 70
    32
  0
VERTEX
  5
11C1
330
1191
100
AcDbEntity
  8
241
100
AcDbVertex
100
AcDb3dPolylineVertex
 10
60.6016
 20
6.34241
 30
0.0
 70
    32
  0
VERTEX
  5
11C2
330
1191
100
AcDbEntity
  8
241
100
AcDbVertex
100
AcDb3dPolylineVertex
 10
60.573
 20
6.3558
 30
0.0
 70
    32
  0
VERTEX
  5
11C3
330
1191
100
AcDbEntity
  8
241
100
AcDbVertex
100
AcDb3dPolylineVertex
 10
60.5441
 20
6.36878
 30
0.0
 70
    32
  0
VERTEX
  5
11C4
330
1191
100
AcDbEntity
  8
241
100
AcDbVertex
100
AcDb3dPolylineVertex
 10
60.5147
 20
6.38133
 30
0.0
 70
    32
  0
VERTEX
  5
11C5
330
1191
100
AcDbEntity
  8
241
100
AcDbVertex
100
AcDb3dPolylineVertex
 10
60.4851
 20
6.39346
 30
0.0
 70
    32
  0
VERTEX
  5
11C6
330
1191
100
AcDbEntity
  8
241
100
AcDbVertex
100
AcDb3dPolylineVertex
 10
60.4551
 20
6.40515
 30
0.0
 70
    32
  0
VERTEX
  5
11C7
330
1191
100
AcDbEntity
  8
241
100
AcDbVertex
100
AcDb3dPolylineVertex
 10
60.4247
 20
6.4164
 30
0.0
 70
    32
  0
VERTEX
  5
11C8
330
1191
100
AcDbEntity
  8
241
100
AcDbVertex
100
AcDb3dPolylineVertex
 10
60.3941
 20
6.42721
 30
0.0
 70
    32
  0
VERTEX
  5
11C9
330
1191
100
AcDbEntity
  8
241
100
AcDbVertex
100
AcDb3dPolylineVertex
 10
60.3632
 20
6.43755
 30
0.0
 70
    32
  0
VERTEX
  5
11CA
330
1191
100
AcDbEntity
  8
241
100
AcDbVertex
100
AcDb3dPolylineVertex
 10
60.332
 20
6.44744
 30
0.0
 70
    32
  0
VERTEX
  5
11CB
330
1191
100
AcDbEntity
  8
241
100
AcDbVertex
100
AcDb3dPolylineVertex
 10
60.3006
 20
6.45686
 30
0.0
 70
    32
  0
VERTEX
  5
11CC
330
1191
100
AcDbEntity
  8
241
100
AcDbVertex
100
AcDb3dPolylineVertex
 10
60.269
 20
6.46581
 30
0.0
 70
    32
  0
VERTEX
  5
11CD
330
1191
100
AcDbEntity
  8
241
100
AcDbVertex
100
AcDb3dPolylineVertex
 10
60.2371
 20
6.47427
 30
0.0
 70
    32
  0
VERTEX
  5
11CE
330
1191
100
AcDbEntity
  8
241
100
AcDbVertex
100
AcDb3dPolylineVertex
 10
60.2051
 20
6.48226
 30
0.0
 70
    32
  0
VERTEX
  5
11CF
330
1191
100
AcDbEntity
  8
241
100
AcDbVertex
100
AcDb3dPolylineVertex
 10
60.1729
 20
6.48975
 30
0.0
 70
    32
  0
VERTEX
  5
11D0
330
1191
100
AcDbEntity
  8
241
100
AcDbVertex
100
AcDb3dPolylineVertex
 10
60.1405
 20
6.49676
 30
0.0
 70
    32
  0
VERTEX
  5
11D1
330
1191
100
AcDbEntity
  8
241
100
AcDbVertex
100
AcDb3dPolylineVertex
 10
60.1081
 20
6.50326
 30
0.0
 70
    32
  0
VERTEX
  5
11D2
330
1191
100
AcDbEntity
  8
241
100
AcDbVertex
100
AcDb3dPolylineVertex
 10
60.0755
 20
6.50927
 30
0.0
 70
    32
  0
VERTEX
  5
11D3
330
1191
100
AcDbEntity
  8
241
100
AcDbVertex
100
AcDb3dPolylineVertex
 10
60.0428
 20
6.51477
 30
0.0
 70
    32
  0
VERTEX
  5
11D4
330
1191
100
AcDbEntity
  8
241
100
AcDbVertex
100
AcDb3dPolylineVertex
 10
60.0101
 20
6.51976
 30
0.0
 70
    32
  0
VERTEX
  5
11D5
330
1191
100
AcDbEntity
  8
241
100
AcDbVertex
100
AcDb3dPolylineVertex
 10
59.9773
 20
6.52424
 30
0.0
 70
    32
  0
VERTEX
  5
11D6
330
1191
100
AcDbEntity
  8
241
100
AcDbVertex
100
AcDb3dPolylineVertex
 10
59.9445
 20
6.52821
 30
0.0
 70
    32
  0
VERTEX
  5
11D7
330
1191
100
AcDbEntity
  8
241
100
AcDbVertex
100
AcDb3dPolylineVertex
 10
59.9116
 20
6.53167
 30
0.0
 70
    32
  0
VERTEX
  5
11D8
330
1191
100
AcDbEntity
  8
241
100
AcDbVertex
100
AcDb3dPolylineVertex
 10
59.8788
 20
6.5346
 30
0.0
 70
    32
  0
VERTEX
  5
11D9
330
1191
100
AcDbEntity
  8
241
100
AcDbVertex
100
AcDb3dPolylineVertex
 10
59.846
 20
6.53701
 30
0.0
 70
    32
  0
VERTEX
  5
11DA
330
1191
100
AcDbEntity
  8
241
100
AcDbVertex
100
AcDb3dPolylineVertex
 10
59.8133
 20
6.53891
 30
0.0
 70
    32
  0
VERTEX
  5
11DB
330
1191
100
AcDbEntity
  8
241
100
AcDbVertex
100
AcDb3dPolylineVertex
 10
59.7806
 20
6.54028
 30
0.0
 70
    32
  0
VERTEX
  5
11DC
330
1191
100
AcDbEntity
  8
241
100
AcDbVertex
100
AcDb3dPolylineVertex
 10
59.748
 20
6.54113
 30
0.0
 70
    32
  0
VERTEX
  5
11DD
330
1191
100
AcDbEntity
  8
241
100
AcDbVertex
100
AcDb3dPolylineVertex
 10
59.7155
 20
6.54145
 30
0.0
 70
    32
  0
VERTEX
  5
11DE
330
1191
100
AcDbEntity
  8
241
100
AcDbVertex
100
AcDb3dPolylineVertex
 10
59.6832
 20
6.54125
 30
0.0
 70
    32
  0
VERTEX
  5
11DF
330
1191
100
AcDbEntity
  8
241
100
AcDbVertex
100
AcDb3dPolylineVertex
 10
59.651
 20
6.54053
 30
0.0
 70
    32
  0
VERTEX
  5
11E0
330
1191
100
AcDbEntity
  8
241
100
AcDbVertex
100
AcDb3dPolylineVertex
 10
59.619
 20
6.53928
 30
0.0
 70
    32
  0
VERTEX
  5
11E1
330
1191
100
AcDbEntity
  8
241
100
AcDbVertex
100
AcDb3dPolylineVertex
 10
59.5871
 20
6.53751
 30
0.0
 70
    32
  0
VERTEX
  5
11E2
330
1191
100
AcDbEntity
  8
241
100
AcDbVertex
100
AcDb3dPolylineVertex
 10
59.5555
 20
6.53522
 30
0.0
 70
    32
  0
VERTEX
  5
11E3
330
1191
100
AcDbEntity
  8
241
100
AcDbVertex
100
AcDb3dPolylineVertex
 10
59.524
 20
6.53241
 30
0.0
 70
    32
  0
VERTEX
  5
11E4
330
1191
100
AcDbEntity
  8
241
100
AcDbVertex
100
AcDb3dPolylineVertex
 10
59.4929
 20
6.52908
 30
0.0
 70
    32
  0
VERTEX
  5
11E5
330
1191
100
AcDbEntity
  8
241
100
AcDbVertex
100
AcDb3dPolylineVertex
 10
59.462
 20
6.52524
 30
0.0
 70
    32
  0
VERTEX
  5
11E6
330
1191
100
AcDbEntity
  8
241
100
AcDbVertex
100
AcDb3dPolylineVertex
 10
59.4313
 20
6.52088
 30
0.0
 70
    32
  0
VERTEX
  5
11E7
330
1191
100
AcDbEntity
  8
241
100
AcDbVertex
100
AcDb3dPolylineVertex
 10
59.401
 20
6.51601
 30
0.0
 70
    32
  0
VERTEX
  5
11E8
330
1191
100
AcDbEntity
  8
241
100
AcDbVertex
100
AcDb3dPolylineVertex
 10
59.371
 20
6.51063
 30
0.0
 70
    32
  0
VERTEX
  5
11E9
330
1191
100
AcDbEntity
  8
241
100
AcDbVertex
100
AcDb3dPolylineVertex
 10
59.3413
 20
6.50474
 30
0.0
 70
    32
  0
VERTEX
  5
11EA
330
1191
100
AcDbEntity
  8
241
100
AcDbVertex
100
AcDb3dPolylineVertex
 10
59.312
 20
6.49835
 30
0.0
 70
    32
  0
VERTEX
  5
11EB
330
1191
100
AcDbEntity
  8
241
100
AcDbVertex
100
AcDb3dPolylineVertex
 10
59.283
 20
6.49147
 30
0.0
 70
    32
  0
VERTEX
  5
11EC
330
1191
100
AcDbEntity
  8
241
100
AcDbVertex
100
AcDb3dPolylineVertex
 10
59.2544
 20
6.48409
 30
0.0
 70
    32
  0
VERTEX
  5
11ED
330
1191
100
AcDbEntity
  8
241
100
AcDbVertex
100
AcDb3dPolylineVertex
 10
59.2263
 20
6.47622
 30
0.0
 70
    32
  0
VERTEX
  5
11EE
330
1191
100
AcDbEntity
  8
241
100
AcDbVertex
100
AcDb3dPolylineVertex
 10
59.1985
 20
6.46787
 30
0.0
 70
    32
  0
VERTEX
  5
11EF
330
1191
100
AcDbEntity
  8
241
100
AcDbVertex
100
AcDb3dPolylineVertex
 10
59.1712
 20
6.45904
 30
0.0
 70
    32
  0
VERTEX
  5
11F0
330
1191
100
AcDbEntity
  8
241
100
AcDbVertex
100
AcDb3dPolylineVertex
 10
59.1444
 20
6.44973
 30
0.0
 70
    32
  0
VERTEX
  5
11F1
330
1191
100
AcDbEntity
  8
241
100
AcDbVertex
100
AcDb3dPolylineVertex
 10
59.118
 20
6.43995
 30
0.0
 70
    32
  0
VERTEX
  5
11F2
330
1191
100
AcDbEntity
  8
241
100
AcDbVertex
100
AcDb3dPolylineVertex
 10
59.0921
 20
6.42972
 30
0.0
 70
    32
  0
VERTEX
  5
11F3
330
1191
100
AcDbEntity
  8
241
100
AcDbVertex
100
AcDb3dPolylineVertex
 10
59.0667
 20
6.41902
 30
0.0
 70
    32
  0
VERTEX
  5
11F4
330
1191
100
AcDbEntity
  8
241
100
AcDbVertex
100
AcDb3dPolylineVertex
 10
59.0419
 20
6.40788
 30
0.0
 70
    32
  0
VERTEX
  5
11F5
330
1191
100
AcDbEntity
  8
241
100
AcDbVertex
100
AcDb3dPolylineVertex
 10
59.0176
 20
6.39629
 30
0.0
 70
    32
  0
VERTEX
  5
11F6
330
1191
100
AcDbEntity
  8
241
100
AcDbVertex
100
AcDb3dPolylineVertex
 10
58.9938
 20
6.38426
 30
0.0
 70
    32
  0
VERTEX
  5
11F7
330
1191
100
AcDbEntity
  8
241
100
AcDbVertex
100
AcDb3dPolylineVertex
 10
58.9706
 20
6.37181
 30
0.0
 70
    32
  0
VERTEX
  5
11F8
330
1191
100
AcDbEntity
  8
241
100
AcDbVertex
100
AcDb3dPolylineVertex
 10
58.9479
 20
6.35893
 30
0.0
 70
    32
  0
VERTEX
  5
11F9
330
1191
100
AcDbEntity
  8
241
100
AcDbVertex
100
AcDb3dPolylineVertex
 10
58.9259
 20
6.34564
 30
0.0
 70
    32
  0
VERTEX
  5
11FA
330
1191
100
AcDbEntity
  8
241
100
AcDbVertex
100
AcDb3dPolylineVertex
 10
58.9044
 20
6.33195
 30
0.0
 70
    32
  0
VERTEX
  5
11FB
330
1191
100
AcDbEntity
  8
241
100
AcDbVertex
100
AcDb3dPolylineVertex
 10
58.8836
 20
6.31785
 30
0.0
 70
    32
  0
VERTEX
  5
11FC
330
1191
100
AcDbEntity
  8
241
100
AcDbVertex
100
AcDb3dPolylineVertex
 10
58.8634
 20
6.30337
 30
0.0
 70
    32
  0
VERTEX
  5
11FD
330
1191
100
AcDbEntity
  8
241
100
AcDbVertex
100
AcDb3dPolylineVertex
 10
58.8438
 20
6.28851
 30
0.0
 70
    32
  0
VERTEX
  5
11FE
330
1191
100
AcDbEntity
  8
241
100
AcDbVertex
100
AcDb3dPolylineVertex
 10
58.8249
 20
6.27327
 30
0.0
 70
    32
  0
VERTEX
  5
11FF
330
1191
100
AcDbEntity
  8
241
100
AcDbVertex
100
AcDb3dPolylineVertex
 10
58.8067
 20
6.25768
 30
0.0
 70
    32
  0
VERTEX
  5
1200
330
1191
100
AcDbEntity
  8
241
100
AcDbVertex
100
AcDb3dPolylineVertex
 10
58.7891
 20
6.24173
 30
0.0
 70
    32
  0
VERTEX
  5
1201
330
1191
100
AcDbEntity
  8
241
100
AcDbVertex
100
AcDb3dPolylineVertex
 10
58.7722
 20
6.22543
 30
0.0
 70
    32
  0
VERTEX
  5
1202
330
1191
100
AcDbEntity
  8
241
100
AcDbVertex
100
AcDb3dPolylineVertex
 10
58.756
 20
6.20881
 30
0.0
 70
    32
  0
VERTEX
  5
1203
330
1191
100
AcDbEntity
  8
241
100
AcDbVertex
100
AcDb3dPolylineVertex
 10
58.7405
 20
6.19186
 30
0.0
 70
    32
  0
VERTEX
  5
1204
330
1191
100
AcDbEntity
  8
241
100
AcDbVertex
100
AcDb3dPolylineVertex
 10
58.7258
 20
6.17459
 30
0.0
 70
    32
  0
VERTEX
  5
1205
330
1191
100
AcDbEntity
  8
241
100
AcDbVertex
100
AcDb3dPolylineVertex
 10
58.7117
 20
6.15703
 30
0.0
 70
    32
  0
VERTEX
  5
1206
330
1191
100
AcDbEntity
  8
241
100
AcDbVertex
100
AcDb3dPolylineVertex
 10
58.6984
 20
6.13917
 30
0.0
 70
    32
  0
VERTEX
  5
1207
330
1191
100
AcDbEntity
  8
241
100
AcDbVertex
100
AcDb3dPolylineVertex
 10
58.6859
 20
6.12103
 30
0.0
 70
    32
  0
VERTEX
  5
1208
330
1191
100
AcDbEntity
  8
241
100
AcDbVertex
100
AcDb3dPolylineVertex
 10
58.674
 20
6.10262
 30
0.0
 70
    32
  0
VERTEX
  5
1209
330
1191
100
AcDbEntity
  8
241
100
AcDbVertex
100
AcDb3dPolylineVertex
 10
58.663
 20
6.08395
 30
0.0
 70
    32
  0
VERTEX
  5
120A
330
1191
100
AcDbEntity
  8
241
100
AcDbVertex
100
AcDb3dPolylineVertex
 10
58.6527
 20
6.06503
 30
0.0
 70
    32
  0
VERTEX
  5
120B
330
1191
100
AcDbEntity
  8
241
100
AcDbVertex
100
AcDb3dPolylineVertex
 10
58.6431
 20
6.04587
 30
0.0
 70
    32
  0
VERTEX
  5
120C
330
1191
100
AcDbEntity
  8
241
100
AcDbVertex
100
AcDb3dPolylineVertex
 10
58.6344
 20
6.02649
 30
0.0
 70
    32
  0
VERTEX
  5
120D
330
1191
100
AcDbEntity
  8
241
100
AcDbVertex
100
AcDb3dPolylineVertex
 10
58.6264
 20
6.00689
 30
0.0
 70
    32
  0
VERTEX
  5
120E
330
1191
100
AcDbEntity
  8
241
100
AcDbVertex
100
AcDb3dPolylineVertex
 10
58.6192
 20
5.9871
 30
0.0
 70
    32
  0
VERTEX
  5
120F
330
1191
100
AcDbEntity
  8
241
100
AcDbVertex
100
AcDb3dPolylineVertex
 10
58.6128
 20
5.96711
 30
0.0
 70
    32
  0
VERTEX
  5
1210
330
1191
100
AcDbEntity
  8
241
100
AcDbVertex
100
AcDb3dPolylineVertex
 10
58.6072
 20
5.94695
 30
0.0
 70
    32
  0
VERTEX
  5
1211
330
1191
100
AcDbEntity
  8
241
100
AcDbVertex
100
AcDb3dPolylineVertex
 10
58.6023
 20
5.92661
 30
0.0
 70
    32
  0
VERTEX
  5
1212
330
1191
100
AcDbEntity
  8
241
100
AcDbVertex
100
AcDb3dPolylineVertex
 10
58.5983
 20
5.90613
 30
0.0
 70
    32
  0
SEQEND
  5
1213
330
1191
100
AcDbEntity
  8
241
  0
LINE
  5
1214
330
BED
100
AcDbEntity
  8
240
100
AcDbLine
 10
64.25
 20
0.829351
 30
0.0
 11
64.19615249
 21
0.83884577
 31
0.0
  0
LINE
  5
1215
330
BED
100
AcDbEntity
  8
246
100
AcDbLine
 10
65.0
 20
8.0
 30
0.0
 11
57.0
 21
8.0
 31
0.0
1001
GRPNAME
1000
PASTMD03
  0
ENDBLK
  5
BEF
330
BED
100
AcDbEntity
  8
0
100
AcDbBlockEnd
  0
ENDSEC
  0
SECTION
  2
ENTITIES
  0
INSERT
  5
6E6
330
1A
100
AcDbEntity
  8
245
100
AcDbBlockReference
  2
矢印なし
 10
175.62382697
 20
90.55123572
 30
0.0
  0
DIMENSION
  5
96B
330
1A
100
AcDbEntity
  8
250
  6
CONTINUOUS
100
AcDbDimension
  2
*D3
 10
77.0
 20
8.0
 30
0.0
 11
74.6
 21
0.0
 31
0.0
 70
    32
  1
{\H2.8;\U+2205}<>
  3
BIGT
100
AcDbAlignedDimension
 13
65.0
 23
-8.0
 33
0.0
 14
65.0
 24
8.0
 34
0.0
 50
90.0
100
AcDbRotatedDimension
  0
DIMENSION
  5
A49
330
1A
100
AcDbEntity
  8
250
  6
CONTINUOUS
100
AcDbDimension
  2
*D2
 10
65.0
 20
21.0
 30
0.0
 11
61.0
 21
23.4
 31
0.0
 70
    32
  3
BIGT
100
AcDbAlignedDimension
 13
57.0
 23
8.0
 33
0.0
 14
65.0
 24
8.0
 34
0.0
100
AcDbRotatedDimension
  0
TEXT
  5
B57
330
1A
100
AcDbEntity
  8
241
100
AcDbText
 10
-48.4
 20
49.0
 30
0.0
 40
5.0
  1
BBT30-FCR16082-65
  7
YOKO
 11
-48.4
 21
49.0
 31
0.0
100
AcDbText
 73
     1
  0
DIMENSION
  5
B9A
330
1A
100
AcDbEntity
  8
250
  6
CONTINUOUS
100
AcDbDimension
  2
*D4
 10
65.0
 20
28.0
 30
0.0
 11
51.0
 21
30.4
 31
0.0
 70
    32
  3
BIGT
100
AcDbAlignedDimension
 13
37.0
 23
7.57702937
 33
0.0
 14
65.0
 24
8.0
 34
0.0
100
AcDbRotatedDimension
  0
DIMENSION
  5
BA9
330
1A
100
AcDbEntity
  8
250
  6
CONTINUOUS
100
AcDbDimension
  2
*D5
 10
65.0
 20
35.0
 30
0.0
 11
32.5
 21
37.4
 31
0.0
 70
    32
  3
BIGT
100
AcDbAlignedDimension
 13
0.0
 23
15.875
 33
0.0
 14
65.0
 24
8.0
 34
0.0
100
AcDbRotatedDimension
  0
MTEXT
  5
1055
330
1A
100
AcDbEntity
  8
251
  6
CONTINUOUS
100
AcDbMText
 10
-42.44207074
 20
-20.23884234
 30
0.0
 40
2.8
 41
0.0
 71
     7
 72
     1
  1
BBT30
  7
YOKO
1001
ITEMNAME
1000
LNSP3
1001
ACAD
1000
MTEXTBEGIN
1070
    73
1070
     1
1070
    44
1040
1.0
1070
    74
1070
     0
1000
MTEXTEND
1000
MTEXTBEGIN
1070
    73
1070
     1
1070
    44
1040
1.0
1070
    74
1070
     0
1000
MTEXTEND
1000
MTEXTBEGIN
1070
    73
1070
     1
1070
    44
1040
1.0
1070
    74
1070
     0
1000
MTEXTEND
1000
MTEXTBEGIN
1070
    73
1070
     1
1070
    44
1040
1.0
1070
    74
1070
     0
1000
MTEXTEND
  0
LEADER
  5
1056
330
1A
100
AcDbEntity
  8
250
  6
CONTINUOUS
100
AcDbLeader
  3
BIGT
 76
     2
 10
-22.51609141
 20
-12.5913258
 30
0.0
 10
-27.50873741
 20
-21.23884234
 30
0.0
1001
ACAD
1000
DSTYLE
1002
{
1070
     6
1000
OPEN
1070
   343
1005
594
1002
}
  0
LINE
  5
1057
330
1A
100
AcDbEntity
  8
250
  6
CONTINUOUS
100
AcDbLine
 10
-27.50873741
 20
-21.23884234
 30
0.0
 11
-45.24207074
 21
-21.23884234
 31
0.0
1001
ITEMNAME
1000
LNSP2
  0
INSERT
  5
1216
330
1A
100
AcDbEntity
  8
245
100
AcDbBlockReference
  2
1
 10
0.0
 20
0.0
 30
0.0
  0
VIEWPORT
  5
22
330
17
100
AcDbEntity
 67
     1
  8
0
100
AcDbViewport
 10
261.51769912
 20
148.5
 30
0.0
 40
523.03539823
 41
297.0
 68
     1
 69
     1
1001
ACAD
1000
MVIEW
1002
{
1070
    16
1010
0.0
1020
0.0
1030
0.0
1010
0.0
1020
0.0
1030
1.0
1040
0.0
1040
297.0
1040
261.51769912
1040
148.5
1040
50.0
1040
0.0
1040
0.0
1070
     0
1070
   100
1070
     1
1070
     1
1070
     0
1070
     0
1070
     0
1070
     0
1040
0.0
1040
0.0
1040
0.0
1040
1.0
1040
1.0
1040
10.0
1040
10.0
1070
     0
1002
{
1002
}
1002
}
  0
ENDSEC
  0
SECTION
  2
OBJECTS
  0
DICTIONARY
  5
C
330
0
100
AcDbDictionary
  3
ACAD_GROUP
350
D
  3
ACAD_LAYOUT
350
565
  3
ACAD_MLINESTYLE
350
E
  3
ACAD_PLOTSETTINGS
350
566
  3
ACAD_PLOTSTYLENAME
350
563
  3
ACDBHEADERROUNDTRIPXREC
350
1248
  3
GRADE_DWG
350
540
  0
DICTIONARY
  5
E27
330
1A
100
AcDbDictionary
280
     1
  3
ACAD_LAYOUTSELFREF
360
126A
  0
DICTIONARY
  5
E25
330
17
100
AcDbDictionary
280
     1
  3
ACAD_LAYOUTSELFREF
360
1269
  0
DICTIONARY
  5
D
102
{ACAD_REACTORS
330
C
102
}
330
C
100
AcDbDictionary
  3
*A1
350
6C7
  3
*A2
350
6C8
  3
*A3
350
6D4
  3
*A4
350
6D5
  3
DREC-1
350
5FC
  3
DREC-2
350
654
  3
DREC-3
350
673
  3
LNSP-1
350
BC5
  0
DICTIONARY
  5
565
102
{ACAD_REACTORS
330
C
102
}
330
C
100
AcDbDictionary
  0
DICTIONARY
  5
E
102
{ACAD_REACTORS
330
C
102
}
330
C
100
AcDbDictionary
  3
STANDARD
350
13
  0
DICTIONARY
  5
566
102
{ACAD_REACTORS
330
C
102
}
330
C
100
AcDbDictionary
  3
A3_0_5倍_
350
758
  3
A3_1倍_
350
757
  3
A3_1倍__2000_
350
707
  3
A3_2倍_
350
759
  3
A4_0_5倍_
350
755
  3
A4_1倍_
350
754
  3
A4_1倍__2000_
350
708
  3
A4_2倍_
350
756
  0
ACDBDICTIONARYWDFLT
  5
563
102
{ACAD_REACTORS
330
C
102
}
330
C
100
AcDbDictionary
281
     1
  3
Normal
350
564
100
AcDbDictionaryWithDefault
340
564
  0
DICTIONARY
  5
1248
102
{ACAD_REACTORS
330
C
102
}
330
C
100
AcDbDictionary
  3
CEPSNTYPE
350
1252
  3
DIMSTYLEDATA
350
1256
  3
FINGERPRINTGUID
350
1253
  3
HYPERLINKBASE
350
124B
  3
INSUNITS
350
1251
  3
LAYOUTDICT
350
124D
  3
LWETCUNION
350
1250
  3
PLOTSETDICT
350
124E
  3
PLOTSTYLNAMDICT
350
124F
  3
PSVPSCALE
350
1255
  3
PUCSBASE
350
1259
  3
PUCSORGBACK
350
125F
  3
PUCSORGBOTTOM
350
125B
  3
PUCSORGFRONT
350
125E
  3
PUCSORGLEFT
350
125C
  3
PUCSORGRIGHT
350
125D
  3
PUCSORGTOP
350
125A
  3
PUCSORTHOREF
350
1257
  3
PUCSORTHOVIEW
350
1258
  3
STYLESHEET
350
124C
  3
TSTACKALIGN
350
1249
  3
TSTACKSIZE
350
124A
  3
UCSBASE
350
1262
  3
UCSORGBACK
350
1268
  3
UCSORGBOTTOM
350
1264
  3
UCSORGFRONT
350
1267
  3
UCSORGLEFT
350
1265
  3
UCSORGRIGHT
350
1266
  3
UCSORGTOP
350
1263
  3
UCSORTHOREF
350
1260
  3
UCSORTHOVIEW
350
1261
  3
VERSIONGUID
350
1254
  0
DICTIONARY
  5
540
102
{ACAD_REACTORS
330
C
102
}
330
C
100
AcDbDictionary
  3
VERSION
350
560
  0
XRECORD
  5
126A
102
{ACAD_REACTORS
330
E27
102
}
330
E27
100
AcDbXrecord
340
1A
  0
XRECORD
  5
1269
102
{ACAD_REACTORS
330
E25
102
}
330
E25
100
AcDbXrecord
340
17
  0
GROUP
  5
6C7
102
{ACAD_REACTORS
330
D
102
}
330
D
100
AcDbGroup
300

 70
     0
 71
     1
1001
GRPNAME
1000
DMA00
  0
GROUP
  5
6C8
102
{ACAD_REACTORS
330
D
102
}
330
D
100
AcDbGroup
300

 70
     0
 71
     1
1001
GRPNAME
1000
DMA00
  0
GROUP
  5
6D4
102
{ACAD_REACTORS
330
D
102
}
330
D
100
AcDbGroup
300

 70
     0
 71
     1
1001
GRPNAME
1000
DMA00
  0
GROUP
  5
6D5
102
{ACAD_REACTORS
330
D
102
}
330
D
100
AcDbGroup
300

 70
     0
 71
     1
1001
GRPNAME
1000
DMA00
  0
GROUP
  5
5FC
102
{ACAD_REACTORS
330
D
102
}
330
D
100
AcDbGroup
300

 70
     0
 71
     1
1001
GRPNAME
1000
DREC-
1001
GPARA
1000
xsiz
1000
44.182
1000
ysiz
1000
40.677
1000
angl
1000
0
1000
ctyp
1000
0
1000
csiz
1000
5
1000
lfnt
1000
cont
1000
hcnt
1000
hoff
1000
vcnt
1000
voff
1000
opnt
1000
4
1000
dxpt
1000
0
1000
dypt
1000
0
  0
GROUP
  5
654
102
{ACAD_REACTORS
330
D
102
}
330
D
100
AcDbGroup
300

 70
     0
 71
     1
1001
GRPNAME
1000
DREC-
1001
GPARA
1000
xsiz
1000
54.592
1000
ysiz
1000
53.036
1000
angl
1000
0
1000
ctyp
1000
0
1000
csiz
1000
5
1000
lfnt
1000
cont
1000
hcnt
1000
hoff
1000
vcnt
1000
voff
1000
opnt
1000
4
1000
dxpt
1000
0
1000
dypt
1000
0
  0
GROUP
  5
673
102
{ACAD_REACTORS
330
D
102
}
330
D
100
AcDbGroup
300

 70
     0
 71
     1
1001
GRPNAME
1000
DREC-
1001
GPARA
1000
xsiz
1000
30.363
1000
ysiz
1000
36.175
1000
angl
1000
0
1000
ctyp
1000
0
1000
csiz
1000
5
1000
lfnt
1000
cont
1000
hcnt
1000
hoff
1000
vcnt
1000
voff
1000
opnt
1000
4
1000
dxpt
1000
0
1000
dypt
1000
0
  0
GROUP
  5
BC5
102
{ACAD_REACTORS
330
D
102
}
330
D
100
AcDbGroup
300

 70
     0
 71
     1
1001
GRPNAME
1000
LNSP
  0
MLINESTYLE
  5
13
102
{ACAD_REACTORS
330
E
102
}
330
E
100
AcDbMlineStyle
  2
STANDARD
 70
     0
  3

 62
     0
 51
90.0
 52
90.0
 71
     2
 49
0.5
 62
   256
  6
BYLAYER
 49
-0.5
 62
   256
  6
BYLAYER
  0
PLOTSETTINGS
  5
758
102
{ACAD_REACTORS
330
566
102
}
330
566
100
AcDbPlotSettings
  1
A3(0.5倍)
  2
\\AWTECPC05\HP DeskJet 1120C
  4
A3
  6

 40
5.95841646
 41
13.49375153
 42
6.04309082
 43
3.67242432
 44
296.92599487
 45
419.94665527
 46
89.96
 47
127.14
 48
0.0
 49
0.0
140
0.0
141
0.0
142
1.0
143
2.0
 70
  1716
 72
     1
 73
     1
 74
     2
  7
big.ctb
 75
    17
147
0.5
148
0.0
149
0.0
  0
PLOTSETTINGS
  5
757
102
{ACAD_REACTORS
330
566
102
}
330
566
100
AcDbPlotSettings
  1
A3(1倍)
  2
\\AWTECPC05\HP DeskJet 1120C
  4
A3
  6

 40
5.95841646
 41
13.49375153
 42
6.04309082
 43
3.67242432
 44
296.92599487
 45
419.94665527
 46
37.46
 47
52.89
 48
0.0
 49
0.0
140
0.0
141
0.0
142
1.0
143
1.0
 70
  1716
 72
     1
 73
     1
 74
     2
  7
big.ctb
 75
    16
147
1.0
148
0.0
149
0.0
  0
PLOTSETTINGS
  5
707
102
{ACAD_REACTORS
330
566
102
}
330
566
100
AcDbPlotSettings
  1
A3(1倍)(2000)
  2
SII LS-1300 (D-SCAN)
  4
User258
  6

 40
3.17499995
 41
3.17499995
 42
3.17498779
 43
3.17498779
 44
419.98898315
 45
296.98950195
 46
58.32
 47
40.32
 48
0.0
 49
0.0
140
0.0
141
0.0
142
1.0
143
1.0
 70
  1716
 72
     1
 73
     0
 74
     2
  7
big.ctb
 75
    16
147
1.0
148
0.0
149
0.0
  0
PLOTSETTINGS
  5
759
102
{ACAD_REACTORS
330
566
102
}
330
566
100
AcDbPlotSettings
  1
A3(2倍)
  2
\\AWTECPC05\HP DeskJet 1120C
  4
A3
  6

 40
5.95841646
 41
13.49375153
 42
6.04309082
 43
3.67242432
 44
296.92599487
 45
419.94665527
 46
-67.54
 47
-95.61
 48
0.0
 49
0.0
140
0.0
141
0.0
142
1.0
143
0.5
 70
  1716
 72
     1
 73
     1
 74
     2
  7
big.ctb
 75
    27
147
2.0
148
0.0
149
0.0
  0
PLOTSETTINGS
  5
755
102
{ACAD_REACTORS
330
566
102
}
330
566
100
AcDbPlotSettings
  1
A4(0.5倍)
  2
\\AWTECPC05\HP DeskJet 1120C
  4
A4
  6

 40
4.18041658
 41
13.49374962
 42
4.18040466
 43
3.92642212
 44
209.97332764
 45
296.92599487
 46
48.31
 47
65.5
 48
0.0
 49
0.0
140
0.0
141
0.0
142
1.0
143
2.0
 70
  1716
 72
     1
 73
     1
 74
     2
  7
big.ctb
 75
    17
147
0.5
148
0.0
149
0.0
  0
PLOTSETTINGS
  5
754
102
{ACAD_REACTORS
330
566
102
}
330
566
100
AcDbPlotSettings
  1
A4(1倍)
  2
\\AWTECPC05\HP DeskJet 1120C
  4
A4
  6

 40
4.18041658
 41
13.49374962
 42
4.18040466
 43
3.92642212
 44
209.97332764
 45
296.92599487
 46
-4.19
 47
-8.75
 48
0.0
 49
0.0
140
0.0
141
0.0
142
1.0
143
1.0
 70
  1716
 72
     1
 73
     1
 74
     2
  7
big.ctb
 75
    16
147
1.0
148
0.0
149
0.0
  0
PLOTSETTINGS
  5
708
102
{ACAD_REACTORS
330
566
102
}
330
566
100
AcDbPlotSettings
  1
A4(1倍)(2000)
  2
SII LS-1300 (D-SCAN)
  4
User259
  6

 40
3.17499995
 41
3.17499995
 42
3.17498779
 43
3.17500305
 44
296.98950195
 45
209.99449158
 46
-3.18
 47
-3.18
 48
0.0
 49
0.0
140
0.0
141
0.0
142
1.0
143
1.0
 70
  1716
 72
     1
 73
     0
 74
     2
  7
big.ctb
 75
    16
147
1.0
148
0.0
149
0.0
  0
PLOTSETTINGS
  5
756
102
{ACAD_REACTORS
330
566
102
}
330
566
100
AcDbPlotSettings
  1
A4(2倍)
  2
\\AWTECPC05\HP DeskJet 1120C
  4
A4
  6

 40
4.18041658
 41
13.49374962
 42
4.18040466
 43
3.92642212
 44
209.97332764
 45
296.92599487
 46
-109.19
 47
-157.25
 48
0.0
 49
0.0
140
0.0
141
0.0
142
1.0
143
0.5
 70
  1716
 72
     1
 73
     1
 74
     2
  7
big.ctb
 75
    27
147
2.0
148
0.0
149
0.0
  0
ACDBPLACEHOLDER
  5
564
102
{ACAD_REACTORS
330
563
102
}
330
563
100
AcDbPlaceHolder
280
     0
  0
XRECORD
  5
1252
102
{ACAD_REACTORS
330
1248
102
}
330
1248
100
AcDbXrecord
 90
        0
  0
XRECORD
  5
1256
102
{ACAD_REACTORS
330
1248
102
}
330
1248
100
AcDbXrecord
1000
DSTYLE
1002
{
1070
    79
 70
     2
1070
   179
 70
     3
1070
   341
340
594
1070
   343
340
594
1070
   344
340
594
1070
   371
 70
    -1
1070
   372
 70
    -1
1002
}
  0
XRECORD
  5
1253
102
{ACAD_REACTORS
330
1248
102
}
330
1248
100
AcDbXrecord
  1
{51294030-9CB4-11D3-8E18-00A0C925D94D}
  0
XRECORD
  5
124B
102
{ACAD_REACTORS
330
1248
102
}
330
1248
100
AcDbXrecord
  1

  0
XRECORD
  5
1251
102
{ACAD_REACTORS
330
1248
102
}
330
1248
100
AcDbXrecord
 90
        0
  0
XRECORD
  5
124D
102
{ACAD_REACTORS
330
1248
102
}
330
1248
100
AcDbXrecord
340
565
  0
XRECORD
  5
1250
102
{ACAD_REACTORS
330
1248
102
}
330
1248
100
AcDbXrecord
 90
    10781
  0
XRECORD
  5
124E
102
{ACAD_REACTORS
330
1248
102
}
330
1248
100
AcDbXrecord
340
566
  0
XRECORD
  5
124F
102
{ACAD_REACTORS
330
1248
102
}
330
1248
100
AcDbXrecord
340
563
  0
XRECORD
  5
1255
102
{ACAD_REACTORS
330
1248
102
}
330
1248
100
AcDbXrecord
 40
0.0
  0
XRECORD
  5
1259
102
{ACAD_REACTORS
330
1248
102
}
330
1248
100
AcDbXrecord
340
0
  0
XRECORD
  5
125F
102
{ACAD_REACTORS
330
1248
102
}
330
1248
100
AcDbXrecord
 10
0.0
 20
0.0
 30
0.0
  0
XRECORD
  5
125B
102
{ACAD_REACTORS
330
1248
102
}
330
1248
100
AcDbXrecord
 10
0.0
 20
0.0
 30
0.0
  0
XRECORD
  5
125E
102
{ACAD_REACTORS
330
1248
102
}
330
1248
100
AcDbXrecord
 10
0.0
 20
0.0
 30
0.0
  0
XRECORD
  5
125C
102
{ACAD_REACTORS
330
1248
102
}
330
1248
100
AcDbXrecord
 10
0.0
 20
0.0
 30
0.0
  0
XRECORD
  5
125D
102
{ACAD_REACTORS
330
1248
102
}
330
1248
100
AcDbXrecord
 10
0.0
 20
0.0
 30
0.0
  0
XRECORD
  5
125A
102
{ACAD_REACTORS
330
1248
102
}
330
1248
100
AcDbXrecord
 10
0.0
 20
0.0
 30
0.0
  0
XRECORD
  5
1257
102
{ACAD_REACTORS
330
1248
102
}
330
1248
100
AcDbXrecord
340
0
  0
XRECORD
  5
1258
102
{ACAD_REACTORS
330
1248
102
}
330
1248
100
AcDbXrecord
 70
     0
  0
XRECORD
  5
124C
102
{ACAD_REACTORS
330
1248
102
}
330
1248
100
AcDbXrecord
  1
big.ctb
  0
XRECORD
  5
1249
102
{ACAD_REACTORS
330
1248
102
}
330
1248
100
AcDbXrecord
 90
        1
  0
XRECORD
  5
124A
102
{ACAD_REACTORS
330
1248
102
}
330
1248
100
AcDbXrecord
 90
       70
  0
XRECORD
  5
1262
102
{ACAD_REACTORS
330
1248
102
}
330
1248
100
AcDbXrecord
340
0
  0
XRECORD
  5
1268
102
{ACAD_REACTORS
330
1248
102
}
330
1248
100
AcDbXrecord
 10
0.0
 20
0.0
 30
0.0
  0
XRECORD
  5
1264
102
{ACAD_REACTORS
330
1248
102
}
330
1248
100
AcDbXrecord
 10
0.0
 20
0.0
 30
0.0
  0
XRECORD
  5
1267
102
{ACAD_REACTORS
330
1248
102
}
330
1248
100
AcDbXrecord
 10
0.0
 20
0.0
 30
0.0
  0
XRECORD
  5
1265
102
{ACAD_REACTORS
330
1248
102
}
330
1248
100
AcDbXrecord
 10
0.0
 20
0.0
 30
0.0
  0
XRECORD
  5
1266
102
{ACAD_REACTORS
330
1248
102
}
330
1248
100
AcDbXrecord
 10
0.0
 20
0.0
 30
0.0
  0
XRECORD
  5
1263
102
{ACAD_REACTORS
330
1248
102
}
330
1248
100
AcDbXrecord
 10
0.0
 20
0.0
 30
0.0
  0
XRECORD
  5
1260
102
{ACAD_REACTORS
330
1248
102
}
330
1248
100
AcDbXrecord
340
0
  0
XRECORD
  5
1261
102
{ACAD_REACTORS
330
1248
102
}
330
1248
100
AcDbXrecord
 70
     0
  0
XRECORD
  5
1254
102
{ACAD_REACTORS
330
1248
102
}
330
1248
100
AcDbXrecord
  1
{E275B2CF-4BD8-4704-B15F-ABA576C5E6DC}
  0
XRECORD
  5
560
102
{ACAD_REACTORS
330
540
102
}
330
540
100
AcDbXrecord
  1
2.0.0
  0
ENDSEC
  0
EOF
