  0
SECTION
  2
HEADER
  9
$ACADVER
  1
AC1014
  9
$ACADMAINTVER
 70
     9
  9
$DWGCODEPAGE
  3
ANSI_932
  9
$INSBASE
 10
0.0
 20
0.0
 30
0.0
  9
$EXTMIN
 10
-49.41432386
 20
-25.00982591
 30
-0.00152582
  9
$EXTMAX
 10
64.00347663
 20
68.02407885
 30
0.00000003
  9
$LIMMIN
 10
0.0
 20
0.0
  9
$LIMMAX
 10
420.0
 20
297.0
  9
$ORTHOMODE
 70
     0
  9
$REGENMODE
 70
     1
  9
$FILLMODE
 70
     1
  9
$QTEXTMODE
 70
     0
  9
$MIRRTEXT
 70
     1
  9
$DRAGMODE
 70
     2
  9
$LTSCALE
 40
10.0
  9
$OSMODE
 70
   549
  9
$ATTMODE
 70
     1
  9
$TEXTSIZE
 40
3.0
  9
$TRACEWID
 40
1.0
  9
$TEXTSTYLE
  7
YOKO
  9
$CLAYER
  8
245
  9
$CELTYPE
  6
BYLAYER
  9
$CECOLOR
 62
   256
  9
$CELTSCALE
 40
1.0
  9
$DELOBJ
 70
     1
  9
$DISPSILH
 70
     0
  9
$DIMSCALE
 40
1.0
  9
$DIMASZ
 40
2.23
  9
$DIMEXO
 40
0.5
  9
$DIMDLI
 40
2.5
  9
$DIMRND
 40
0.0
  9
$DIMDLE
 40
0.0
  9
$DIMEXE
 40
1.0
  9
$DIMTP
 40
0.0
  9
$DIMTM
 40
0.0
  9
$DIMTXT
 40
2.8
  9
$DIMCEN
 40
0.0
  9
$DIMTSZ
 40
0.0
  9
$DIMTOL
 70
     0
  9
$DIMLIM
 70
     0
  9
$DIMTIH
 70
     0
  9
$DIMTOH
 70
     0
  9
$DIMSE1
 70
     0
  9
$DIMSE2
 70
     0
  9
$DIMTAD
 70
     3
  9
$DIMZIN
 70
     8
  9
$DIMBLK
  1

  9
$DIMASO
 70
     1
  9
$DIMSHO
 70
     1
  9
$DIMPOST
  1

  9
$DIMAPOST
  1

  9
$DIMALT
 70
     0
  9
$DIMALTD
 70
     2
  9
$DIMALTF
 40
25.4
  9
$DIMLFAC
 40
1.0
  9
$DIMTOFL
 70
     1
  9
$DIMTVP
 40
0.0
  9
$DIMTIX
 70
     1
  9
$DIMSOXD
 70
     0
  9
$DIMSAH
 70
     1
  9
$DIMBLK1
  1
OPEN
  9
$DIMBLK2
  1
OPEN
  9
$DIMSTYLE
  2
BIGT
  9
$DIMCLRD
 70
   256
  9
$DIMCLRE
 70
   256
  9
$DIMCLRT
 70
    40
  9
$DIMTFAC
 40
1.0
  9
$DIMGAP
 40
1.0
  9
$DIMJUST
 70
     0
  9
$DIMSD1
 70
     0
  9
$DIMSD2
 70
     0
  9
$DIMTOLJ
 70
     1
  9
$DIMTZIN
 70
     8
  9
$DIMALTZ
 70
     0
  9
$DIMALTTZ
 70
     0
  9
$DIMFIT
 70
     3
  9
$DIMUPT
 70
     0
  9
$DIMUNIT
 70
     2
  9
$DIMDEC
 70
     3
  9
$DIMTDEC
 70
     3
  9
$DIMALTU
 70
     2
  9
$DIMALTTD
 70
     2
  9
$DIMTXSTY
  7
STANDARD
  9
$DIMAUNIT
 70
     0
  9
$LUNITS
 70
     2
  9
$LUPREC
 70
     3
  9
$SKETCHINC
 40
1.0
  9
$FILLETRAD
 40
0.0
  9
$AUNITS
 70
     0
  9
$AUPREC
 70
     3
  9
$MENU
  1
.
  9
$ELEVATION
 40
0.0
  9
$PELEVATION
 40
0.0
  9
$THICKNESS
 40
0.0
  9
$LIMCHECK
 70
     0
  9
$BLIPMODE
 70
     0
  9
$CHAMFERA
 40
10.0
  9
$CHAMFERB
 40
10.0
  9
$CHAMFERC
 40
0.0
  9
$CHAMFERD
 40
0.0
  9
$SKPOLY
 70
     0
  9
$TDCREATE
 40
2455140.560407071
  9
$TDUPDATE
 40
2455371.570874374
  9
$TDINDWG
 40
0.0038375347
  9
$TDUSRTIMER
 40
0.0038375347
  9
$USRTIMER
 70
     1
  9
$ANGBASE
 50
0.0
  9
$ANGDIR
 70
     0
  9
$PDMODE
 70
     1
  9
$PDSIZE
 40
-5.0
  9
$PLINEWID
 40
0.0
  9
$COORDS
 70
     0
  9
$SPLFRAME
 70
     0
  9
$SPLINETYPE
 70
     6
  9
$SPLINESEGS
 70
     8
  9
$ATTDIA
 70
     0
  9
$ATTREQ
 70
     1
  9
$HANDLING
 70
-16383
  9
$HANDSEED
  5
C64
  9
$SURFTAB1
 70
     6
  9
$SURFTAB2
 70
     6
  9
$SURFTYPE
 70
     6
  9
$SURFU
 70
     6
  9
$SURFV
 70
     6
  9
$UCSNAME
  2

  9
$UCSORG
 10
0.0
 20
0.0
 30
0.0
  9
$UCSXDIR
 10
1.0
 20
0.0
 30
0.0
  9
$UCSYDIR
 10
0.0
 20
1.0
 30
0.0
  9
$PUCSNAME
  2

  9
$PUCSORG
 10
0.0
 20
0.0
 30
0.0
  9
$PUCSXDIR
 10
1.0
 20
0.0
 30
0.0
  9
$PUCSYDIR
 10
0.0
 20
1.0
 30
0.0
  9
$USERI1
 70
     1
  9
$USERI2
 70
     0
  9
$USERI3
 70
     0
  9
$USERI4
 70
     0
  9
$USERI5
 70
     0
  9
$USERR1
 40
0.0
  9
$USERR2
 40
0.0
  9
$USERR3
 40
0.0
  9
$USERR4
 40
0.0
  9
$USERR5
 40
0.0
  9
$WORLDVIEW
 70
     1
  9
$SHADEDGE
 70
     3
  9
$SHADEDIF
 70
    70
  9
$TILEMODE
 70
     1
  9
$MAXACTVP
 70
    16
  9
$PINSBASE
 10
0.0
 20
0.0
 30
0.0
  9
$PLIMCHECK
 70
     0
  9
$PEXTMIN
 10
1.00000000E+20
 20
1.00000000E+20
 30
1.00000000E+20
  9
$PEXTMAX
 10
-1.00000000E+20
 20
-1.00000000E+20
 30
-1.00000000E+20
  9
$PLIMMIN
 10
0.0
 20
0.0
  9
$PLIMMAX
 10
420.0
 20
297.0
  9
$UNITMODE
 70
     0
  9
$VISRETAIN
 70
     0
  9
$PLINEGEN
 70
     0
  9
$PSLTSCALE
 70
     1
  9
$TREEDEPTH
 70
  3020
  9
$PICKSTYLE
 70
     0
  9
$CMLSTYLE
  2
STANDARD
  9
$CMLJUST
 70
     0
  9
$CMLSCALE
 40
1.0
  9
$PROXYGRAPHICS
 70
     1
  9
$MEASUREMENT
 70
     1
  0
ENDSEC
  0
SECTION
  2
CLASSES
  0
CLASS
  1
XRECORD
  2
AcDbXrecord
  3
AutoCAD 2000
 90
        0
280
     0
281
     0
  0
CLASS
  1
ACDBDICTIONARYWDFLT
  2
AcDbDictionaryWithDefault
  3
AutoCAD 2000
 90
        0
280
     0
281
     0
  0
CLASS
  1
ACDBPLACEHOLDER
  2
AcDbPlaceHolder
  3
AutoCAD 2000
 90
        0
280
     0
281
     0
  0
CLASS
  1
LAYOUT
  2
AcDbLayout
  3
AutoCAD 2000
 90
        0
280
     0
281
     0
  0
CLASS
  1
PLOTSETTINGS
  2
AcDbPlotSettings
  3
AutoCAD 2000
 90
        0
280
     0
281
     0
  0
CLASS
  1
LONG_TRANSACTION
  2
AcDbLongTransaction
  3
AutoCAD 2000
 90
        0
280
     0
281
     0
  0
CLASS
  1
LWPOLYLINE
  2
AcDbPolyline
  3
AutoCAD 2000
 90
        0
280
     0
281
     1
  0
CLASS
  1
HATCH
  2
AcDbHatch
  3
AutoCAD 2000
 90
        0
280
     0
281
     1
  0
CLASS
  1
XRECORD
  2
AcDbXrecord
  3
AutoCAD 2000
 90
        0
280
     0
281
     0
  0
CLASS
  1
LONG_TRANSACTION
  2
AcDbLongTransaction
  3
AutoCAD 2000
 90
        0
280
     0
281
     0
  0
CLASS
  1
LWPOLYLINE
  2
AcDbPolyline
  3
AutoCAD 2000
 90
        0
280
     0
281
     1
  0
CLASS
  1
HATCH
  2
AcDbHatch
  3
AutoCAD 2000
 90
        0
280
     0
281
     1
  0
CLASS
  1
XRECORD
  2
AcDbXrecord
  3
AutoCAD 2000
 90
        0
280
     0
281
     0
  0
ENDSEC
  0
SECTION
  2
TABLES
  0
TABLE
  2
VPORT
  5
8
330
0
100
AcDbSymbolTable
 70
     4
  0
VPORT
  5
C3F
330
8
100
AcDbSymbolTableRecord
100
AcDbViewportTableRecord
  2
*ACTIVE
 70
     0
 10
0.0
 20
0.0
 11
1.0
 21
1.0
 12
7.29457639
 22
21.50712647
 13
0.0
 23
0.0
 14
7.0
 24
7.0
 15
7.0
 25
7.0
 16
0.0
 26
0.0
 36
1.0
 17
0.0
 27
0.0
 37
0.0
 40
93.7560308
 41
1.45595855
 42
50.0
 43
0.0
 44
0.0
 50
0.0
 51
0.0
 71
     0
 72
  2000
 73
     1
 74
     0
 75
     0
 76
     0
 77
     0
 78
     0
  0
ENDTAB
  0
TABLE
  2
LTYPE
  5
5
330
0
100
AcDbSymbolTable
 70
     4
  0
LTYPE
  5
14
330
5
100
AcDbSymbolTableRecord
100
AcDbLinetypeTableRecord
  2
BYBLOCK
 70
     0
  3

 72
    65
 73
     0
 40
0.0
  0
LTYPE
  5
15
330
5
100
AcDbSymbolTableRecord
100
AcDbLinetypeTableRecord
  2
BYLAYER
 70
     0
  3

 72
    65
 73
     0
 40
0.0
  0
LTYPE
  5
16
330
5
100
AcDbSymbolTableRecord
100
AcDbLinetypeTableRecord
  2
CONTINUOUS
 70
     0
  3
Solid line
 72
    65
 73
     0
 40
0.0
  0
LTYPE
  5
258
330
5
100
AcDbSymbolTableRecord
100
AcDbLinetypeTableRecord
  2
CENTER2
 70
     0
  3
___ _ ___ _ ___ _ ___ _ ___ _ ___ _ ___ _ ___ _
 72
    65
 73
     4
 40
1.125
 49
0.75
 74
     0
 49
-0.125
 74
     0
 49
0.125
 74
     0
 49
-0.125
 74
     0
  0
LTYPE
  5
25C
330
5
100
AcDbSymbolTableRecord
100
AcDbLinetypeTableRecord
  2
HIDDEN2
 70
     0
  3
_ _ _ _ _ _ _ _ _ _ _ _ _ _ _ _ _ _ _ _ _ _ _ _
 72
    65
 73
     2
 40
0.1875
 49
0.125
 74
     0
 49
-0.0625
 74
     0
  0
LTYPE
  5
25D
330
5
100
AcDbSymbolTableRecord
100
AcDbLinetypeTableRecord
  2
PHANTOM2
 70
     0
  3
___ _ _ ___ _ _ ___ _ _ ___ _ _ ___ _ _ ___ _ _
 72
    65
 73
     6
 40
1.25
 49
0.625
 74
     0
 49
-0.125
 74
     0
 49
0.125
 74
     0
 49
-0.125
 74
     0
 49
0.125
 74
     0
 49
-0.125
 74
     0
  0
ENDTAB
  0
TABLE
  2
LAYER
  5
2
330
0
100
AcDbSymbolTable
 70
    10
  0
LAYER
  5
F
330
2
100
AcDbSymbolTableRecord
100
AcDbLayerTableRecord
  2
0
 70
     0
 62
     7
  6
CONTINUOUS
  0
LAYER
  5
1AA
330
2
100
AcDbSymbolTableRecord
100
AcDbLayerTableRecord
  2
240
 70
     0
 62
     4
  6
CONTINUOUS
  0
LAYER
  5
1AB
330
2
100
AcDbSymbolTableRecord
100
AcDbLayerTableRecord
  2
241
 70
     0
 62
   211
  6
CONTINUOUS
  0
LAYER
  5
1AD
330
2
100
AcDbSymbolTableRecord
100
AcDbLayerTableRecord
  2
243
 70
     0
 62
   211
  6
HIDDEN2
  0
LAYER
  5
1AF
330
2
100
AcDbSymbolTableRecord
100
AcDbLayerTableRecord
  2
245
 70
     0
 62
     2
  6
CENTER2
  0
LAYER
  5
21A
330
2
100
AcDbSymbolTableRecord
100
AcDbLayerTableRecord
  2
246
 70
     0
 62
     3
  6
PHANTOM2
  0
LAYER
  5
21E
330
2
100
AcDbSymbolTableRecord
100
AcDbLayerTableRecord
  2
250
 70
     0
 62
     3
  6
CONTINUOUS
  0
LAYER
  5
21F
330
2
100
AcDbSymbolTableRecord
100
AcDbLayerTableRecord
  2
251
 70
     0
 62
    40
  6
CONTINUOUS
  0
LAYER
  5
5C4
330
2
100
AcDbSymbolTableRecord
100
AcDbLayerTableRecord
  2
DEFPOINTS
 70
     0
 62
     7
  6
CONTINUOUS
  0
ENDTAB
  0
TABLE
  2
STYLE
  5
3
330
0
100
AcDbSymbolTable
 70
     2
  0
STYLE
  5
10
330
3
100
AcDbSymbolTableRecord
100
AcDbTextStyleTableRecord
  2
STANDARD
 70
     0
 40
0.0
 41
1.0
 50
0.0
 71
     0
 42
3.0
  3
romans.shx
  4
BIGFONT.SHX
  0
STYLE
  5
339
330
3
100
AcDbSymbolTableRecord
100
AcDbTextStyleTableRecord
  2
YOKO
 70
     0
 40
0.0
 41
1.0
 50
0.0
 71
     0
 42
3.0
  3
romans.shx
  4
extfont.shx
  0
ENDTAB
  0
TABLE
  2
VIEW
  5
6
330
0
100
AcDbSymbolTable
 70
     0
  0
ENDTAB
  0
TABLE
  2
UCS
  5
7
330
0
100
AcDbSymbolTable
 70
     0
  0
ENDTAB
  0
TABLE
  2
APPID
  5
9
330
0
100
AcDbSymbolTable
 70
    12
  0
APPID
  5
11
330
9
100
AcDbSymbolTableRecord
100
AcDbRegAppTableRecord
  2
ACAD
 70
     0
  0
APPID
  5
1B1
330
9
100
AcDbSymbolTableRecord
100
AcDbRegAppTableRecord
  2
GLOBAL
 70
     0
  0
APPID
  5
2A4
330
9
100
AcDbSymbolTableRecord
100
AcDbRegAppTableRecord
  2
DETAIL
 70
     0
  0
APPID
  5
5FD
330
9
100
AcDbSymbolTableRecord
100
AcDbRegAppTableRecord
  2
GRPNAME
 70
     0
  0
APPID
  5
5FE
330
9
100
AcDbSymbolTableRecord
100
AcDbRegAppTableRecord
  2
GPARA
 70
     0
  0
APPID
  5
6C4
330
9
100
AcDbSymbolTableRecord
100
AcDbRegAppTableRecord
  2
DCO15
 70
     0
  0
APPID
  5
6C5
330
9
100
AcDbSymbolTableRecord
100
AcDbRegAppTableRecord
  2
ITEMNAME
 70
     0
  0
APPID
  5
6C6
330
9
100
AcDbSymbolTableRecord
100
AcDbRegAppTableRecord
  2
GRADE_0
 70
     0
  0
APPID
  5
856
330
9
100
AcDbSymbolTableRecord
100
AcDbRegAppTableRecord
  2
HATCH_TYPE
 70
     0
  0
APPID
  5
857
330
9
100
AcDbSymbolTableRecord
100
AcDbRegAppTableRecord
  2
HATCH_DISPLAY
 70
     0
  0
APPID
  5
858
330
9
100
AcDbSymbolTableRecord
100
AcDbRegAppTableRecord
  2
HATCH_DISTANCE
 70
     0
  0
APPID
  5
AB2
330
9
100
AcDbSymbolTableRecord
100
AcDbRegAppTableRecord
  2
CONTENTBLOCKICON
 70
     0
  0
ENDTAB
  0
TABLE
  2
DIMSTYLE
  5
A
330
0
100
AcDbSymbolTable
 70
     4
  0
DIMSTYLE
105
725
102
{ACAD_REACTORS
330
99B
330
9AA
330
9B9
330
9C8
102
}
330
A
100
AcDbSymbolTableRecord
100
AcDbDimStyleTableRecord
  2
BIGT
 70
     0
  3

  4

  5

  6
OPEN
  7
OPEN
 40
1.0
 41
2.23
 42
0.5
 43
2.5
 44
1.0
 45
0.0
 46
0.0
 47
0.0
 48
0.0
140
2.8
141
0.0
142
0.0
143
25.4
144
1.0
145
0.0
146
1.0
147
1.0
 71
     0
 72
     0
 73
     0
 74
     0
 75
     0
 76
     0
 77
     3
 78
     8
170
     0
171
     2
172
     1
173
     1
174
     1
175
     0
176
   256
177
   256
178
    40
270
     2
271
     3
272
     3
273
     2
274
     2
340
10
275
     0
280
     0
281
     0
282
     0
283
     1
284
     8
285
     0
286
     0
287
     3
288
     0
  0
ENDTAB
  0
TABLE
  2
BLOCK_RECORD
  5
1
330
0
100
AcDbSymbolTable
 70
     8
  0
BLOCK_RECORD
  5
1A
102
{ACAD_XDICTIONARY
360
AB0
102
}
330
1
100
AcDbSymbolTableRecord
100
AcDbBlockTableRecord
  2
*MODEL_SPACE
  0
BLOCK_RECORD
  5
17
102
{ACAD_XDICTIONARY
360
AAE
102
}
330
1
100
AcDbSymbolTableRecord
100
AcDbBlockTableRecord
  2
*PAPER_SPACE
  0
BLOCK_RECORD
  5
594
330
1
100
AcDbSymbolTableRecord
100
AcDbBlockTableRecord
  2
_OPEN
  0
BLOCK_RECORD
  5
6E3
330
1
100
AcDbSymbolTableRecord
100
AcDbBlockTableRecord
  2
矢印なし
  0
BLOCK_RECORD
  5
99C
330
1
100
AcDbSymbolTableRecord
100
AcDbBlockTableRecord
  2
*D2
  0
BLOCK_RECORD
  5
9AB
330
1
100
AcDbSymbolTableRecord
100
AcDbBlockTableRecord
  2
*D3
  0
BLOCK_RECORD
  5
9BA
330
1
100
AcDbSymbolTableRecord
100
AcDbBlockTableRecord
  2
*D4
  0
BLOCK_RECORD
  5
9C9
330
1
100
AcDbSymbolTableRecord
100
AcDbBlockTableRecord
  2
*D5
  0
BLOCK_RECORD
  5
A03
330
1
100
AcDbSymbolTableRecord
100
AcDbBlockTableRecord
  2
1
1001
CONTENTBLOCKICON
1071
        0
1004
2800000020000000200000000100080000000000000400000000000000000000000000000000000000000000000080000080000000808000800000008000800080800000C0C0C000C0DCC000F0CAA6000020400000206000002080000020A0000020C0000020E00000400000004020000040400000406000004080000040A0
1004
000040C0000040E00000600000006020000060400000606000006080000060A0000060C0000060E00000800000008020000080400000806000008080000080A0000080C0000080E00000A0000000A0200000A0400000A0600000A0800000A0A00000A0C00000A0E00000C0000000C0200000C0400000C0600000C0800000C0
1004
A00000C0C00000C0E00000E0000000E0200000E0400000E0600000E0800000E0A00000E0C00000E0E00040000000400020004000400040006000400080004000A0004000C0004000E00040200000402020004020400040206000402080004020A0004020C0004020E000404000004040200040404000404060004040800040
1004
40A0004040C0004040E00040600000406020004060400040606000406080004060A0004060C0004060E00040800000408020004080400040806000408080004080A0004080C0004080E00040A0000040A0200040A0400040A0600040A0800040A0A00040A0C00040A0E00040C0000040C0200040C0400040C0600040C08000
1004
40C0A00040C0C00040C0E00040E0000040E0200040E0400040E0600040E0800040E0A00040E0C00040E0E00080000000800020008000400080006000800080008000A0008000C0008000E00080200000802020008020400080206000802080008020A0008020C0008020E00080400000804020008040400080406000804080
1004
008040A0008040C0008040E00080600000806020008060400080606000806080008060A0008060C0008060E00080800000808020008080400080806000808080008080A0008080C0008080E00080A0000080A0200080A0400080A0600080A0800080A0A00080A0C00080A0E00080C0000080C0200080C0400080C0600080C0
1004
800080C0A00080C0C00080C0E00080E0000080E0200080E0400080E0600080E0800080E0A00080E0C00080E0E000C0000000C0002000C0004000C0006000C0008000C000A000C000C000C000E000C0200000C0202000C0204000C0206000C0208000C020A000C020C000C020E000C0400000C0402000C0404000C0406000C0
1004
408000C040A000C040C000C040E000C0600000C0602000C0604000C0606000C0608000C060A000C060C000C060E000C0800000C0802000C0804000C0806000C0808000C080A000C080C000C080E000C0A00000C0A02000C0A04000C0A06000C0A08000C0A0A000C0A0C000C0A0E000C0C00000C0C02000C0C04000C0C06000
1004
C0C08000C0C0A000F0FBFF00A4A0A000808080000000FF0000FF000000FFFF00FF000000FF00FF00FFFF0000FFFFFF0000000000000000000000000000000000000000000000000000000000000000000000000000000000000000000000000000000000000000000000000000000000000000000000000000000000000000
1004
00000000000000000000000000000000000000000000000000000000000000000000000000000000000000000000000000000000000000000000000000000000000000000000000000000000000000000000000000000000000000000000000000000000000000000000000000000000000000000000000000000000000000
1004
00000000000000000000000000000000000000000000000000000000000000000000000000000000000000000000000000000000000000000000000000000000000000000000000000000000FAFAFAFA000000000000000000000000000000000000FEFEFEFBFEE7FEFEFEFEFEFEFEFA000000000000000000000000000000
1004
000000FE00E7FEFEE70000E700000000FA0000000000000000000000000000FEFEFEFEFEE7E7E7E7E70000E70000E7E7FA0000000000000000FEFEFEFEFEFE000000E7E700E7E7E7E70000E700E70000FA00000000FEFEFEFE000000000000000000E7E700E7E7E7E70000E7E7000000FA00000000FE000000000000000000
1004
000000E7E700E7E7E7E7E7E70000000000FE00000000FE000000000000000000000000E7E700E7E7E7E7E700000000E7E7FE000000FBFEFBFBFBFBFBFBFBFBFBFBFBFBE7E7FBE7E7E7E7E7E7E7E7E7FBE7FEFB000000FE000000000000000000000000E7E700E7E7E7E70000E700E7E700FE00000000FEFEFEFE0000000000
1004
00000000E7E700E7E7E7E70000E7000000E7FE0000000000000000FEFEFEFEFEFE000000E7E700E7E7E7E70000E7000000E7E70000000000000000000000000000FEFEFEFEFEE7E7E7E7E70000E7000000E7E7000000000000000000000000000000000000FE00E7FEFEE70000E700000000FE000000000000000000000000
1004
000000000000FEFEFEFBFEE7FEFEFEFEFEFEFEFE00000000000000000000000000000000000000000000000000000000FAFAFAFA000000000000000000000000000000000000000000000000000000000000000000000000000000000000000000000000000000000000000000000000000000000000000000000000000000
1004
00000000000000000000000000000000000000000000000000000000000000000000000000000000000000000000000000000000000000000000000000000000000000000000000000000000000000000000000000000000000000000000000000000000000000000000000000000000000000000000000000000000000000
1004
0000000000000000000000000000000000000000000000000000000000000000000000000000000000000000000000000000000000000000
  0
ENDTAB
  0
ENDSEC
  0
SECTION
  2
BLOCKS
  0
BLOCK
  5
1B
330
1A
100
AcDbEntity
  8
0
100
AcDbBlockBegin
  2
*MODEL_SPACE
 70
     0
 10
0.0
 20
0.0
 30
0.0
  3
*MODEL_SPACE
  1

  0
ENDBLK
  5
1C
330
1A
100
AcDbEntity
  8
0
100
AcDbBlockEnd
  0
BLOCK
  5
18
330
17
100
AcDbEntity
 67
     1
  8
0
100
AcDbBlockBegin
  2
*PAPER_SPACE
 70
     0
 10
0.0
 20
0.0
 30
0.0
  3
*PAPER_SPACE
  1

  0
ENDBLK
  5
19
330
17
100
AcDbEntity
 67
     1
  8
0
100
AcDbBlockEnd
  0
BLOCK
  5
598
330
594
100
AcDbEntity
  8
0
100
AcDbBlockBegin
  2
_OPEN
 70
     0
 10
0.0
 20
0.0
 30
0.0
  3
_OPEN
  1

  0
LINE
  5
595
330
594
100
AcDbEntity
  8
0
  6
BYBLOCK
 62
     0
100
AcDbLine
 10
-1.0
 20
0.16666667
 30
0.0
 11
0.0
 21
0.0
 31
0.0
  0
LINE
  5
596
330
594
100
AcDbEntity
  8
0
  6
BYBLOCK
 62
     0
100
AcDbLine
 10
-1.0
 20
-0.16666667
 30
0.0
 11
0.0
 21
0.0
 31
0.0
  0
LINE
  5
597
330
594
100
AcDbEntity
  8
0
  6
BYBLOCK
 62
     0
100
AcDbLine
 10
0.0
 20
0.0
 30
0.0
 11
-1.0
 21
0.0
 31
0.0
  0
ENDBLK
  5
599
330
594
100
AcDbEntity
  8
0
100
AcDbBlockEnd
  0
BLOCK
  5
6E4
330
6E3
100
AcDbEntity
  8
0
100
AcDbBlockBegin
  2
矢印なし
 70
     0
 10
0.0
 20
0.0
 30
0.0
  3
矢印なし
  1

  0
ENDBLK
  5
6E5
330
6E3
100
AcDbEntity
  8
0
100
AcDbBlockEnd
  0
BLOCK
  5
9A6
330
99C
100
AcDbEntity
  8
0
100
AcDbBlockBegin
  2
*D2
 70
     1
 10
0.0
 20
0.0
 30
0.0
  3
*D2
  1

  0
LINE
  5
9DF
330
99C
100
AcDbEntity
  8
250
  6
CONTINUOUS
100
AcDbLine
 10
50.5
 20
-25.0
 30
0.0
 11
64.0
 21
-25.0
 31
0.0
  0
LINE
  5
9E0
330
99C
100
AcDbEntity
  8
250
  6
CONTINUOUS
100
AcDbLine
 10
50.5
 20
25.0
 30
0.0
 11
64.0
 21
25.0
 31
0.0
  0
LINE
  5
9E1
330
99C
100
AcDbEntity
  8
250
  6
CONTINUOUS
100
AcDbLine
 10
63.0
 20
-22.77
 30
0.0
 11
63.0
 21
22.77
 31
0.0
  0
INSERT
  5
9E2
330
99C
100
AcDbEntity
  8
250
  6
CONTINUOUS
100
AcDbBlockReference
  2
_OPEN
 10
63.0
 20
-25.0
 30
0.0
 41
2.23
 42
2.23
 43
2.23
 50
270.0
  0
INSERT
  5
9E3
330
99C
100
AcDbEntity
  8
250
  6
CONTINUOUS
100
AcDbBlockReference
  2
_OPEN
 10
63.0
 20
25.0
 30
0.0
 41
2.23
 42
2.23
 43
2.23
 50
90.0
  0
MTEXT
  5
9E4
330
99C
100
AcDbEntity
  8
250
  6
CONTINUOUS
 62
    40
100
AcDbMText
 10
60.6
 20
0.0
 30
0.0
 40
2.8
 41
0.0
 71
     5
 72
     1
  1
\A1;{\H2.8;\U+2205}50
 11
0.0
 21
1.0
 31
0.0
1001
ACAD
1000
MTEXTBEGIN
1070
    73
1070
     1
1070
    44
1040
1.0
1070
    74
1070
     0
1000
MTEXTEND
1000
MTEXTBEGIN
1070
    73
1070
     1
1070
    44
1040
1.0
1070
    74
1070
     0
1000
MTEXTEND
  0
POINT
  5
9E5
330
99C
100
AcDbEntity
  8
DEFPOINTS
  6
CONTINUOUS
 62
     0
100
AcDbPoint
 10
50.0
 20
-25.0
 30
0.0
  0
POINT
  5
9E6
330
99C
100
AcDbEntity
  8
DEFPOINTS
  6
CONTINUOUS
 62
     0
100
AcDbPoint
 10
50.0
 20
25.0
 30
0.0
  0
POINT
  5
9E7
330
99C
100
AcDbEntity
  8
DEFPOINTS
  6
CONTINUOUS
 62
     0
100
AcDbPoint
 10
63.0
 20
25.0
 30
0.0
  0
ENDBLK
  5
9A7
330
99C
100
AcDbEntity
  8
0
100
AcDbBlockEnd
  0
BLOCK
  5
9B5
330
9AB
100
AcDbEntity
  8
0
100
AcDbBlockBegin
  2
*D3
 70
     1
 10
0.0
 20
0.0
 30
0.0
  3
*D3
  1

  0
LINE
  5
9FA
330
9AB
100
AcDbEntity
  8
250
  6
CONTINUOUS
100
AcDbLine
 10
39.0
 20
25.5
 30
0.0
 11
39.0
 21
36.0
 31
0.0
  0
LINE
  5
9FB
330
9AB
100
AcDbEntity
  8
250
  6
CONTINUOUS
100
AcDbLine
 10
50.0
 20
25.5
 30
0.0
 11
50.0
 21
36.0
 31
0.0
  0
LINE
  5
9FC
330
9AB
100
AcDbEntity
  8
250
  6
CONTINUOUS
100
AcDbLine
 10
41.23
 20
35.0
 30
0.0
 11
47.77
 21
35.0
 31
0.0
  0
INSERT
  5
9FD
330
9AB
100
AcDbEntity
  8
250
  6
CONTINUOUS
100
AcDbBlockReference
  2
_OPEN
 10
39.0
 20
35.0
 30
0.0
 41
2.23
 42
2.23
 43
2.23
 50
180.0
  0
INSERT
  5
9FE
330
9AB
100
AcDbEntity
  8
250
  6
CONTINUOUS
100
AcDbBlockReference
  2
_OPEN
 10
50.0
 20
35.0
 30
0.0
 41
2.23
 42
2.23
 43
2.23
  0
MTEXT
  5
9FF
330
9AB
100
AcDbEntity
  8
250
  6
CONTINUOUS
 62
    40
100
AcDbMText
 10
44.5
 20
37.4
 30
0.0
 40
2.8
 41
0.0
 71
     5
 72
     1
  1
\A1;11
1001
ACAD
1000
MTEXTBEGIN
1070
    73
1070
     1
1070
    44
1040
1.0
1070
    74
1070
     0
1000
MTEXTEND
1000
MTEXTBEGIN
1070
    73
1070
     1
1070
    44
1040
1.0
1070
    74
1070
     0
1000
MTEXTEND
  0
POINT
  5
A00
330
9AB
100
AcDbEntity
  8
DEFPOINTS
  6
CONTINUOUS
 62
     0
100
AcDbPoint
 10
39.0
 20
25.0
 30
0.0
  0
POINT
  5
A01
330
9AB
100
AcDbEntity
  8
DEFPOINTS
  6
CONTINUOUS
 62
     0
100
AcDbPoint
 10
50.0
 20
25.0
 30
0.0
  0
POINT
  5
A02
330
9AB
100
AcDbEntity
  8
DEFPOINTS
  6
CONTINUOUS
 62
     0
100
AcDbPoint
 10
50.0
 20
35.0
 30
0.0
  0
ENDBLK
  5
9B6
330
9AB
100
AcDbEntity
  8
0
100
AcDbBlockEnd
  0
BLOCK
  5
9C4
330
9BA
100
AcDbEntity
  8
0
100
AcDbBlockBegin
  2
*D4
 70
     1
 10
0.0
 20
0.0
 30
0.0
  3
*D4
  1

  0
LINE
  5
B8C
330
9BA
100
AcDbEntity
  8
250
  6
CONTINUOUS
100
AcDbLine
 10
22.0
 20
23.5
 30
0.0
 11
22.0
 21
43.0
 31
0.0
  0
LINE
  5
B8D
330
9BA
100
AcDbEntity
  8
250
  6
CONTINUOUS
100
AcDbLine
 10
50.0
 20
25.5
 30
0.0
 11
50.0
 21
43.0
 31
0.0
  0
LINE
  5
B8E
330
9BA
100
AcDbEntity
  8
250
  6
CONTINUOUS
100
AcDbLine
 10
24.23
 20
42.0
 30
0.0
 11
47.77
 21
42.0
 31
0.0
  0
INSERT
  5
B8F
330
9BA
100
AcDbEntity
  8
250
  6
CONTINUOUS
100
AcDbBlockReference
  2
_OPEN
 10
22.0
 20
42.0
 30
0.0
 41
2.23
 42
2.23
 43
2.23
 50
180.0
  0
INSERT
  5
B90
330
9BA
100
AcDbEntity
  8
250
  6
CONTINUOUS
100
AcDbBlockReference
  2
_OPEN
 10
50.0
 20
42.0
 30
0.0
 41
2.23
 42
2.23
 43
2.23
  0
MTEXT
  5
B91
330
9BA
100
AcDbEntity
  8
250
  6
CONTINUOUS
 62
    40
100
AcDbMText
 10
36.0
 20
44.4
 30
0.0
 40
2.8
 41
0.0
 71
     5
 72
     1
  1
\A1;28
1001
ACAD
1000
MTEXTBEGIN
1070
    73
1070
     1
1070
    44
1040
1.0
1070
    74
1070
     0
1000
MTEXTEND
  0
POINT
  5
B92
330
9BA
100
AcDbEntity
  8
DEFPOINTS
  6
CONTINUOUS
 62
     0
100
AcDbPoint
 10
22.0
 20
23.0
 30
0.0
  0
POINT
  5
B93
330
9BA
100
AcDbEntity
  8
DEFPOINTS
  6
CONTINUOUS
 62
     0
100
AcDbPoint
 10
50.0
 20
25.0
 30
0.0
  0
POINT
  5
B94
330
9BA
100
AcDbEntity
  8
DEFPOINTS
  6
CONTINUOUS
 62
     0
100
AcDbPoint
 10
50.0
 20
42.0
 30
0.0
  0
ENDBLK
  5
9C5
330
9BA
100
AcDbEntity
  8
0
100
AcDbBlockEnd
  0
BLOCK
  5
9D3
330
9C9
100
AcDbEntity
  8
0
100
AcDbBlockBegin
  2
*D5
 70
     1
 10
0.0
 20
0.0
 30
0.0
  3
*D5
  1

  0
LINE
  5
9E8
330
9C9
100
AcDbEntity
  8
250
  6
CONTINUOUS
100
AcDbLine
 10
0.0
 20
16.375
 30
0.0
 11
0.0
 21
50.0
 31
0.0
  0
LINE
  5
9E9
330
9C9
100
AcDbEntity
  8
250
  6
CONTINUOUS
100
AcDbLine
 10
50.0
 20
25.5
 30
0.0
 11
50.0
 21
50.0
 31
0.0
  0
LINE
  5
9EA
330
9C9
100
AcDbEntity
  8
250
  6
CONTINUOUS
100
AcDbLine
 10
2.23
 20
49.0
 30
0.0
 11
47.77
 21
49.0
 31
0.0
  0
INSERT
  5
9EB
330
9C9
100
AcDbEntity
  8
250
  6
CONTINUOUS
100
AcDbBlockReference
  2
_OPEN
 10
0.0
 20
49.0
 30
0.0
 41
2.23
 42
2.23
 43
2.23
 50
180.0
  0
INSERT
  5
9EC
330
9C9
100
AcDbEntity
  8
250
  6
CONTINUOUS
100
AcDbBlockReference
  2
_OPEN
 10
50.0
 20
49.0
 30
0.0
 41
2.23
 42
2.23
 43
2.23
  0
MTEXT
  5
9ED
330
9C9
100
AcDbEntity
  8
250
  6
CONTINUOUS
 62
    40
100
AcDbMText
 10
25.0
 20
51.4
 30
0.0
 40
2.8
 41
0.0
 71
     5
 72
     1
  1
\A1;50
1001
ACAD
1000
MTEXTBEGIN
1070
    73
1070
     1
1070
    44
1040
1.0
1070
    74
1070
     0
1000
MTEXTEND
1000
MTEXTBEGIN
1070
    73
1070
     1
1070
    44
1040
1.0
1070
    74
1070
     0
1000
MTEXTEND
  0
POINT
  5
9EE
330
9C9
100
AcDbEntity
  8
DEFPOINTS
  6
CONTINUOUS
 62
     0
100
AcDbPoint
 10
0.0
 20
15.875
 30
0.0
  0
POINT
  5
9EF
330
9C9
100
AcDbEntity
  8
DEFPOINTS
  6
CONTINUOUS
 62
     0
100
AcDbPoint
 10
50.0
 20
25.0
 30
0.0
  0
POINT
  5
9F0
330
9C9
100
AcDbEntity
  8
DEFPOINTS
  6
CONTINUOUS
 62
     0
100
AcDbPoint
 10
50.0
 20
49.0
 30
0.0
  0
ENDBLK
  5
9D4
330
9C9
100
AcDbEntity
  8
0
100
AcDbBlockEnd
  0
BLOCK
  5
A04
330
A03
100
AcDbEntity
  8
0
100
AcDbBlockBegin
  2
1
 70
     0
 10
0.0
 20
0.0
 30
0.0
  3
1
  1

  0
LINE
  5
BB0
330
A03
100
AcDbEntity
  8
241
  6
CONTINUOUS
100
AcDbLine
 10
38.62351139
 20
3.60329651
 30
0.0
 11
37.07193983
 21
0.42210339
 31
0.0
1001
GRPNAME
1000
PASTMD0W
  0
LINE
  5
BB1
330
A03
100
AcDbEntity
  8
241
  6
CONTINUOUS
100
AcDbLine
 10
37.12716376
 20
0.53532922
 30
0.0
 11
49.4
 21
-3.93161786
 31
0.0
1001
GRPNAME
1000
PASTMD0W
  0
LINE
  5
BB2
330
A03
100
AcDbEntity
  8
240
  6
CONTINUOUS
100
AcDbLine
 10
49.4
 20
-24.3
 30
0.0
 11
38.10000001
 21
-24.55
 31
0.0
1001
GRPNAME
1000
PASTMD0W
  0
LINE
  5
BB3
330
A03
100
AcDbEntity
  8
240
  6
CONTINUOUS
100
AcDbLine
 10
49.4
 20
24.3
 30
0.0
 11
38.10000001
 21
24.55
 31
0.0
1001
GRPNAME
1000
PASTMD0W
  0
LINE
  5
BB4
330
A03
100
AcDbEntity
  8
241
  6
CONTINUOUS
100
AcDbLine
 10
25.90616721
 20
-7.03115464
 30
0.0
 11
49.4
 21
-19.65797904
 31
0.0
1001
GRPNAME
1000
PASTMD0W
  0
LINE
  5
BB5
330
A03
100
AcDbEntity
  8
245
  6
CENTER2
100
AcDbLine
 10
-49.4
 20
0.0
 30
0.0
 11
51.0
 21
0.0
 31
0.0
1001
GRPNAME
1000
PASTMD04
  0
LINE
  5
BB6
330
A03
100
AcDbEntity
  8
240
  6
CONTINUOUS
100
AcDbLine
 10
-47.54431023
 20
8.94129104
 30
0.0
 11
0.0
 21
15.875
 31
0.0
  0
LINE
  5
BB7
330
A03
100
AcDbEntity
  8
240
  6
CONTINUOUS
100
AcDbLine
 10
-47.54431023
 20
-8.94129104
 30
0.0
 11
0.0
 21
-15.875
 31
0.0
  0
LINE
  5
BB8
330
A03
100
AcDbEntity
  8
240
  6
CONTINUOUS
100
AcDbLine
 10
-48.4
 20
-7.95175854
 30
0.0
 11
-48.4
 21
0.0
 31
0.0
  0
ARC
  5
BB9
330
A03
100
AcDbEntity
  8
240
  6
CONTINUOUS
100
AcDbCircle
 10
-47.4
 20
-7.95175854
 30
0.0
 40
1.0
100
AcDbArc
 50
180.0
 51
261.70266184
  0
LINE
  5
BBA
330
A03
100
AcDbEntity
  8
240
  6
CONTINUOUS
100
AcDbLine
 10
-48.4
 20
7.95175854
 30
0.0
 11
-48.4
 21
0.0
 31
0.0
  0
ARC
  5
BBB
330
A03
100
AcDbEntity
  8
240
  6
CONTINUOUS
100
AcDbCircle
 10
-47.4
 20
7.95175854
 30
0.0
 40
1.0
100
AcDbArc
 50
98.29733816
 51
180.0
  0
LINE
  5
BBC
330
A03
100
AcDbEntity
  8
241
  6
CONTINUOUS
100
AcDbLine
 10
31.7
 20
-10.14506585
 30
0.0
 11
31.7
 21
-24.4
 31
0.0
1001
GRPNAME
1000
PASTMD04
  0
LINE
  5
BBD
330
A03
100
AcDbEntity
  8
241
  6
CONTINUOUS
100
AcDbLine
 10
30.3
 20
-23.0
 30
0.0
 11
30.3
 21
-9.39263204
 31
0.0
1001
GRPNAME
1000
PASTMD04
  0
LINE
  5
BBE
330
A03
100
AcDbEntity
  8
241
  6
CONTINUOUS
100
AcDbLine
 10
22.0
 20
0.0
 30
0.0
 11
22.0
 21
-23.0
 31
0.0
  0
LINE
  5
BBF
330
A03
100
AcDbEntity
  8
241
100
AcDbLine
 10
0.0
 20
-15.875
 30
0.0
 11
0.0
 21
0.0
 31
0.0
  0
LINE
  5
BC0
330
A03
100
AcDbEntity
  8
241
100
AcDbLine
 10
1.0
 20
0.0
 30
0.0
 11
1.0
 21
-15.875
 31
0.0
  0
LINE
  5
BC1
330
A03
100
AcDbEntity
  8
245
  6
CENTER2
100
AcDbLine
 10
13.6
 20
-23.0
 30
0.0
 11
13.6
 21
23.0
 31
0.0
  0
LINE
  5
BC2
330
A03
100
AcDbEntity
  8
241
  6
CONTINUOUS
100
AcDbLine
 10
15.29059892
 20
-19.0
 30
0.0
 11
15.29059892
 21
0.04377196
 31
0.0
  0
LINE
  5
BC3
330
A03
100
AcDbEntity
  8
241
  6
CONTINUOUS
100
AcDbLine
 10
17.6
 20
0.0
 30
0.0
 11
17.6
 21
-23.0
 31
0.0
  0
LINE
  5
BC4
330
A03
100
AcDbEntity
  8
241
  6
CONTINUOUS
100
AcDbLine
 10
11.90940108
 20
-19.0
 30
0.0
 11
11.90940108
 21
0.04377196
 31
0.0
  0
LINE
  5
BC5
330
A03
100
AcDbEntity
  8
241
  6
CONTINUOUS
100
AcDbLine
 10
9.6
 20
-23.0
 30
0.0
 11
9.6
 21
0.0
 31
0.0
  0
LINE
  5
BC6
330
A03
100
AcDbEntity
  8
243
  6
HIDDEN2
100
AcDbLine
 10
19.0
 20
-16.3
 30
0.0
 11
1.0
 21
-16.3
 31
0.0
  0
LINE
  5
BC7
330
A03
100
AcDbEntity
  8
240
  6
CONTINUOUS
100
AcDbLine
 10
9.6
 20
-23.0
 30
0.0
 11
1.0
 21
-23.0
 31
0.0
  0
LINE
  5
BC8
330
A03
100
AcDbEntity
  8
240
  6
CONTINUOUS
100
AcDbLine
 10
1.0
 20
-15.875
 30
0.0
 11
1.0
 21
-23.0
 31
0.0
  0
LINE
  5
BC9
330
A03
100
AcDbEntity
  8
240
100
AcDbLine
 10
0.0
 20
-15.875
 30
0.0
 11
1.0
 21
-15.875
 31
0.0
  0
LINE
  5
BCA
330
A03
100
AcDbEntity
  8
240
  6
CONTINUOUS
100
AcDbLine
 10
17.6
 20
-23.0
 30
0.0
 11
30.3
 21
-23.0
 31
0.0
  0
LINE
  5
BCB
330
A03
100
AcDbEntity
  8
240
  6
CONTINUOUS
100
AcDbLine
 10
11.90940108
 20
-19.0
 30
0.0
 11
9.6
 21
-23.0
 31
0.0
  0
LINE
  5
BCC
330
A03
100
AcDbEntity
  8
240
  6
CONTINUOUS
100
AcDbLine
 10
15.29059892
 20
-19.0
 30
0.0
 11
17.6
 21
-23.0
 31
0.0
  0
LINE
  5
BCD
330
A03
100
AcDbEntity
  8
243
  6
HIDDEN2
100
AcDbLine
 10
19.0
 20
-16.3
 30
0.0
 11
19.0
 21
-23.0
 31
0.0
  0
LINE
  5
BCE
330
A03
100
AcDbEntity
  8
240
  6
CONTINUOUS
100
AcDbLine
 10
11.90940108
 20
-19.0
 30
0.0
 11
15.29059892
 21
-19.0
 31
0.0
  0
LINE
  5
BCF
330
A03
100
AcDbEntity
  8
240
  6
CONTINUOUS
100
AcDbLine
 10
37.35358983
 20
-24.4
 30
0.0
 11
31.7
 21
-24.4
 31
0.0
1001
GRPNAME
1000
PASTMD0W
  0
LINE
  5
BD0
330
A03
100
AcDbEntity
  8
240
  6
CONTINUOUS
100
AcDbLine
 10
31.7
 20
-24.4
 30
0.0
 11
30.3
 21
-23.0
 31
0.0
1001
GRPNAME
1000
PASTMD04
  0
LINE
  5
BD1
330
A03
100
AcDbEntity
  8
240
  6
CONTINUOUS
100
AcDbLine
 10
38.10000001
 20
-24.55
 30
0.0
 11
37.35358983
 21
-24.4
 31
0.0
1001
GRPNAME
1000
PASTMD0W
  0
LINE
  5
BD2
330
A03
100
AcDbEntity
  8
240
  6
CONTINUOUS
100
AcDbLine
 10
9.6
 20
23.0
 30
0.0
 11
1.0
 21
23.0
 31
0.0
  0
LINE
  5
BD3
330
A03
100
AcDbEntity
  8
241
  6
HIDDEN2
100
AcDbLine
 10
19.0
 20
16.3
 30
0.0
 11
1.0
 21
16.3
 31
0.0
  0
LINE
  5
BD4
330
A03
100
AcDbEntity
  8
241
100
AcDbLine
 10
0.0
 20
15.875
 30
0.0
 11
0.0
 21
0.0
 31
0.0
  0
LINE
  5
BD5
330
A03
100
AcDbEntity
  8
241
100
AcDbLine
 10
1.0
 20
0.0
 30
0.0
 11
1.0
 21
15.875
 31
0.0
  0
LINE
  5
BD6
330
A03
100
AcDbEntity
  8
240
  6
CONTINUOUS
100
AcDbLine
 10
1.0
 20
15.875
 30
0.0
 11
1.0
 21
23.0
 31
0.0
  0
LINE
  5
BD7
330
A03
100
AcDbEntity
  8
240
100
AcDbLine
 10
0.0
 20
15.875
 30
0.0
 11
1.0
 21
15.875
 31
0.0
  0
LINE
  5
BD8
330
A03
100
AcDbEntity
  8
241
  6
CONTINUOUS
100
AcDbLine
 10
31.7
 20
24.4
 30
0.0
 11
31.7
 21
1.36932132
 31
0.0
1001
GRPNAME
1000
PASTMD04
  0
LINE
  5
BD9
330
A03
100
AcDbEntity
  8
241
  6
CONTINUOUS
100
AcDbLine
 10
30.3
 20
23.0
 30
0.0
 11
30.3
 21
1.6161791
 31
0.0
1001
GRPNAME
1000
PASTMD04
  0
LINE
  5
BDA
330
A03
100
AcDbEntity
  8
241
  6
CONTINUOUS
100
AcDbLine
 10
22.0
 20
0.0
 30
0.0
 11
22.0
 21
23.0
 31
0.0
  0
LINE
  5
BDB
330
A03
100
AcDbEntity
  8
241
  6
CONTINUOUS
100
AcDbLine
 10
11.90940108
 20
19.0
 30
0.0
 11
11.90940108
 21
-0.04377196
 31
0.0
  0
LINE
  5
BDC
330
A03
100
AcDbEntity
  8
241
  6
CONTINUOUS
100
AcDbLine
 10
15.29059892
 20
19.0
 30
0.0
 11
15.29059892
 21
-0.04377196
 31
0.0
  0
LINE
  5
BDD
330
A03
100
AcDbEntity
  8
241
  6
CONTINUOUS
100
AcDbLine
 10
17.6
 20
0.0
 30
0.0
 11
17.6
 21
23.0
 31
0.0
  0
LINE
  5
BDE
330
A03
100
AcDbEntity
  8
241
  6
CONTINUOUS
100
AcDbLine
 10
9.6
 20
23.0
 30
0.0
 11
9.6
 21
0.0
 31
0.0
  0
ARC
  5
BDF
330
A03
100
AcDbEntity
  8
241
  6
CONTINUOUS
100
AcDbCircle
 10
28.1592454
 20
-2.83901254
 30
0.0
 40
4.759245396937231
100
AcDbArc
 50
79.99999996
 51
241.74405444
1001
GRPNAME
1000
PASTMD0W
  0
LINE
  5
BE0
330
A03
100
AcDbEntity
  8
241
  6
CONTINUOUS
100
AcDbLine
 10
28.98567969
 20
1.84792923
 30
0.0
 11
37.07193983
 21
0.42210339
 31
0.0
1001
GRPNAME
1000
PASTMD0W
  0
LINE
  5
BE1
330
A03
100
AcDbEntity
  8
240
  6
CONTINUOUS
100
AcDbLine
 10
17.6
 20
23.0
 30
0.0
 11
30.3
 21
23.0
 31
0.0
  0
LINE
  5
BE2
330
A03
100
AcDbEntity
  8
240
  6
CONTINUOUS
100
AcDbLine
 10
15.29059892
 20
19.0
 30
0.0
 11
17.6
 21
23.0
 31
0.0
  0
LINE
  5
BE3
330
A03
100
AcDbEntity
  8
241
  6
HIDDEN2
100
AcDbLine
 10
19.0
 20
16.3
 30
0.0
 11
19.0
 21
23.0
 31
0.0
  0
LINE
  5
BE4
330
A03
100
AcDbEntity
  8
240
  6
CONTINUOUS
100
AcDbLine
 10
11.90940108
 20
19.0
 30
0.0
 11
9.6
 21
23.0
 31
0.0
  0
LINE
  5
BE5
330
A03
100
AcDbEntity
  8
240
  6
CONTINUOUS
100
AcDbLine
 10
11.90940108
 20
19.0
 30
0.0
 11
15.29059892
 21
19.0
 31
0.0
  0
LINE
  5
BE6
330
A03
100
AcDbEntity
  8
240
  6
CONTINUOUS
100
AcDbLine
 10
37.35358983
 20
24.4
 30
0.0
 11
31.7
 21
24.4
 31
0.0
1001
GRPNAME
1000
PASTMD0W
  0
LINE
  5
BE7
330
A03
100
AcDbEntity
  8
240
  6
CONTINUOUS
100
AcDbLine
 10
31.7
 20
24.4
 30
0.0
 11
30.3
 21
23.0
 31
0.0
1001
GRPNAME
1000
PASTMD04
  0
LINE
  5
BE8
330
A03
100
AcDbEntity
  8
240
  6
CONTINUOUS
100
AcDbLine
 10
38.10000001
 20
24.55
 30
0.0
 11
37.35358983
 21
24.4
 31
0.0
1001
GRPNAME
1000
PASTMD0W
  0
LINE
  5
BE9
330
A03
100
AcDbEntity
  8
240
  6
CONTINUOUS
100
AcDbLine
 10
49.4
 20
-24.3
 30
0.0
 11
49.4
 21
-3.93161786
 31
0.0
1001
GRPNAME
1000
PASTMD0W
  0
LINE
  5
BEA
330
A03
100
AcDbEntity
  8
246
100
AcDbLine
 10
50.0
 20
25.0
 30
0.0
 11
50.0
 21
-25.0
 31
0.0
1001
GRPNAME
1000
PASTMD0W
  0
LINE
  5
BEB
330
A03
100
AcDbEntity
  8
246
100
AcDbLine
 10
50.0
 20
-25.0
 30
0.0
 11
39.0
 21
-25.0
 31
0.0
  0
LINE
  5
BEC
330
A03
100
AcDbEntity
  8
240
  6
CONTINUOUS
100
AcDbLine
 10
49.4
 20
1.70311081
 30
0.0
 11
49.4
 21
24.3
 31
0.0
1001
GRPNAME
1000
PASTMD0W
  0
LINE
  5
BED
330
A03
100
AcDbEntity
  8
240
  6
CONTINUOUS
100
AcDbLine
 10
49.3845265
 20
1.70583921
 30
0.0
 11
50.0
 21
-4.15
 31
0.0
1001
GRPNAME
1000
PASTMD0W
  0
LINE
  5
BEE
330
A03
100
AcDbEntity
  8
240
  6
CONTINUOUS
100
AcDbLine
 10
50.0
 20
-4.15
 30
0.0
 11
49.4
 21
-3.93161786
 31
0.0
1001
GRPNAME
1000
PASTMD0W
  0
LINE
  5
BEF
330
A03
100
AcDbEntity
  8
241
  6
CONTINUOUS
100
AcDbLine
 10
49.3845265
 20
1.70583921
 30
0.0
 11
38.62351139
 21
3.60329651
 31
0.0
1001
GRPNAME
1000
PASTMD0W
  0
LINE
  5
BF0
330
A03
100
AcDbEntity
  8
240
  6
CONTINUOUS
100
AcDbLine
 10
49.4
 20
1.70311081
 30
0.0
 11
49.3845265
 21
1.70583921
 31
0.0
1001
GRPNAME
1000
PASTMD0W
  0
LWPOLYLINE
  5
BF1
330
A03
100
AcDbEntity
  8
241
  6
CONTINUOUS
100
AcDbPolyline
 90
       70
 70
     0
 43
0.0
 10
43.74556821
 20
14.16627101
 10
43.72222794
 20
14.02283172
 10
43.70271196
 20
13.87902433
 10
43.68706073
 20
13.73514687
 10
43.67530669
 20
13.59149753
 10
43.66747418
 20
13.44837402
 10
43.66357946
 20
13.30607297
 10
43.66363058
 20
13.16488929
 10
43.66762744
 20
13.02511558
 10
43.67556176
 20
12.88704152
 10
43.68741709
 20
12.75095327
 10
43.70316887
 20
12.61713287
 10
43.72278445
 20
12.48585766
 10
43.74622317
 20
12.35739971
 10
43.77343646
 20
12.23202524
 10
43.80436792
 20
12.1099941
 10
43.83895345
 20
11.99155919
 10
43.87712136
 20
11.87696596
 10
43.91879256
 20
11.76645191
 10
43.96388068
 20
11.66024608
 10
44.01229228
 20
11.55856858
 10
44.06392702
 20
11.46163013
 10
44.11867789
 20
11.36963164
 10
44.17643143
 20
11.28276377
 10
44.23706793
 20
11.20120656
 10
44.30046173
 20
11.12512903
 10
44.36648144
 20
11.05468885
 10
44.43499025
 20
10.99003202
 10
44.50584617
 20
10.93129252
 10
44.57890234
 20
10.8785921
 10
44.65400737
 20
10.83203997
 10
44.73100559
 20
10.79173262
 10
44.80973743
 20
10.75775358
 10
44.89003972
 20
10.73017328
 10
44.97174603
 20
10.70904887
 10
45.05468703
 20
10.69442413
 10
45.13869082
 20
10.68632938
 10
45.22358331
 20
10.68478139
 10
45.30918856
 20
10.68978336
 10
45.39532915
 20
10.70132494
 10
45.48182655
 20
10.7193822
 10
45.5685015
 20
10.74391771
 10
45.65517438
 20
10.77488063
 10
45.74166554
 20
10.8122068
 10
45.82779574
 20
10.85581884
 10
45.91338647
 20
10.90562637
 10
45.99826035
 20
10.96152618
 10
46.08224148
 20
11.0234024
 10
46.16515581
 20
11.0911268
 10
46.2468315
 20
11.16455903
 10
46.32709927
 20
11.24354688
 10
46.40579278
 20
11.32792667
 10
46.48274893
 20
11.41752352
 10
46.55780823
 20
11.51215173
 10
46.63081512
 20
11.6116152
 10
46.70161829
 20
11.71570778
 10
46.77007102
 20
11.82421375
 10
46.83603142
 20
11.93690822
 10
46.8993628
 20
12.05355764
 10
46.9599339
 20
12.17392026
 10
47.01761919
 20
12.29774662
 10
47.07229912
 20
12.4247801
 10
47.12386037
 20
12.55475742
 10
47.17219607
 20
12.6874092
 10
47.21720605
 20
12.82246052
 10
47.25879702
 20
12.9596315
 10
47.2968828
 20
13.09863784
 10
47.33138445
 20
13.23919147
 10
47.36223045
 20
13.38100107
 10
47.3893569
 20
13.52377276
1001
GRPNAME
1000
PASTMD0W
  0
LWPOLYLINE
  5
BF2
330
A03
100
AcDbEntity
  8
241
  6
CONTINUOUS
100
AcDbPolyline
 90
       70
 70
     0
 43
0.0
 10
47.3893569
 20
13.52377276
 10
47.40622712
 20
13.630509
 10
47.4192864
 20
13.73768963
 10
47.42850766
 20
13.8450925
 10
47.43387178
 20
13.95249503
 10
47.43536766
 20
14.05967461
 10
47.43299219
 20
14.16640911
 10
47.42675029
 20
14.27247732
 10
47.41665491
 20
14.3776594
 10
47.40272696
 20
14.48173737
 10
47.38499531
 20
14.58449552
 10
47.36349671
 20
14.68572088
 10
47.33827572
 20
14.78520365
 10
47.30938461
 20
14.88273765
 10
47.27688325
 20
14.97812073
 10
47.24083902
 20
15.07115522
 10
47.2013266
 20
15.1616483
 10
47.1584279
 20
15.2494124
 10
47.11223181
 20
15.33426565
 10
47.06283409
 20
15.41603217
 10
47.01033712
 20
15.4945425
 10
46.95484969
 20
15.56963393
 10
46.8964868
 20
15.64115083
 10
46.83536942
 20
15.70894497
 10
46.77162422
 20
15.77287585
 10
46.7053833
 20
15.83281096
 10
46.63678396
 20
15.8886261
 10
46.56596837
 20
15.94020557
 10
46.49308329
 20
15.98744249
 10
46.4182798
 20
16.03023895
 10
46.34171291
 20
16.06850625
 10
46.26354132
 20
16.10216508
 10
46.18392704
 20
16.13114569
 10
46.10303508
 20
16.155388
 10
46.02103308
 20
16.17484178
 10
45.93809101
 20
16.1894667
 10
45.85438075
 20
16.19923246
 10
45.77007581
 20
16.20411882
 10
45.68535091
 20
16.20411565
 10
45.60038165
 20
16.19922295
 10
45.51534412
 20
16.18945087
 10
45.43041458
 20
16.17481966
 10
45.34576903
 20
16.15535964
 10
45.26158293
 20
16.13111114
 10
45.17803073
 20
16.10212443
 10
45.09528561
 20
16.06845957
 10
45.01351906
 20
16.03018634
 10
44.93290055
 20
15.98738406
 10
44.85359716
 20
15.94014145
 10
44.77577325
 20
15.8885564
 10
44.69959012
 20
15.83273585
 10
44.62520565
 20
15.77279546
 10
44.55277401
 20
15.70885949
 10
44.48244532
 20
15.64106042
 10
44.41436534
 20
15.56953879
 10
44.34867517
 20
15.49444283
 10
44.28551095
 20
15.41592816
 10
44.22500359
 20
15.33415752
 10
44.1672785
 20
15.24930039
 10
44.11245532
 20
15.16153262
 10
44.06064766
 20
15.07103613
 10
44.01196291
 20
14.97799846
 10
43.96650196
 20
14.88261246
 10
43.92435903
 20
14.7850758
 10
43.88562147
 20
14.68559063
 10
43.85036955
 20
14.58436315
 10
43.81867636
 20
14.48160315
 10
43.79060756
 20
14.37752361
 10
43.76622133
 20
14.27234023
 10
43.74556821
 20
14.16627101
1001
GRPNAME
1000
PASTMD0W
  0
LINE
  5
BF3
330
A03
100
AcDbEntity
  8
246
100
AcDbLine
 10
50.0
 20
25.0
 30
0.0
 11
39.0
 21
25.0
 31
0.0
  0
ENDBLK
  5
A05
330
A03
100
AcDbEntity
  8
0
100
AcDbBlockEnd
  0
ENDSEC
  0
SECTION
  2
ENTITIES
  0
INSERT
  5
6E6
330
1A
100
AcDbEntity
  8
245
100
AcDbBlockReference
  2
矢印なし
 10
175.62382697
 20
90.55123572
 30
0.0
  0
TEXT
  5
8A8
330
1A
100
AcDbEntity
  8
241
100
AcDbText
 10
-48.4
 20
63.0
 30
0.0
 40
5.0
  1
BBT30-FCM50115-50
  7
YOKO
 11
-48.4
 21
63.0
 31
0.0
100
AcDbText
 73
     1
  0
DIMENSION
  5
99B
330
1A
100
AcDbEntity
  8
250
  6
CONTINUOUS
100
AcDbDimension
  2
*D2
 10
63.0
 20
25.0
 30
0.0
 11
60.6
 21
0.0
 31
0.0
 70
    32
  1
{\H2.8;\U+2205}<>
  3
BIGT
100
AcDbAlignedDimension
 13
50.0
 23
-25.0
 33
0.0
 14
50.0
 24
25.0
 34
0.0
 50
90.0
100
AcDbRotatedDimension
  0
DIMENSION
  5
9AA
330
1A
100
AcDbEntity
  8
250
  6
CONTINUOUS
100
AcDbDimension
  2
*D3
 10
50.0
 20
35.0
 30
0.0
 11
44.5
 21
37.4
 31
0.0
 70
    32
  3
BIGT
100
AcDbAlignedDimension
 13
39.0
 23
25.0
 33
0.0
 14
50.0
 24
25.0
 34
0.0
100
AcDbRotatedDimension
  0
DIMENSION
  5
9B9
330
1A
100
AcDbEntity
  8
250
  6
CONTINUOUS
100
AcDbDimension
  2
*D4
 10
50.0
 20
42.0
 30
0.0
 11
36.0
 21
44.4
 31
0.0
 70
    32
  3
BIGT
100
AcDbAlignedDimension
 13
22.0
 23
23.0
 33
0.0
 14
50.0
 24
25.0
 34
0.0
100
AcDbRotatedDimension
  0
DIMENSION
  5
9C8
330
1A
100
AcDbEntity
  8
250
  6
CONTINUOUS
100
AcDbDimension
  2
*D5
 10
50.0
 20
49.0
 30
0.0
 11
25.0
 21
51.4
 31
0.0
 70
    32
  3
BIGT
100
AcDbAlignedDimension
 13
0.0
 23
15.875
 33
0.0
 14
50.0
 24
25.0
 34
0.0
100
AcDbRotatedDimension
  0
MTEXT
  5
B51
330
1A
100
AcDbEntity
  8
251
  6
CONTINUOUS
100
AcDbMText
 10
-42.44207074
 20
-20.23884234
 30
0.0
 40
2.8
 41
0.0
 71
     7
 72
     1
  1
BBT30
  7
YOKO
1001
ITEMNAME
1000
LNSP3
1001
ACAD
1000
MTEXTBEGIN
1070
    73
1070
     1
1070
    44
1040
1.0
1070
    74
1070
     0
1000
MTEXTEND
1000
MTEXTBEGIN
1070
    73
1070
     1
1070
    44
1040
1.0
1070
    74
1070
     0
1000
MTEXTEND
1000
MTEXTBEGIN
1070
    73
1070
     1
1070
    44
1040
1.0
1070
    74
1070
     0
1000
MTEXTEND
  0
LEADER
  5
B52
330
1A
100
AcDbEntity
  8
250
  6
CONTINUOUS
100
AcDbLeader
  3
BIGT
 76
     2
 10
-22.51609141
 20
-12.5913258
 30
0.0
 10
-27.50873741
 20
-21.23884234
 30
0.0
1001
ACAD
1000
DSTYLE
1002
{
1070
     6
1000
OPEN
1070
   343
1005
594
1002
}
  0
LINE
  5
B53
330
1A
100
AcDbEntity
  8
250
  6
CONTINUOUS
100
AcDbLine
 10
-27.50873741
 20
-21.23884234
 30
0.0
 11
-45.24207074
 21
-21.23884234
 31
0.0
1001
ITEMNAME
1000
LNSP2
  0
INSERT
  5
BF4
330
1A
100
AcDbEntity
  8
245
100
AcDbBlockReference
  2
1
 10
0.0
 20
0.0
 30
0.0
  0
VIEWPORT
  5
22
330
17
100
AcDbEntity
 67
     1
  8
0
100
AcDbViewport
 10
261.51769912
 20
148.5
 30
0.0
 40
523.03539823
 41
297.0
 68
     1
 69
     1
1001
ACAD
1000
MVIEW
1002
{
1070
    16
1010
0.0
1020
0.0
1030
0.0
1010
0.0
1020
0.0
1030
1.0
1040
0.0
1040
297.0
1040
261.51769912
1040
148.5
1040
50.0
1040
0.0
1040
0.0
1070
     0
1070
   100
1070
     1
1070
     1
1070
     0
1070
     0
1070
     0
1070
     0
1040
0.0
1040
0.0
1040
0.0
1040
1.0
1040
1.0
1040
10.0
1040
10.0
1070
     0
1002
{
1002
}
1002
}
  0
ENDSEC
  0
SECTION
  2
OBJECTS
  0
DICTIONARY
  5
C
330
0
100
AcDbDictionary
  3
ACAD_GROUP
350
D
  3
ACAD_LAYOUT
350
565
  3
ACAD_MLINESTYLE
350
E
  3
ACAD_PLOTSETTINGS
350
566
  3
ACAD_PLOTSTYLENAME
350
563
  3
ACDBHEADERROUNDTRIPXREC
350
C40
  3
GRADE_DWG
350
540
  0
DICTIONARY
  5
AB0
330
1A
100
AcDbDictionary
280
     1
  3
ACAD_LAYOUTSELFREF
360
C62
  0
DICTIONARY
  5
AAE
330
17
100
AcDbDictionary
280
     1
  3
ACAD_LAYOUTSELFREF
360
C61
  0
DICTIONARY
  5
D
102
{ACAD_REACTORS
330
C
102
}
330
C
100
AcDbDictionary
  3
*A1
350
6C7
  3
*A2
350
6C8
  3
*A3
350
6D4
  3
*A4
350
6D5
  3
DREC-1
350
5FC
  3
DREC-2
350
654
  3
DREC-3
350
673
  0
DICTIONARY
  5
565
102
{ACAD_REACTORS
330
C
102
}
330
C
100
AcDbDictionary
  0
DICTIONARY
  5
E
102
{ACAD_REACTORS
330
C
102
}
330
C
100
AcDbDictionary
  3
STANDARD
350
13
  0
DICTIONARY
  5
566
102
{ACAD_REACTORS
330
C
102
}
330
C
100
AcDbDictionary
  3
A3_0_5倍_
350
758
  3
A3_1倍_
350
757
  3
A3_1倍__2000_
350
707
  3
A3_2倍_
350
759
  3
A4_0_5倍_
350
755
  3
A4_1倍_
350
754
  3
A4_1倍__2000_
350
708
  3
A4_2倍_
350
756
  0
ACDBDICTIONARYWDFLT
  5
563
102
{ACAD_REACTORS
330
C
102
}
330
C
100
AcDbDictionary
281
     1
  3
Normal
350
564
100
AcDbDictionaryWithDefault
340
564
  0
DICTIONARY
  5
C40
102
{ACAD_REACTORS
330
C
102
}
330
C
100
AcDbDictionary
  3
CEPSNTYPE
350
C4A
  3
DIMSTYLEDATA
350
C4E
  3
FINGERPRINTGUID
350
C4B
  3
HYPERLINKBASE
350
C43
  3
INSUNITS
350
C49
  3
LAYOUTDICT
350
C45
  3
LWETCUNION
350
C48
  3
PLOTSETDICT
350
C46
  3
PLOTSTYLNAMDICT
350
C47
  3
PSVPSCALE
350
C4D
  3
PUCSBASE
350
C51
  3
PUCSORGBACK
350
C57
  3
PUCSORGBOTTOM
350
C53
  3
PUCSORGFRONT
350
C56
  3
PUCSORGLEFT
350
C54
  3
PUCSORGRIGHT
350
C55
  3
PUCSORGTOP
350
C52
  3
PUCSORTHOREF
350
C4F
  3
PUCSORTHOVIEW
350
C50
  3
STYLESHEET
350
C44
  3
TSTACKALIGN
350
C41
  3
TSTACKSIZE
350
C42
  3
UCSBASE
350
C5A
  3
UCSORGBACK
350
C60
  3
UCSORGBOTTOM
350
C5C
  3
UCSORGFRONT
350
C5F
  3
UCSORGLEFT
350
C5D
  3
UCSORGRIGHT
350
C5E
  3
UCSORGTOP
350
C5B
  3
UCSORTHOREF
350
C58
  3
UCSORTHOVIEW
350
C59
  3
VERSIONGUID
350
C4C
  0
DICTIONARY
  5
540
102
{ACAD_REACTORS
330
C
102
}
330
C
100
AcDbDictionary
  3
VERSION
350
560
  0
XRECORD
  5
C62
102
{ACAD_REACTORS
330
AB0
102
}
330
AB0
100
AcDbXrecord
340
1A
  0
XRECORD
  5
C61
102
{ACAD_REACTORS
330
AAE
102
}
330
AAE
100
AcDbXrecord
340
17
  0
GROUP
  5
6C7
102
{ACAD_REACTORS
330
D
102
}
330
D
100
AcDbGroup
300

 70
     0
 71
     1
1001
GRPNAME
1000
DMA00
  0
GROUP
  5
6C8
102
{ACAD_REACTORS
330
D
102
}
330
D
100
AcDbGroup
300

 70
     0
 71
     1
1001
GRPNAME
1000
DMA00
  0
GROUP
  5
6D4
102
{ACAD_REACTORS
330
D
102
}
330
D
100
AcDbGroup
300

 70
     0
 71
     1
1001
GRPNAME
1000
DMA00
  0
GROUP
  5
6D5
102
{ACAD_REACTORS
330
D
102
}
330
D
100
AcDbGroup
300

 70
     0
 71
     1
1001
GRPNAME
1000
DMA00
  0
GROUP
  5
5FC
102
{ACAD_REACTORS
330
D
102
}
330
D
100
AcDbGroup
300

 70
     0
 71
     1
1001
GRPNAME
1000
DREC-
1001
GPARA
1000
xsiz
1000
44.182
1000
ysiz
1000
40.677
1000
angl
1000
0
1000
ctyp
1000
0
1000
csiz
1000
5
1000
lfnt
1000
cont
1000
hcnt
1000
hoff
1000
vcnt
1000
voff
1000
opnt
1000
4
1000
dxpt
1000
0
1000
dypt
1000
0
  0
GROUP
  5
654
102
{ACAD_REACTORS
330
D
102
}
330
D
100
AcDbGroup
300

 70
     0
 71
     1
1001
GRPNAME
1000
DREC-
1001
GPARA
1000
xsiz
1000
54.592
1000
ysiz
1000
53.036
1000
angl
1000
0
1000
ctyp
1000
0
1000
csiz
1000
5
1000
lfnt
1000
cont
1000
hcnt
1000
hoff
1000
vcnt
1000
voff
1000
opnt
1000
4
1000
dxpt
1000
0
1000
dypt
1000
0
  0
GROUP
  5
673
102
{ACAD_REACTORS
330
D
102
}
330
D
100
AcDbGroup
300

 70
     0
 71
     1
1001
GRPNAME
1000
DREC-
1001
GPARA
1000
xsiz
1000
30.363
1000
ysiz
1000
36.175
1000
angl
1000
0
1000
ctyp
1000
0
1000
csiz
1000
5
1000
lfnt
1000
cont
1000
hcnt
1000
hoff
1000
vcnt
1000
voff
1000
opnt
1000
4
1000
dxpt
1000
0
1000
dypt
1000
0
  0
MLINESTYLE
  5
13
102
{ACAD_REACTORS
330
E
102
}
330
E
100
AcDbMlineStyle
  2
STANDARD
 70
     0
  3

 62
     0
 51
90.0
 52
90.0
 71
     2
 49
0.5
 62
   256
  6
BYLAYER
 49
-0.5
 62
   256
  6
BYLAYER
  0
PLOTSETTINGS
  5
758
102
{ACAD_REACTORS
330
566
102
}
330
566
100
AcDbPlotSettings
  1
A3(0.5倍)
  2
\\AWTECPC05\HP DeskJet 1120C
  4
A3
  6

 40
5.95841646
 41
13.49375153
 42
6.04309082
 43
3.67242432
 44
296.92599487
 45
419.94665527
 46
89.96
 47
127.14
 48
0.0
 49
0.0
140
0.0
141
0.0
142
1.0
143
2.0
 70
  1716
 72
     1
 73
     1
 74
     2
  7
big.ctb
 75
    17
147
0.5
148
0.0
149
0.0
  0
PLOTSETTINGS
  5
757
102
{ACAD_REACTORS
330
566
102
}
330
566
100
AcDbPlotSettings
  1
A3(1倍)
  2
\\AWTECPC05\HP DeskJet 1120C
  4
A3
  6

 40
5.95841646
 41
13.49375153
 42
6.04309082
 43
3.67242432
 44
296.92599487
 45
419.94665527
 46
37.46
 47
52.89
 48
0.0
 49
0.0
140
0.0
141
0.0
142
1.0
143
1.0
 70
  1716
 72
     1
 73
     1
 74
     2
  7
big.ctb
 75
    16
147
1.0
148
0.0
149
0.0
  0
PLOTSETTINGS
  5
707
102
{ACAD_REACTORS
330
566
102
}
330
566
100
AcDbPlotSettings
  1
A3(1倍)(2000)
  2
SII LS-1300 (D-SCAN)
  4
User258
  6

 40
3.17499995
 41
3.17499995
 42
3.17498779
 43
3.17498779
 44
419.98898315
 45
296.98950195
 46
58.32
 47
40.32
 48
0.0
 49
0.0
140
0.0
141
0.0
142
1.0
143
1.0
 70
  1716
 72
     1
 73
     0
 74
     2
  7
big.ctb
 75
    16
147
1.0
148
0.0
149
0.0
  0
PLOTSETTINGS
  5
759
102
{ACAD_REACTORS
330
566
102
}
330
566
100
AcDbPlotSettings
  1
A3(2倍)
  2
\\AWTECPC05\HP DeskJet 1120C
  4
A3
  6

 40
5.95841646
 41
13.49375153
 42
6.04309082
 43
3.67242432
 44
296.92599487
 45
419.94665527
 46
-67.54
 47
-95.61
 48
0.0
 49
0.0
140
0.0
141
0.0
142
1.0
143
0.5
 70
  1716
 72
     1
 73
     1
 74
     2
  7
big.ctb
 75
    27
147
2.0
148
0.0
149
0.0
  0
PLOTSETTINGS
  5
755
102
{ACAD_REACTORS
330
566
102
}
330
566
100
AcDbPlotSettings
  1
A4(0.5倍)
  2
\\AWTECPC05\HP DeskJet 1120C
  4
A4
  6

 40
4.18041658
 41
13.49374962
 42
4.18040466
 43
3.92642212
 44
209.97332764
 45
296.92599487
 46
48.31
 47
65.5
 48
0.0
 49
0.0
140
0.0
141
0.0
142
1.0
143
2.0
 70
  1716
 72
     1
 73
     1
 74
     2
  7
big.ctb
 75
    17
147
0.5
148
0.0
149
0.0
  0
PLOTSETTINGS
  5
754
102
{ACAD_REACTORS
330
566
102
}
330
566
100
AcDbPlotSettings
  1
A4(1倍)
  2
\\AWTECPC05\HP DeskJet 1120C
  4
A4
  6

 40
4.18041658
 41
13.49374962
 42
4.18040466
 43
3.92642212
 44
209.97332764
 45
296.92599487
 46
-4.19
 47
-8.75
 48
0.0
 49
0.0
140
0.0
141
0.0
142
1.0
143
1.0
 70
  1716
 72
     1
 73
     1
 74
     2
  7
big.ctb
 75
    16
147
1.0
148
0.0
149
0.0
  0
PLOTSETTINGS
  5
708
102
{ACAD_REACTORS
330
566
102
}
330
566
100
AcDbPlotSettings
  1
A4(1倍)(2000)
  2
SII LS-1300 (D-SCAN)
  4
User259
  6

 40
3.17499995
 41
3.17499995
 42
3.17498779
 43
3.17500305
 44
296.98950195
 45
209.99449158
 46
-3.18
 47
-3.18
 48
0.0
 49
0.0
140
0.0
141
0.0
142
1.0
143
1.0
 70
  1716
 72
     1
 73
     0
 74
     2
  7
big.ctb
 75
    16
147
1.0
148
0.0
149
0.0
  0
PLOTSETTINGS
  5
756
102
{ACAD_REACTORS
330
566
102
}
330
566
100
AcDbPlotSettings
  1
A4(2倍)
  2
\\AWTECPC05\HP DeskJet 1120C
  4
A4
  6

 40
4.18041658
 41
13.49374962
 42
4.18040466
 43
3.92642212
 44
209.97332764
 45
296.92599487
 46
-109.19
 47
-157.25
 48
0.0
 49
0.0
140
0.0
141
0.0
142
1.0
143
0.5
 70
  1716
 72
     1
 73
     1
 74
     2
  7
big.ctb
 75
    27
147
2.0
148
0.0
149
0.0
  0
ACDBPLACEHOLDER
  5
564
102
{ACAD_REACTORS
330
563
102
}
330
563
100
AcDbPlaceHolder
280
     0
  0
XRECORD
  5
C4A
102
{ACAD_REACTORS
330
C40
102
}
330
C40
100
AcDbXrecord
 90
        0
  0
XRECORD
  5
C4E
102
{ACAD_REACTORS
330
C40
102
}
330
C40
100
AcDbXrecord
1000
DSTYLE
1002
{
1070
    79
 70
     2
1070
   179
 70
     3
1070
   341
340
594
1070
   343
340
594
1070
   344
340
594
1070
   371
 70
    -1
1070
   372
 70
    -1
1002
}
  0
XRECORD
  5
C4B
102
{ACAD_REACTORS
330
C40
102
}
330
C40
100
AcDbXrecord
  1
{51294030-9CB4-11D3-8E18-00A0C925D94D}
  0
XRECORD
  5
C43
102
{ACAD_REACTORS
330
C40
102
}
330
C40
100
AcDbXrecord
  1

  0
XRECORD
  5
C49
102
{ACAD_REACTORS
330
C40
102
}
330
C40
100
AcDbXrecord
 90
        0
  0
XRECORD
  5
C45
102
{ACAD_REACTORS
330
C40
102
}
330
C40
100
AcDbXrecord
340
565
  0
XRECORD
  5
C48
102
{ACAD_REACTORS
330
C40
102
}
330
C40
100
AcDbXrecord
 90
    10781
  0
XRECORD
  5
C46
102
{ACAD_REACTORS
330
C40
102
}
330
C40
100
AcDbXrecord
340
566
  0
XRECORD
  5
C47
102
{ACAD_REACTORS
330
C40
102
}
330
C40
100
AcDbXrecord
340
563
  0
XRECORD
  5
C4D
102
{ACAD_REACTORS
330
C40
102
}
330
C40
100
AcDbXrecord
 40
0.0
  0
XRECORD
  5
C51
102
{ACAD_REACTORS
330
C40
102
}
330
C40
100
AcDbXrecord
340
0
  0
XRECORD
  5
C57
102
{ACAD_REACTORS
330
C40
102
}
330
C40
100
AcDbXrecord
 10
0.0
 20
0.0
 30
0.0
  0
XRECORD
  5
C53
102
{ACAD_REACTORS
330
C40
102
}
330
C40
100
AcDbXrecord
 10
0.0
 20
0.0
 30
0.0
  0
XRECORD
  5
C56
102
{ACAD_REACTORS
330
C40
102
}
330
C40
100
AcDbXrecord
 10
0.0
 20
0.0
 30
0.0
  0
XRECORD
  5
C54
102
{ACAD_REACTORS
330
C40
102
}
330
C40
100
AcDbXrecord
 10
0.0
 20
0.0
 30
0.0
  0
XRECORD
  5
C55
102
{ACAD_REACTORS
330
C40
102
}
330
C40
100
AcDbXrecord
 10
0.0
 20
0.0
 30
0.0
  0
XRECORD
  5
C52
102
{ACAD_REACTORS
330
C40
102
}
330
C40
100
AcDbXrecord
 10
0.0
 20
0.0
 30
0.0
  0
XRECORD
  5
C4F
102
{ACAD_REACTORS
330
C40
102
}
330
C40
100
AcDbXrecord
340
0
  0
XRECORD
  5
C50
102
{ACAD_REACTORS
330
C40
102
}
330
C40
100
AcDbXrecord
 70
     0
  0
XRECORD
  5
C44
102
{ACAD_REACTORS
330
C40
102
}
330
C40
100
AcDbXrecord
  1
big.ctb
  0
XRECORD
  5
C41
102
{ACAD_REACTORS
330
C40
102
}
330
C40
100
AcDbXrecord
 90
        1
  0
XRECORD
  5
C42
102
{ACAD_REACTORS
330
C40
102
}
330
C40
100
AcDbXrecord
 90
       70
  0
XRECORD
  5
C5A
102
{ACAD_REACTORS
330
C40
102
}
330
C40
100
AcDbXrecord
340
0
  0
XRECORD
  5
C60
102
{ACAD_REACTORS
330
C40
102
}
330
C40
100
AcDbXrecord
 10
0.0
 20
0.0
 30
0.0
  0
XRECORD
  5
C5C
102
{ACAD_REACTORS
330
C40
102
}
330
C40
100
AcDbXrecord
 10
0.0
 20
0.0
 30
0.0
  0
XRECORD
  5
C5F
102
{ACAD_REACTORS
330
C40
102
}
330
C40
100
AcDbXrecord
 10
0.0
 20
0.0
 30
0.0
  0
XRECORD
  5
C5D
102
{ACAD_REACTORS
330
C40
102
}
330
C40
100
AcDbXrecord
 10
0.0
 20
0.0
 30
0.0
  0
XRECORD
  5
C5E
102
{ACAD_REACTORS
330
C40
102
}
330
C40
100
AcDbXrecord
 10
0.0
 20
0.0
 30
0.0
  0
XRECORD
  5
C5B
102
{ACAD_REACTORS
330
C40
102
}
330
C40
100
AcDbXrecord
 10
0.0
 20
0.0
 30
0.0
  0
XRECORD
  5
C58
102
{ACAD_REACTORS
330
C40
102
}
330
C40
100
AcDbXrecord
340
0
  0
XRECORD
  5
C59
102
{ACAD_REACTORS
330
C40
102
}
330
C40
100
AcDbXrecord
 70
     0
  0
XRECORD
  5
C4C
102
{ACAD_REACTORS
330
C40
102
}
330
C40
100
AcDbXrecord
  1
{F85C6060-49EE-41E3-9C77-F90357890D83}
  0
XRECORD
  5
560
102
{ACAD_REACTORS
330
540
102
}
330
540
100
AcDbXrecord
  1
2.0.0
  0
ENDSEC
  0
EOF
