  0
SECTION
  2
HEADER
  9
$ACADVER
  1
AC1014
  9
$ACADMAINTVER
 70
     9
  9
$DWGCODEPAGE
  3
ANSI_932
  9
$INSBASE
 10
0.0
 20
0.0
 30
0.0
  9
$EXTMIN
 10
-49.41432386
 20
-23.00446844
 30
-0.00152582
  9
$EXTMAX
 10
78.00611642
 20
61.02339062
 30
0.00000003
  9
$LIMMIN
 10
0.0
 20
0.0
  9
$LIMMAX
 10
420.0
 20
297.0
  9
$ORTHOMODE
 70
     0
  9
$REGENMODE
 70
     1
  9
$FILLMODE
 70
     1
  9
$QTEXTMODE
 70
     0
  9
$MIRRTEXT
 70
     1
  9
$DRAGMODE
 70
     2
  9
$LTSCALE
 40
10.0
  9
$OSMODE
 70
   549
  9
$ATTMODE
 70
     1
  9
$TEXTSIZE
 40
3.0
  9
$TRACEWID
 40
1.0
  9
$TEXTSTYLE
  7
YOKO
  9
$CLAYER
  8
245
  9
$CELTYPE
  6
BYLAYER
  9
$CECOLOR
 62
   256
  9
$CELTSCALE
 40
1.0
  9
$DELOBJ
 70
     1
  9
$DISPSILH
 70
     0
  9
$DIMSCALE
 40
1.0
  9
$DIMASZ
 40
2.23
  9
$DIMEXO
 40
0.5
  9
$DIMDLI
 40
2.5
  9
$DIMRND
 40
0.0
  9
$DIMDLE
 40
0.0
  9
$DIMEXE
 40
1.0
  9
$DIMTP
 40
0.0
  9
$DIMTM
 40
0.0
  9
$DIMTXT
 40
2.8
  9
$DIMCEN
 40
0.0
  9
$DIMTSZ
 40
0.0
  9
$DIMTOL
 70
     0
  9
$DIMLIM
 70
     0
  9
$DIMTIH
 70
     0
  9
$DIMTOH
 70
     0
  9
$DIMSE1
 70
     0
  9
$DIMSE2
 70
     0
  9
$DIMTAD
 70
     3
  9
$DIMZIN
 70
     8
  9
$DIMBLK
  1

  9
$DIMASO
 70
     1
  9
$DIMSHO
 70
     1
  9
$DIMPOST
  1

  9
$DIMAPOST
  1

  9
$DIMALT
 70
     0
  9
$DIMALTD
 70
     2
  9
$DIMALTF
 40
25.4
  9
$DIMLFAC
 40
1.0
  9
$DIMTOFL
 70
     1
  9
$DIMTVP
 40
0.0
  9
$DIMTIX
 70
     1
  9
$DIMSOXD
 70
     0
  9
$DIMSAH
 70
     1
  9
$DIMBLK1
  1
OPEN
  9
$DIMBLK2
  1
OPEN
  9
$DIMSTYLE
  2
BIGT
  9
$DIMCLRD
 70
   256
  9
$DIMCLRE
 70
   256
  9
$DIMCLRT
 70
    40
  9
$DIMTFAC
 40
1.0
  9
$DIMGAP
 40
1.0
  9
$DIMJUST
 70
     0
  9
$DIMSD1
 70
     0
  9
$DIMSD2
 70
     0
  9
$DIMTOLJ
 70
     1
  9
$DIMTZIN
 70
     8
  9
$DIMALTZ
 70
     0
  9
$DIMALTTZ
 70
     0
  9
$DIMFIT
 70
     3
  9
$DIMUPT
 70
     0
  9
$DIMUNIT
 70
     2
  9
$DIMDEC
 70
     3
  9
$DIMTDEC
 70
     3
  9
$DIMALTU
 70
     2
  9
$DIMALTTD
 70
     2
  9
$DIMTXSTY
  7
STANDARD
  9
$DIMAUNIT
 70
     0
  9
$LUNITS
 70
     2
  9
$LUPREC
 70
     3
  9
$SKETCHINC
 40
1.0
  9
$FILLETRAD
 40
0.0
  9
$AUNITS
 70
     0
  9
$AUPREC
 70
     3
  9
$MENU
  1
.
  9
$ELEVATION
 40
0.0
  9
$PELEVATION
 40
0.0
  9
$THICKNESS
 40
0.0
  9
$LIMCHECK
 70
     0
  9
$BLIPMODE
 70
     0
  9
$CHAMFERA
 40
10.0
  9
$CHAMFERB
 40
10.0
  9
$CHAMFERC
 40
0.0
  9
$CHAMFERD
 40
0.0
  9
$SKPOLY
 70
     0
  9
$TDCREATE
 40
2455140.556259039
  9
$TDUPDATE
 40
2455371.564489109
  9
$TDINDWG
 40
0.0031550231
  9
$TDUSRTIMER
 40
0.0031548380
  9
$USRTIMER
 70
     1
  9
$ANGBASE
 50
0.0
  9
$ANGDIR
 70
     0
  9
$PDMODE
 70
     1
  9
$PDSIZE
 40
-5.0
  9
$PLINEWID
 40
0.0
  9
$COORDS
 70
     0
  9
$SPLFRAME
 70
     0
  9
$SPLINETYPE
 70
     6
  9
$SPLINESEGS
 70
     8
  9
$ATTDIA
 70
     0
  9
$ATTREQ
 70
     1
  9
$HANDLING
 70
-16383
  9
$HANDSEED
  5
BF8
  9
$SURFTAB1
 70
     6
  9
$SURFTAB2
 70
     6
  9
$SURFTYPE
 70
     6
  9
$SURFU
 70
     6
  9
$SURFV
 70
     6
  9
$UCSNAME
  2

  9
$UCSORG
 10
0.0
 20
0.0
 30
0.0
  9
$UCSXDIR
 10
1.0
 20
0.0
 30
0.0
  9
$UCSYDIR
 10
0.0
 20
1.0
 30
0.0
  9
$PUCSNAME
  2

  9
$PUCSORG
 10
0.0
 20
0.0
 30
0.0
  9
$PUCSXDIR
 10
1.0
 20
0.0
 30
0.0
  9
$PUCSYDIR
 10
0.0
 20
1.0
 30
0.0
  9
$USERI1
 70
     1
  9
$USERI2
 70
     0
  9
$USERI3
 70
     0
  9
$USERI4
 70
     0
  9
$USERI5
 70
     0
  9
$USERR1
 40
0.0
  9
$USERR2
 40
0.0
  9
$USERR3
 40
0.0
  9
$USERR4
 40
0.0
  9
$USERR5
 40
0.0
  9
$WORLDVIEW
 70
     1
  9
$SHADEDGE
 70
     3
  9
$SHADEDIF
 70
    70
  9
$TILEMODE
 70
     1
  9
$MAXACTVP
 70
    16
  9
$PINSBASE
 10
0.0
 20
0.0
 30
0.0
  9
$PLIMCHECK
 70
     0
  9
$PEXTMIN
 10
1.00000000E+20
 20
1.00000000E+20
 30
1.00000000E+20
  9
$PEXTMAX
 10
-1.00000000E+20
 20
-1.00000000E+20
 30
-1.00000000E+20
  9
$PLIMMIN
 10
0.0
 20
0.0
  9
$PLIMMAX
 10
420.0
 20
297.0
  9
$UNITMODE
 70
     0
  9
$VISRETAIN
 70
     0
  9
$PLINEGEN
 70
     0
  9
$PSLTSCALE
 70
     1
  9
$TREEDEPTH
 70
  3020
  9
$PICKSTYLE
 70
     0
  9
$CMLSTYLE
  2
STANDARD
  9
$CMLJUST
 70
     0
  9
$CMLSCALE
 40
1.0
  9
$PROXYGRAPHICS
 70
     1
  9
$MEASUREMENT
 70
     1
  0
ENDSEC
  0
SECTION
  2
CLASSES
  0
CLASS
  1
XRECORD
  2
AcDbXrecord
  3
AutoCAD 2000
 90
        0
280
     0
281
     0
  0
CLASS
  1
ACDBDICTIONARYWDFLT
  2
AcDbDictionaryWithDefault
  3
AutoCAD 2000
 90
        0
280
     0
281
     0
  0
CLASS
  1
ACDBPLACEHOLDER
  2
AcDbPlaceHolder
  3
AutoCAD 2000
 90
        0
280
     0
281
     0
  0
CLASS
  1
LAYOUT
  2
AcDbLayout
  3
AutoCAD 2000
 90
        0
280
     0
281
     0
  0
CLASS
  1
PLOTSETTINGS
  2
AcDbPlotSettings
  3
AutoCAD 2000
 90
        0
280
     0
281
     0
  0
CLASS
  1
LONG_TRANSACTION
  2
AcDbLongTransaction
  3
AutoCAD 2000
 90
        0
280
     0
281
     0
  0
CLASS
  1
LWPOLYLINE
  2
AcDbPolyline
  3
AutoCAD 2000
 90
        0
280
     0
281
     1
  0
CLASS
  1
HATCH
  2
AcDbHatch
  3
AutoCAD 2000
 90
        0
280
     0
281
     1
  0
CLASS
  1
XRECORD
  2
AcDbXrecord
  3
AutoCAD 2000
 90
        0
280
     0
281
     0
  0
CLASS
  1
LONG_TRANSACTION
  2
AcDbLongTransaction
  3
AutoCAD 2000
 90
        0
280
     0
281
     0
  0
CLASS
  1
LWPOLYLINE
  2
AcDbPolyline
  3
AutoCAD 2000
 90
        0
280
     0
281
     1
  0
CLASS
  1
HATCH
  2
AcDbHatch
  3
AutoCAD 2000
 90
        0
280
     0
281
     1
  0
CLASS
  1
XRECORD
  2
AcDbXrecord
  3
AutoCAD 2000
 90
        0
280
     0
281
     0
  0
ENDSEC
  0
SECTION
  2
TABLES
  0
TABLE
  2
VPORT
  5
8
330
0
100
AcDbSymbolTable
 70
     2
  0
VPORT
  5
BD3
330
8
100
AcDbSymbolTableRecord
100
AcDbViewportTableRecord
  2
*ACTIVE
 70
     0
 10
0.0
 20
0.0
 11
1.0
 21
1.0
 12
14.29589628
 22
19.00946109
 13
0.0
 23
0.0
 14
7.0
 24
7.0
 15
7.0
 25
7.0
 16
0.0
 26
0.0
 36
1.0
 17
0.0
 27
0.0
 37
0.0
 40
87.98309588
 41
1.45595855
 42
50.0
 43
0.0
 44
0.0
 50
0.0
 51
0.0
 71
     0
 72
  2000
 73
     1
 74
     0
 75
     0
 76
     0
 77
     0
 78
     0
  0
ENDTAB
  0
TABLE
  2
LTYPE
  5
5
330
0
100
AcDbSymbolTable
 70
     4
  0
LTYPE
  5
14
330
5
100
AcDbSymbolTableRecord
100
AcDbLinetypeTableRecord
  2
BYBLOCK
 70
     0
  3

 72
    65
 73
     0
 40
0.0
  0
LTYPE
  5
15
330
5
100
AcDbSymbolTableRecord
100
AcDbLinetypeTableRecord
  2
BYLAYER
 70
     0
  3

 72
    65
 73
     0
 40
0.0
  0
LTYPE
  5
16
330
5
100
AcDbSymbolTableRecord
100
AcDbLinetypeTableRecord
  2
CONTINUOUS
 70
     0
  3
Solid line
 72
    65
 73
     0
 40
0.0
  0
LTYPE
  5
258
330
5
100
AcDbSymbolTableRecord
100
AcDbLinetypeTableRecord
  2
CENTER2
 70
     0
  3
___ _ ___ _ ___ _ ___ _ ___ _ ___ _ ___ _ ___ _
 72
    65
 73
     4
 40
1.125
 49
0.75
 74
     0
 49
-0.125
 74
     0
 49
0.125
 74
     0
 49
-0.125
 74
     0
  0
LTYPE
  5
25C
330
5
100
AcDbSymbolTableRecord
100
AcDbLinetypeTableRecord
  2
HIDDEN2
 70
     0
  3
_ _ _ _ _ _ _ _ _ _ _ _ _ _ _ _ _ _ _ _ _ _ _ _
 72
    65
 73
     2
 40
0.1875
 49
0.125
 74
     0
 49
-0.0625
 74
     0
  0
LTYPE
  5
25D
330
5
100
AcDbSymbolTableRecord
100
AcDbLinetypeTableRecord
  2
PHANTOM2
 70
     0
  3
___ _ _ ___ _ _ ___ _ _ ___ _ _ ___ _ _ ___ _ _
 72
    65
 73
     6
 40
1.25
 49
0.625
 74
     0
 49
-0.125
 74
     0
 49
0.125
 74
     0
 49
-0.125
 74
     0
 49
0.125
 74
     0
 49
-0.125
 74
     0
  0
ENDTAB
  0
TABLE
  2
LAYER
  5
2
330
0
100
AcDbSymbolTable
 70
    10
  0
LAYER
  5
F
330
2
100
AcDbSymbolTableRecord
100
AcDbLayerTableRecord
  2
0
 70
     0
 62
     7
  6
CONTINUOUS
  0
LAYER
  5
1AA
330
2
100
AcDbSymbolTableRecord
100
AcDbLayerTableRecord
  2
240
 70
     0
 62
     4
  6
CONTINUOUS
  0
LAYER
  5
1AB
330
2
100
AcDbSymbolTableRecord
100
AcDbLayerTableRecord
  2
241
 70
     0
 62
   211
  6
CONTINUOUS
  0
LAYER
  5
1AD
330
2
100
AcDbSymbolTableRecord
100
AcDbLayerTableRecord
  2
243
 70
     0
 62
   211
  6
HIDDEN2
  0
LAYER
  5
1AF
330
2
100
AcDbSymbolTableRecord
100
AcDbLayerTableRecord
  2
245
 70
     0
 62
     2
  6
CENTER2
  0
LAYER
  5
21A
330
2
100
AcDbSymbolTableRecord
100
AcDbLayerTableRecord
  2
246
 70
     0
 62
     3
  6
PHANTOM2
  0
LAYER
  5
21E
330
2
100
AcDbSymbolTableRecord
100
AcDbLayerTableRecord
  2
250
 70
     0
 62
     3
  6
CONTINUOUS
  0
LAYER
  5
21F
330
2
100
AcDbSymbolTableRecord
100
AcDbLayerTableRecord
  2
251
 70
     0
 62
    40
  6
CONTINUOUS
  0
LAYER
  5
5C4
330
2
100
AcDbSymbolTableRecord
100
AcDbLayerTableRecord
  2
DEFPOINTS
 70
     0
 62
     7
  6
CONTINUOUS
  0
ENDTAB
  0
TABLE
  2
STYLE
  5
3
330
0
100
AcDbSymbolTable
 70
     2
  0
STYLE
  5
10
330
3
100
AcDbSymbolTableRecord
100
AcDbTextStyleTableRecord
  2
STANDARD
 70
     0
 40
0.0
 41
1.0
 50
0.0
 71
     0
 42
3.0
  3
romans.shx
  4
BIGFONT.SHX
  0
STYLE
  5
339
330
3
100
AcDbSymbolTableRecord
100
AcDbTextStyleTableRecord
  2
YOKO
 70
     0
 40
0.0
 41
1.0
 50
0.0
 71
     0
 42
3.0
  3
romans.shx
  4
extfont.shx
  0
ENDTAB
  0
TABLE
  2
VIEW
  5
6
330
0
100
AcDbSymbolTable
 70
     0
  0
ENDTAB
  0
TABLE
  2
UCS
  5
7
330
0
100
AcDbSymbolTable
 70
     0
  0
ENDTAB
  0
TABLE
  2
APPID
  5
9
330
0
100
AcDbSymbolTable
 70
    12
  0
APPID
  5
11
330
9
100
AcDbSymbolTableRecord
100
AcDbRegAppTableRecord
  2
ACAD
 70
     0
  0
APPID
  5
1B1
330
9
100
AcDbSymbolTableRecord
100
AcDbRegAppTableRecord
  2
GLOBAL
 70
     0
  0
APPID
  5
2A4
330
9
100
AcDbSymbolTableRecord
100
AcDbRegAppTableRecord
  2
DETAIL
 70
     0
  0
APPID
  5
5FD
330
9
100
AcDbSymbolTableRecord
100
AcDbRegAppTableRecord
  2
GRPNAME
 70
     0
  0
APPID
  5
5FE
330
9
100
AcDbSymbolTableRecord
100
AcDbRegAppTableRecord
  2
GPARA
 70
     0
  0
APPID
  5
6C4
330
9
100
AcDbSymbolTableRecord
100
AcDbRegAppTableRecord
  2
DCO15
 70
     0
  0
APPID
  5
6C5
330
9
100
AcDbSymbolTableRecord
100
AcDbRegAppTableRecord
  2
ITEMNAME
 70
     0
  0
APPID
  5
6C6
330
9
100
AcDbSymbolTableRecord
100
AcDbRegAppTableRecord
  2
GRADE_0
 70
     0
  0
APPID
  5
854
330
9
100
AcDbSymbolTableRecord
100
AcDbRegAppTableRecord
  2
HATCH_TYPE
 70
     0
  0
APPID
  5
855
330
9
100
AcDbSymbolTableRecord
100
AcDbRegAppTableRecord
  2
HATCH_DISPLAY
 70
     0
  0
APPID
  5
856
330
9
100
AcDbSymbolTableRecord
100
AcDbRegAppTableRecord
  2
HATCH_DISTANCE
 70
     0
  0
APPID
  5
AA9
330
9
100
AcDbSymbolTableRecord
100
AcDbRegAppTableRecord
  2
CONTENTBLOCKICON
 70
     0
  0
ENDTAB
  0
TABLE
  2
DIMSTYLE
  5
A
330
0
100
AcDbSymbolTable
 70
     4
  0
DIMSTYLE
105
725
102
{ACAD_REACTORS
330
987
330
996
330
9A5
330
9B4
102
}
330
A
100
AcDbSymbolTableRecord
100
AcDbDimStyleTableRecord
  2
BIGT
 70
     0
  3

  4

  5

  6
OPEN
  7
OPEN
 40
1.0
 41
2.23
 42
0.5
 43
2.5
 44
1.0
 45
0.0
 46
0.0
 47
0.0
 48
0.0
140
2.8
141
0.0
142
0.0
143
25.4
144
1.0
145
0.0
146
1.0
147
1.0
 71
     0
 72
     0
 73
     0
 74
     0
 75
     0
 76
     0
 77
     3
 78
     8
170
     0
171
     2
172
     1
173
     1
174
     1
175
     0
176
   256
177
   256
178
    40
270
     2
271
     3
272
     3
273
     2
274
     2
340
10
275
     0
280
     0
281
     0
282
     0
283
     1
284
     8
285
     0
286
     0
287
     3
288
     0
  0
ENDTAB
  0
TABLE
  2
BLOCK_RECORD
  5
1
330
0
100
AcDbSymbolTable
 70
     9
  0
BLOCK_RECORD
  5
1A
102
{ACAD_XDICTIONARY
360
AA7
102
}
330
1
100
AcDbSymbolTableRecord
100
AcDbBlockTableRecord
  2
*MODEL_SPACE
  0
BLOCK_RECORD
  5
17
102
{ACAD_XDICTIONARY
360
AA5
102
}
330
1
100
AcDbSymbolTableRecord
100
AcDbBlockTableRecord
  2
*PAPER_SPACE
  0
BLOCK_RECORD
  5
594
330
1
100
AcDbSymbolTableRecord
100
AcDbBlockTableRecord
  2
_OPEN
  0
BLOCK_RECORD
  5
6E3
330
1
100
AcDbSymbolTableRecord
100
AcDbBlockTableRecord
  2
矢印なし
  0
BLOCK_RECORD
  5
988
330
1
100
AcDbSymbolTableRecord
100
AcDbBlockTableRecord
  2
*D2
  0
BLOCK_RECORD
  5
997
330
1
100
AcDbSymbolTableRecord
100
AcDbBlockTableRecord
  2
*D3
  0
BLOCK_RECORD
  5
9A6
330
1
100
AcDbSymbolTableRecord
100
AcDbBlockTableRecord
  2
*D4
  0
BLOCK_RECORD
  5
9B5
330
1
100
AcDbSymbolTableRecord
100
AcDbBlockTableRecord
  2
*D5
  0
BLOCK_RECORD
  5
B87
330
1
100
AcDbSymbolTableRecord
100
AcDbBlockTableRecord
  2
1
1001
CONTENTBLOCKICON
1071
        0
1004
2800000020000000200000000100080000000000000400000000000000000000000000000000000000000000000080000080000000808000800000008000800080800000C0C0C000C0DCC000F0CAA6000020400000206000002080000020A0000020C0000020E00000400000004020000040400000406000004080000040A0
1004
000040C0000040E00000600000006020000060400000606000006080000060A0000060C0000060E00000800000008020000080400000806000008080000080A0000080C0000080E00000A0000000A0200000A0400000A0600000A0800000A0A00000A0C00000A0E00000C0000000C0200000C0400000C0600000C0800000C0
1004
A00000C0C00000C0E00000E0000000E0200000E0400000E0600000E0800000E0A00000E0C00000E0E00040000000400020004000400040006000400080004000A0004000C0004000E00040200000402020004020400040206000402080004020A0004020C0004020E000404000004040200040404000404060004040800040
1004
40A0004040C0004040E00040600000406020004060400040606000406080004060A0004060C0004060E00040800000408020004080400040806000408080004080A0004080C0004080E00040A0000040A0200040A0400040A0600040A0800040A0A00040A0C00040A0E00040C0000040C0200040C0400040C0600040C08000
1004
40C0A00040C0C00040C0E00040E0000040E0200040E0400040E0600040E0800040E0A00040E0C00040E0E00080000000800020008000400080006000800080008000A0008000C0008000E00080200000802020008020400080206000802080008020A0008020C0008020E00080400000804020008040400080406000804080
1004
008040A0008040C0008040E00080600000806020008060400080606000806080008060A0008060C0008060E00080800000808020008080400080806000808080008080A0008080C0008080E00080A0000080A0200080A0400080A0600080A0800080A0A00080A0C00080A0E00080C0000080C0200080C0400080C0600080C0
1004
800080C0A00080C0C00080C0E00080E0000080E0200080E0400080E0600080E0800080E0A00080E0C00080E0E000C0000000C0002000C0004000C0006000C0008000C000A000C000C000C000E000C0200000C0202000C0204000C0206000C0208000C020A000C020C000C020E000C0400000C0402000C0404000C0406000C0
1004
408000C040A000C040C000C040E000C0600000C0602000C0604000C0606000C0608000C060A000C060C000C060E000C0800000C0802000C0804000C0806000C0808000C080A000C080C000C080E000C0A00000C0A02000C0A04000C0A06000C0A08000C0A0A000C0A0C000C0A0E000C0C00000C0C02000C0C04000C0C06000
1004
C0C08000C0C0A000F0FBFF00A4A0A000808080000000FF0000FF000000FFFF00FF000000FF00FF00FFFF0000FFFFFF0000000000000000000000000000000000000000000000000000000000000000000000000000000000000000000000000000000000000000000000000000000000000000000000000000000000000000
1004
00000000000000000000000000000000000000000000000000000000000000000000000000000000000000000000000000000000000000000000000000000000000000000000000000000000000000000000000000000000000000000000000000000000000000000000000000000000000000000000000000000000000000
1004
00000000000000000000000000000000000000000000000000000000000000000000000000000000000000000000000000000000000000000000000000000000000000000000000000000000000000000000000000000000000000000000000000000000000000000000000000000000000000000000000000000000000000
1004
00FEFEFEFBE7FE0000000000000000000000000000000000000000000000000000FE00FEFEE7FE0000000000000000000000000000000000000000FEFEFEFEFEFEFEE7E7E7E7FEFEFEFEFEFEFEFEFAFAFA00000000FEFEFEFEFEFE0000000000E7E700E7E7E7E7E70000000000E7E700FA00000000FE000000000000000000
1004
00E7E700E7E7E7E7E70000E7E7E7000000FA00000000FE00000000000000000000E7E700E7E7E7E7E70000E700000000E7FE000000FBFEFBFBFBFBFBFBFBFBFBFBE7E7FBE7E7E7E7E7FBFBFBE7E7E7E7E7FEFB000000FE00000000000000000000E7E700E7E7E7E7E70000000000000000FE00000000FEFEFEFEFEFE000000
1004
0000E7E700E7E7E7E7E700000000000000E7E700000000000000000000FEFEFEFEFEFEFEE7E7E7E7FEFEFEFEFEFEFEFEFAFAFA00000000000000000000000000000000FE00FEFEE7FE0000000000000000000000000000000000000000000000000000FEFEFEFBFEFE00000000000000000000000000000000000000000000
1004
00000000000000000000000000000000000000000000000000000000000000000000000000000000000000000000000000000000000000000000000000000000000000000000000000000000000000000000000000000000000000000000000000000000000000000000000000000000000000000000000000000000000000
1004
00000000000000000000000000000000000000000000000000000000000000000000000000000000000000000000000000000000000000000000000000000000000000000000000000000000000000000000000000000000000000000000000000000000000000000000000000000000000000000000000000000000000000
1004
0000000000000000000000000000000000000000000000000000000000000000000000000000000000000000000000000000000000000000
  0
ENDTAB
  0
ENDSEC
  0
SECTION
  2
BLOCKS
  0
BLOCK
  5
1B
330
1A
100
AcDbEntity
  8
0
100
AcDbBlockBegin
  2
*MODEL_SPACE
 70
     0
 10
0.0
 20
0.0
 30
0.0
  3
*MODEL_SPACE
  1

  0
ENDBLK
  5
1C
330
1A
100
AcDbEntity
  8
0
100
AcDbBlockEnd
  0
BLOCK
  5
18
330
17
100
AcDbEntity
 67
     1
  8
0
100
AcDbBlockBegin
  2
*PAPER_SPACE
 70
     0
 10
0.0
 20
0.0
 30
0.0
  3
*PAPER_SPACE
  1

  0
ENDBLK
  5
19
330
17
100
AcDbEntity
 67
     1
  8
0
100
AcDbBlockEnd
  0
BLOCK
  5
598
330
594
100
AcDbEntity
  8
0
100
AcDbBlockBegin
  2
_OPEN
 70
     0
 10
0.0
 20
0.0
 30
0.0
  3
_OPEN
  1

  0
LINE
  5
595
330
594
100
AcDbEntity
  8
0
  6
BYBLOCK
 62
     0
100
AcDbLine
 10
-1.0
 20
0.16666667
 30
0.0
 11
0.0
 21
0.0
 31
0.0
  0
LINE
  5
596
330
594
100
AcDbEntity
  8
0
  6
BYBLOCK
 62
     0
100
AcDbLine
 10
-1.0
 20
-0.16666667
 30
0.0
 11
0.0
 21
0.0
 31
0.0
  0
LINE
  5
597
330
594
100
AcDbEntity
  8
0
  6
BYBLOCK
 62
     0
100
AcDbLine
 10
0.0
 20
0.0
 30
0.0
 11
-1.0
 21
0.0
 31
0.0
  0
ENDBLK
  5
599
330
594
100
AcDbEntity
  8
0
100
AcDbBlockEnd
  0
BLOCK
  5
6E4
330
6E3
100
AcDbEntity
  8
0
100
AcDbBlockBegin
  2
矢印なし
 70
     0
 10
0.0
 20
0.0
 30
0.0
  3
矢印なし
  1

  0
ENDBLK
  5
6E5
330
6E3
100
AcDbEntity
  8
0
100
AcDbBlockEnd
  0
BLOCK
  5
992
330
988
100
AcDbEntity
  8
0
100
AcDbBlockBegin
  2
*D2
 70
     1
 10
0.0
 20
0.0
 30
0.0
  3
*D2
  1

  0
LINE
  5
9F3
330
988
100
AcDbEntity
  8
250
  6
CONTINUOUS
100
AcDbLine
 10
65.5
 20
-16.0
 30
0.0
 11
78.0
 21
-16.0
 31
0.0
  0
LINE
  5
9F4
330
988
100
AcDbEntity
  8
250
  6
CONTINUOUS
100
AcDbLine
 10
65.5
 20
16.0
 30
0.0
 11
78.0
 21
16.0
 31
0.0
  0
LINE
  5
9F5
330
988
100
AcDbEntity
  8
250
  6
CONTINUOUS
100
AcDbLine
 10
77.0
 20
-13.77
 30
0.0
 11
77.0
 21
13.77
 31
0.0
  0
INSERT
  5
9F6
330
988
100
AcDbEntity
  8
250
  6
CONTINUOUS
100
AcDbBlockReference
  2
_OPEN
 10
77.0
 20
-16.0
 30
0.0
 41
2.23
 42
2.23
 43
2.23
 50
270.0
  0
INSERT
  5
9F7
330
988
100
AcDbEntity
  8
250
  6
CONTINUOUS
100
AcDbBlockReference
  2
_OPEN
 10
77.0
 20
16.0
 30
0.0
 41
2.23
 42
2.23
 43
2.23
 50
90.0
  0
MTEXT
  5
9F8
330
988
100
AcDbEntity
  8
250
  6
CONTINUOUS
 62
    40
100
AcDbMText
 10
74.6
 20
0.0
 30
0.0
 40
2.8
 41
0.0
 71
     5
 72
     1
  1
\A1;{\H2.8;\U+2205}32
 11
0.0
 21
1.0
 31
0.0
1001
ACAD
1000
MTEXTBEGIN
1070
    73
1070
     1
1070
    44
1040
1.0
1070
    74
1070
     0
1000
MTEXTEND
1000
MTEXTBEGIN
1070
    73
1070
     1
1070
    44
1040
1.0
1070
    74
1070
     0
1000
MTEXTEND
  0
POINT
  5
9F9
330
988
100
AcDbEntity
  8
DEFPOINTS
  6
CONTINUOUS
 62
     0
100
AcDbPoint
 10
65.0
 20
-16.0
 30
0.0
  0
POINT
  5
9FA
330
988
100
AcDbEntity
  8
DEFPOINTS
  6
CONTINUOUS
 62
     0
100
AcDbPoint
 10
65.0
 20
16.0
 30
0.0
  0
POINT
  5
9FB
330
988
100
AcDbEntity
  8
DEFPOINTS
  6
CONTINUOUS
 62
     0
100
AcDbPoint
 10
77.0
 20
16.0
 30
0.0
  0
ENDBLK
  5
993
330
988
100
AcDbEntity
  8
0
100
AcDbBlockEnd
  0
BLOCK
  5
9A1
330
997
100
AcDbEntity
  8
0
100
AcDbBlockBegin
  2
*D3
 70
     1
 10
0.0
 20
0.0
 30
0.0
  3
*D3
  1

  0
LINE
  5
9EA
330
997
100
AcDbEntity
  8
250
  6
CONTINUOUS
100
AcDbLine
 10
54.0
 20
16.5
 30
0.0
 11
54.0
 21
29.0
 31
0.0
  0
LINE
  5
9EB
330
997
100
AcDbEntity
  8
250
  6
CONTINUOUS
100
AcDbLine
 10
65.0
 20
16.5
 30
0.0
 11
65.0
 21
29.0
 31
0.0
  0
LINE
  5
9EC
330
997
100
AcDbEntity
  8
250
  6
CONTINUOUS
100
AcDbLine
 10
56.23
 20
28.0
 30
0.0
 11
62.77
 21
28.0
 31
0.0
  0
INSERT
  5
9ED
330
997
100
AcDbEntity
  8
250
  6
CONTINUOUS
100
AcDbBlockReference
  2
_OPEN
 10
54.0
 20
28.0
 30
0.0
 41
2.23
 42
2.23
 43
2.23
 50
180.0
  0
INSERT
  5
9EE
330
997
100
AcDbEntity
  8
250
  6
CONTINUOUS
100
AcDbBlockReference
  2
_OPEN
 10
65.0
 20
28.0
 30
0.0
 41
2.23
 42
2.23
 43
2.23
  0
MTEXT
  5
9EF
330
997
100
AcDbEntity
  8
250
  6
CONTINUOUS
 62
    40
100
AcDbMText
 10
59.5
 20
30.4
 30
0.0
 40
2.8
 41
0.0
 71
     5
 72
     1
  1
\A1;11
1001
ACAD
1000
MTEXTBEGIN
1070
    73
1070
     1
1070
    44
1040
1.0
1070
    74
1070
     0
1000
MTEXTEND
1000
MTEXTBEGIN
1070
    73
1070
     1
1070
    44
1040
1.0
1070
    74
1070
     0
1000
MTEXTEND
  0
POINT
  5
9F0
330
997
100
AcDbEntity
  8
DEFPOINTS
  6
CONTINUOUS
 62
     0
100
AcDbPoint
 10
54.0
 20
16.0
 30
0.0
  0
POINT
  5
9F1
330
997
100
AcDbEntity
  8
DEFPOINTS
  6
CONTINUOUS
 62
     0
100
AcDbPoint
 10
65.0
 20
16.0
 30
0.0
  0
POINT
  5
9F2
330
997
100
AcDbEntity
  8
DEFPOINTS
  6
CONTINUOUS
 62
     0
100
AcDbPoint
 10
65.0
 20
28.0
 30
0.0
  0
ENDBLK
  5
9A2
330
997
100
AcDbEntity
  8
0
100
AcDbBlockEnd
  0
BLOCK
  5
9B0
330
9A6
100
AcDbEntity
  8
0
100
AcDbBlockBegin
  2
*D4
 70
     1
 10
0.0
 20
0.0
 30
0.0
  3
*D4
  1

  0
LINE
  5
9E1
330
9A6
100
AcDbEntity
  8
250
  6
CONTINUOUS
100
AcDbLine
 10
0.0
 20
16.375
 30
0.0
 11
0.0
 21
43.0
 31
0.0
  0
LINE
  5
9E2
330
9A6
100
AcDbEntity
  8
250
  6
CONTINUOUS
100
AcDbLine
 10
65.0
 20
16.5
 30
0.0
 11
65.0
 21
43.0
 31
0.0
  0
LINE
  5
9E3
330
9A6
100
AcDbEntity
  8
250
  6
CONTINUOUS
100
AcDbLine
 10
2.23
 20
42.0
 30
0.0
 11
62.77
 21
42.0
 31
0.0
  0
INSERT
  5
9E4
330
9A6
100
AcDbEntity
  8
250
  6
CONTINUOUS
100
AcDbBlockReference
  2
_OPEN
 10
0.0
 20
42.0
 30
0.0
 41
2.23
 42
2.23
 43
2.23
 50
180.0
  0
INSERT
  5
9E5
330
9A6
100
AcDbEntity
  8
250
  6
CONTINUOUS
100
AcDbBlockReference
  2
_OPEN
 10
65.0
 20
42.0
 30
0.0
 41
2.23
 42
2.23
 43
2.23
  0
MTEXT
  5
9E6
330
9A6
100
AcDbEntity
  8
250
  6
CONTINUOUS
 62
    40
100
AcDbMText
 10
32.5
 20
44.4
 30
0.0
 40
2.8
 41
0.0
 71
     5
 72
     1
  1
\A1;65
1001
ACAD
1000
MTEXTBEGIN
1070
    73
1070
     1
1070
    44
1040
1.0
1070
    74
1070
     0
1000
MTEXTEND
1000
MTEXTBEGIN
1070
    73
1070
     1
1070
    44
1040
1.0
1070
    74
1070
     0
1000
MTEXTEND
  0
POINT
  5
9E7
330
9A6
100
AcDbEntity
  8
DEFPOINTS
  6
CONTINUOUS
 62
     0
100
AcDbPoint
 10
0.0
 20
15.875
 30
0.0
  0
POINT
  5
9E8
330
9A6
100
AcDbEntity
  8
DEFPOINTS
  6
CONTINUOUS
 62
     0
100
AcDbPoint
 10
65.0
 20
16.0
 30
0.0
  0
POINT
  5
9E9
330
9A6
100
AcDbEntity
  8
DEFPOINTS
  6
CONTINUOUS
 62
     0
100
AcDbPoint
 10
65.0
 20
42.0
 30
0.0
  0
ENDBLK
  5
9B1
330
9A6
100
AcDbEntity
  8
0
100
AcDbBlockEnd
  0
BLOCK
  5
9BF
330
9B5
100
AcDbEntity
  8
0
100
AcDbBlockBegin
  2
*D5
 70
     1
 10
0.0
 20
0.0
 30
0.0
  3
*D5
  1

  0
LINE
  5
9D8
330
9B5
100
AcDbEntity
  8
250
  6
CONTINUOUS
100
AcDbLine
 10
27.0
 20
15.9
 30
0.0
 11
27.0
 21
36.0
 31
0.0
  0
LINE
  5
9D9
330
9B5
100
AcDbEntity
  8
250
  6
CONTINUOUS
100
AcDbLine
 10
65.0
 20
16.5
 30
0.0
 11
65.0
 21
36.0
 31
0.0
  0
LINE
  5
9DA
330
9B5
100
AcDbEntity
  8
250
  6
CONTINUOUS
100
AcDbLine
 10
29.23
 20
35.0
 30
0.0
 11
62.77
 21
35.0
 31
0.0
  0
INSERT
  5
9DB
330
9B5
100
AcDbEntity
  8
250
  6
CONTINUOUS
100
AcDbBlockReference
  2
_OPEN
 10
27.0
 20
35.0
 30
0.0
 41
2.23
 42
2.23
 43
2.23
 50
180.0
  0
INSERT
  5
9DC
330
9B5
100
AcDbEntity
  8
250
  6
CONTINUOUS
100
AcDbBlockReference
  2
_OPEN
 10
65.0
 20
35.0
 30
0.0
 41
2.23
 42
2.23
 43
2.23
  0
MTEXT
  5
9DD
330
9B5
100
AcDbEntity
  8
250
  6
CONTINUOUS
 62
    40
100
AcDbMText
 10
46.0
 20
37.4
 30
0.0
 40
2.8
 41
0.0
 71
     5
 72
     1
  1
\A1;38
1001
ACAD
1000
MTEXTBEGIN
1070
    73
1070
     1
1070
    44
1040
1.0
1070
    74
1070
     0
1000
MTEXTEND
1000
MTEXTBEGIN
1070
    73
1070
     1
1070
    44
1040
1.0
1070
    74
1070
     0
1000
MTEXTEND
  0
POINT
  5
9DE
330
9B5
100
AcDbEntity
  8
DEFPOINTS
  6
CONTINUOUS
 62
     0
100
AcDbPoint
 10
27.0
 20
15.4
 30
0.0
  0
POINT
  5
9DF
330
9B5
100
AcDbEntity
  8
DEFPOINTS
  6
CONTINUOUS
 62
     0
100
AcDbPoint
 10
65.0
 20
16.0
 30
0.0
  0
POINT
  5
9E0
330
9B5
100
AcDbEntity
  8
DEFPOINTS
  6
CONTINUOUS
 62
     0
100
AcDbPoint
 10
65.0
 20
35.0
 30
0.0
  0
ENDBLK
  5
9C0
330
9B5
100
AcDbEntity
  8
0
100
AcDbBlockEnd
  0
BLOCK
  5
B88
330
B87
100
AcDbEntity
  8
0
100
AcDbBlockBegin
  2
1
 70
     0
 10
0.0
 20
0.0
 30
0.0
  3
1
  1

  0
LINE
  5
B8A
330
B87
100
AcDbEntity
  8
240
  6
CONTINUOUS
100
AcDbLine
 10
52.35358982
 20
-15.4
 30
0.0
 11
25.0
 21
-15.4
 31
0.0
1001
GRPNAME
1000
PASTMD0V
  0
LINE
  5
B8B
330
B87
100
AcDbEntity
  8
240
  6
CONTINUOUS
100
AcDbLine
 10
52.35358982
 20
15.4
 30
0.0
 11
25.0
 21
15.4
 31
0.0
1001
GRPNAME
1000
PASTMD0V
  0
ARC
  5
B8C
330
B87
100
AcDbEntity
  8
241
  6
CONTINUOUS
100
AcDbCircle
 10
43.04381944
 20
-2.02456396
 30
0.0
 40
4.643819440970387
100
AcDbArc
 50
79.99999996
 51
251.47908977
1001
GRPNAME
1000
PASTMD0V
  0
LINE
  5
B8D
330
B87
100
AcDbEntity
  8
245
  6
CENTER2
100
AcDbLine
 10
-49.4
 20
0.0
 30
0.0
 11
66.0
 21
0.0
 31
0.0
1001
GRPNAME
1000
PASTMD04
  0
LINE
  5
B8E
330
B87
100
AcDbEntity
  8
240
  6
CONTINUOUS
100
AcDbLine
 10
-47.54431023
 20
8.94129104
 30
0.0
 11
0.0
 21
15.875
 31
0.0
  0
LINE
  5
B8F
330
B87
100
AcDbEntity
  8
240
  6
CONTINUOUS
100
AcDbLine
 10
-47.54431023
 20
-8.94129104
 30
0.0
 11
0.0
 21
-15.875
 31
0.0
  0
LINE
  5
B90
330
B87
100
AcDbEntity
  8
240
  6
CONTINUOUS
100
AcDbLine
 10
-48.4
 20
-7.95175854
 30
0.0
 11
-48.4
 21
0.0
 31
0.0
  0
ARC
  5
B91
330
B87
100
AcDbEntity
  8
240
  6
CONTINUOUS
100
AcDbCircle
 10
-47.4
 20
-7.95175854
 30
0.0
 40
1.0
100
AcDbArc
 50
180.0
 51
261.70266184
  0
LINE
  5
B92
330
B87
100
AcDbEntity
  8
240
  6
CONTINUOUS
100
AcDbLine
 10
-48.4
 20
7.95175854
 30
0.0
 11
-48.4
 21
0.0
 31
0.0
  0
ARC
  5
B93
330
B87
100
AcDbEntity
  8
240
  6
CONTINUOUS
100
AcDbCircle
 10
-47.4
 20
7.95175854
 30
0.0
 40
1.0
100
AcDbArc
 50
98.29733816
 51
180.0
  0
LINE
  5
B94
330
B87
100
AcDbEntity
  8
241
  6
CONTINUOUS
100
AcDbLine
 10
22.0
 20
-20.0
 30
0.0
 11
22.0
 21
0.0
 31
0.0
  0
LINE
  5
B95
330
B87
100
AcDbEntity
  8
241
100
AcDbLine
 10
0.0
 20
-15.875
 30
0.0
 11
0.0
 21
0.0
 31
0.0
  0
LINE
  5
B96
330
B87
100
AcDbEntity
  8
241
100
AcDbLine
 10
1.0
 20
0.0
 30
0.0
 11
1.0
 21
-15.875
 31
0.0
  0
LINE
  5
B97
330
B87
100
AcDbEntity
  8
245
  6
CENTER2
100
AcDbLine
 10
13.6
 20
-23.0
 30
0.0
 11
13.6
 21
23.0
 31
0.0
  0
LINE
  5
B98
330
B87
100
AcDbEntity
  8
241
  6
CONTINUOUS
100
AcDbLine
 10
15.29059892
 20
-19.0
 30
0.0
 11
15.29059892
 21
0.04377196
 31
0.0
  0
LINE
  5
B99
330
B87
100
AcDbEntity
  8
241
  6
CONTINUOUS
100
AcDbLine
 10
17.6
 20
0.0
 30
0.0
 11
17.6
 21
-23.0
 31
0.0
  0
LINE
  5
B9A
330
B87
100
AcDbEntity
  8
241
  6
CONTINUOUS
100
AcDbLine
 10
11.90940108
 20
-19.0
 30
0.0
 11
11.90940108
 21
0.04377196
 31
0.0
  0
LINE
  5
B9B
330
B87
100
AcDbEntity
  8
241
  6
CONTINUOUS
100
AcDbLine
 10
9.6
 20
-23.0
 30
0.0
 11
9.6
 21
0.0
 31
0.0
  0
LINE
  5
B9C
330
B87
100
AcDbEntity
  8
241
  6
CONTINUOUS
100
AcDbLine
 10
25.0
 20
0.0
 30
0.0
 11
25.0
 21
-15.4
 31
0.0
1001
GRPNAME
1000
PASTMD04
  0
LINE
  5
B9D
330
B87
100
AcDbEntity
  8
243
  6
HIDDEN2
100
AcDbLine
 10
19.0
 20
-16.3
 30
0.0
 11
1.0
 21
-16.3
 31
0.0
  0
LINE
  5
B9E
330
B87
100
AcDbEntity
  8
240
  6
CONTINUOUS
100
AcDbLine
 10
9.6
 20
-23.0
 30
0.0
 11
1.0
 21
-23.0
 31
0.0
  0
LINE
  5
B9F
330
B87
100
AcDbEntity
  8
240
  6
CONTINUOUS
100
AcDbLine
 10
1.0
 20
-15.875
 30
0.0
 11
1.0
 21
-23.0
 31
0.0
  0
LINE
  5
BA0
330
B87
100
AcDbEntity
  8
240
100
AcDbLine
 10
0.0
 20
-15.875
 30
0.0
 11
1.0
 21
-15.875
 31
0.0
  0
LINE
  5
BA1
330
B87
100
AcDbEntity
  8
240
  6
CONTINUOUS
100
AcDbLine
 10
17.6
 20
-23.0
 30
0.0
 11
22.0
 21
-23.0
 31
0.0
  0
LINE
  5
BA2
330
B87
100
AcDbEntity
  8
240
  6
CONTINUOUS
100
AcDbLine
 10
11.90940108
 20
-19.0
 30
0.0
 11
9.6
 21
-23.0
 31
0.0
  0
LINE
  5
BA3
330
B87
100
AcDbEntity
  8
240
  6
CONTINUOUS
100
AcDbLine
 10
15.29059892
 20
-19.0
 30
0.0
 11
17.6
 21
-23.0
 31
0.0
  0
LINE
  5
BA4
330
B87
100
AcDbEntity
  8
243
  6
HIDDEN2
100
AcDbLine
 10
19.0
 20
-16.3
 30
0.0
 11
19.0
 21
-23.0
 31
0.0
  0
LINE
  5
BA5
330
B87
100
AcDbEntity
  8
240
  6
CONTINUOUS
100
AcDbLine
 10
11.90940108
 20
-19.0
 30
0.0
 11
15.29059892
 21
-19.0
 31
0.0
  0
ARC
  5
BA6
330
B87
100
AcDbEntity
  8
240
  6
CONTINUOUS
100
AcDbCircle
 10
25.0
 20
-20.0
 30
0.0
 40
2.999999999999991
100
AcDbArc
 50
146.2510114
 51
179.99999999
1001
GRPNAME
1000
PASTMD04
  0
LINE
  5
BA7
330
B87
100
AcDbEntity
  8
240
  6
CONTINUOUS
100
AcDbLine
 10
22.0
 20
-23.0
 30
0.0
 11
22.0
 21
-20.0
 31
0.0
  0
ARC
  5
BA8
330
B87
100
AcDbEntity
  8
240
  6
CONTINUOUS
100
AcDbCircle
 10
25.0
 20
-16.4
 30
0.0
 40
1.000000000000025
100
AcDbArc
 50
90.00000006
 51
146.25101147
1001
GRPNAME
1000
PASTMD04
  0
LINE
  5
BA9
330
B87
100
AcDbEntity
  8
240
  6
CONTINUOUS
100
AcDbLine
 10
24.16852058
 20
-15.84444444
 30
0.0
 11
22.50556174
 21
-18.33333333
 31
0.0
1001
GRPNAME
1000
PASTMD04
  0
LINE
  5
BAA
330
B87
100
AcDbEntity
  8
240
  6
CONTINUOUS
100
AcDbLine
 10
9.6
 20
23.0
 30
0.0
 11
1.0
 21
23.0
 31
0.0
  0
LINE
  5
BAB
330
B87
100
AcDbEntity
  8
241
  6
HIDDEN2
100
AcDbLine
 10
19.0
 20
16.3
 30
0.0
 11
1.0
 21
16.3
 31
0.0
  0
LINE
  5
BAC
330
B87
100
AcDbEntity
  8
241
100
AcDbLine
 10
0.0
 20
15.875
 30
0.0
 11
0.0
 21
0.0
 31
0.0
  0
LINE
  5
BAD
330
B87
100
AcDbEntity
  8
241
100
AcDbLine
 10
1.0
 20
0.0
 30
0.0
 11
1.0
 21
15.875
 31
0.0
  0
LINE
  5
BAE
330
B87
100
AcDbEntity
  8
240
  6
CONTINUOUS
100
AcDbLine
 10
1.0
 20
15.875
 30
0.0
 11
1.0
 21
23.0
 31
0.0
  0
LINE
  5
BAF
330
B87
100
AcDbEntity
  8
240
100
AcDbLine
 10
0.0
 20
15.875
 30
0.0
 11
1.0
 21
15.875
 31
0.0
  0
LINE
  5
BB0
330
B87
100
AcDbEntity
  8
241
  6
CONTINUOUS
100
AcDbLine
 10
22.0
 20
20.0
 30
0.0
 11
22.0
 21
0.0
 31
0.0
  0
LINE
  5
BB1
330
B87
100
AcDbEntity
  8
241
  6
CONTINUOUS
100
AcDbLine
 10
25.0
 20
0.0
 30
0.0
 11
25.0
 21
15.4
 31
0.0
1001
GRPNAME
1000
PASTMD04
  0
LINE
  5
BB2
330
B87
100
AcDbEntity
  8
241
  6
CONTINUOUS
100
AcDbLine
 10
11.90940108
 20
19.0
 30
0.0
 11
11.90940108
 21
-0.04377196
 31
0.0
  0
LINE
  5
BB3
330
B87
100
AcDbEntity
  8
241
  6
CONTINUOUS
100
AcDbLine
 10
15.29059892
 20
19.0
 30
0.0
 11
15.29059892
 21
-0.04377196
 31
0.0
  0
LINE
  5
BB4
330
B87
100
AcDbEntity
  8
241
  6
CONTINUOUS
100
AcDbLine
 10
17.6
 20
0.0
 30
0.0
 11
17.6
 21
23.0
 31
0.0
  0
LINE
  5
BB5
330
B87
100
AcDbEntity
  8
241
  6
CONTINUOUS
100
AcDbLine
 10
9.6
 20
23.0
 30
0.0
 11
9.6
 21
0.0
 31
0.0
  0
LINE
  5
BB6
330
B87
100
AcDbEntity
  8
240
  6
CONTINUOUS
100
AcDbLine
 10
17.6
 20
23.0
 30
0.0
 11
22.0
 21
23.0
 31
0.0
  0
LINE
  5
BB7
330
B87
100
AcDbEntity
  8
240
  6
CONTINUOUS
100
AcDbLine
 10
11.90940108
 20
19.0
 30
0.0
 11
9.6
 21
23.0
 31
0.0
  0
LINE
  5
BB8
330
B87
100
AcDbEntity
  8
241
  6
HIDDEN2
100
AcDbLine
 10
19.0
 20
16.3
 30
0.0
 11
19.0
 21
23.0
 31
0.0
  0
LINE
  5
BB9
330
B87
100
AcDbEntity
  8
240
  6
CONTINUOUS
100
AcDbLine
 10
15.29059892
 20
19.0
 30
0.0
 11
17.6
 21
23.0
 31
0.0
  0
LINE
  5
BBA
330
B87
100
AcDbEntity
  8
240
  6
CONTINUOUS
100
AcDbLine
 10
11.90940108
 20
19.0
 30
0.0
 11
15.29059892
 21
19.0
 31
0.0
  0
LINE
  5
BBB
330
B87
100
AcDbEntity
  8
240
  6
CONTINUOUS
100
AcDbLine
 10
24.16852058
 20
15.84444444
 30
0.0
 11
22.50556174
 21
18.33333333
 31
0.0
1001
GRPNAME
1000
PASTMD04
  0
ARC
  5
BBC
330
B87
100
AcDbEntity
  8
240
  6
CONTINUOUS
100
AcDbCircle
 10
25.0
 20
16.4
 30
0.0
 40
1.000000000000021
100
AcDbArc
 50
213.74898852
 51
269.99999993
1001
GRPNAME
1000
PASTMD04
  0
LINE
  5
BBD
330
B87
100
AcDbEntity
  8
240
  6
CONTINUOUS
100
AcDbLine
 10
22.0
 20
23.0
 30
0.0
 11
22.0
 21
20.0
 31
0.0
  0
ARC
  5
BBE
330
B87
100
AcDbEntity
  8
240
  6
CONTINUOUS
100
AcDbCircle
 10
25.0
 20
20.0
 30
0.0
 40
2.999999999999991
100
AcDbArc
 50
180.00000001
 51
213.7489886
1001
GRPNAME
1000
PASTMD04
  0
LINE
  5
BBF
330
B87
100
AcDbEntity
  8
240
  6
CONTINUOUS
100
AcDbLine
 10
64.4
 20
-3.80161786
 30
0.0
 11
64.4
 21
-15.3
 31
0.0
1001
GRPNAME
1000
PASTMD0V
  0
LINE
  5
BC0
330
B87
100
AcDbEntity
  8
241
  6
CONTINUOUS
100
AcDbLine
 10
41.56870816
 20
-6.42787019
 30
0.0
 11
64.4
 21
-14.07637208
 31
0.0
1001
GRPNAME
1000
PASTMD0V
  0
LINE
  5
BC1
330
B87
100
AcDbEntity
  8
246
100
AcDbLine
 10
65.0
 20
16.0
 30
0.0
 11
65.0
 21
-16.0
 31
0.0
1001
GRPNAME
1000
PASTMD0V
  0
LINE
  5
BC2
330
B87
100
AcDbEntity
  8
240
  6
CONTINUOUS
100
AcDbLine
 10
64.4
 20
-15.3
 30
0.0
 11
53.10000003
 21
-15.6
 31
0.0
1001
GRPNAME
1000
PASTMD0V
  0
LINE
  5
BC3
330
B87
100
AcDbEntity
  8
246
100
AcDbLine
 10
65.0
 20
-16.0
 30
0.0
 11
54.0
 21
-16.0
 31
0.0
  0
LINE
  5
BC4
330
B87
100
AcDbEntity
  8
240
  6
CONTINUOUS
100
AcDbLine
 10
52.35358982
 20
-15.4
 30
0.0
 11
53.10000003
 21
-15.6
 31
0.0
1001
GRPNAME
1000
PASTMD0V
  0
LINE
  5
BC5
330
B87
100
AcDbEntity
  8
240
  6
CONTINUOUS
100
AcDbLine
 10
64.4
 20
1.77218521
 30
0.0
 11
64.4
 21
15.3
 31
0.0
1001
GRPNAME
1000
PASTMD0V
  0
LWPOLYLINE
  5
BC6
330
B87
100
AcDbEntity
  8
241
  6
CONTINUOUS
100
AcDbPolyline
 90
       70
 70
     0
 43
0.0
 10
61.67758769
 20
10.13541832
 10
61.68835342
 20
10.20691779
 10
61.69552481
 20
10.27889892
 10
61.69908698
 20
10.3512125
 10
61.69903255
 20
10.42370867
 10
61.69536164
 20
10.49623715
 10
61.68808185
 20
10.56864763
 10
61.67720827
 20
10.64079002
 10
61.66276344
 20
10.7125148
 10
61.6447773
 20
10.78367331
 10
61.62328712
 20
10.85411805
 10
61.59833746
 20
10.92370303
 10
61.56998001
 20
10.99228401
 10
61.53827356
 20
11.05971886
 10
61.50328382
 20
11.12586779
 10
61.46508331
 20
11.19059372
 10
61.42375122
 20
11.25376248
 10
61.3793732
 20
11.31524315
 10
61.33204124
 20
11.37490829
 10
61.28185343
 20
11.43263426
 10
61.22891381
 20
11.48830139
 10
61.1733321
 20
11.54179431
 10
61.1152235
 20
11.59300214
 10
61.05470844
 20
11.64181876
 10
60.99191236
 20
11.68814298
 10
60.92696541
 20
11.73187879
 10
60.8600022
 20
11.77293554
 10
60.79116152
 20
11.81122813
 10
60.72058606
 20
11.84667719
 10
60.64842209
 20
11.87920926
 10
60.57481919
 20
11.9087569
 10
60.49992991
 20
11.93525887
 10
60.42390946
 20
11.95866024
 10
60.34691542
 20
11.97891252
 10
60.26910736
 20
11.99597371
 10
60.19064655
 20
12.00980847
 10
60.11169561
 20
12.02038811
 10
60.03241819
 20
12.02769072
 10
59.9529786
 20
12.03170114
 10
59.87354148
 20
12.03241108
 10
59.79427149
 20
12.02981906
 10
59.71533292
 20
12.02393045
 10
59.63688939
 20
12.01475745
 10
59.55910347
 20
12.00231909
 10
59.48213641
 20
11.98664113
 10
59.40614771
 20
11.96775608
 10
59.33129488
 20
11.94570307
 10
59.25773306
 20
11.92052783
 10
59.18561472
 20
11.89228251
 10
59.11508934
 20
11.86102567
 10
59.04630309
 20
11.8268221
 10
58.97939854
 20
11.78974268
 10
58.91451436
 20
11.74986426
 10
58.85178504
 20
11.70726951
 10
58.79134059
 20
11.6620467
 10
58.73330628
 20
11.61428957
 10
58.67780241
 20
11.5640971
 10
58.62494402
 20
11.51157332
 10
58.57484066
 20
11.45682709
 10
58.52759618
 20
11.39997189
 10
58.4833085
 20
11.34112556
 10
58.44206941
 20
11.28041006
 10
58.40396439
 20
11.21795123
 10
58.36907241
 20
11.15387854
 10
58.33746581
 20
11.08832478
 10
58.30921007
 20
11.02142583
 10
58.28436378
 20
10.95332033
 10
58.26297842
 20
10.88414946
 10
58.24509833
 20
10.81405657
 10
58.23076055
 20
10.74318694
1001
GRPNAME
1000
PASTMD0V
  0
LINE
  5
BC7
330
B87
100
AcDbEntity
  8
241
  6
CONTINUOUS
100
AcDbLine
 10
52.10645958
 20
0.67286493
 30
0.0
 11
64.4
 21
-3.80161786
 31
0.0
1001
GRPNAME
1000
PASTMD0V
  0
LINE
  5
BC8
330
B87
100
AcDbEntity
  8
241
  6
CONTINUOUS
100
AcDbLine
 10
64.39105095
 20
1.77376317
 30
0.0
 11
53.57370018
 21
3.68115397
 31
0.0
1001
GRPNAME
1000
PASTMD0V
  0
LINE
  5
BC9
330
B87
100
AcDbEntity
  8
241
  6
CONTINUOUS
100
AcDbLine
 10
43.85021022
 20
2.54870543
 30
0.0
 11
52.29510377
 21
1.05964284
 31
0.0
1001
GRPNAME
1000
PASTMD0V
  0
LINE
  5
BCA
330
B87
100
AcDbEntity
  8
241
  6
CONTINUOUS
100
AcDbLine
 10
53.57370018
 20
3.68115397
 30
0.0
 11
52.10645958
 21
0.67286493
 31
0.0
1001
GRPNAME
1000
PASTMD0V
  0
LINE
  5
BCB
330
B87
100
AcDbEntity
  8
240
  6
CONTINUOUS
100
AcDbLine
 10
64.39105095
 20
1.77376317
 30
0.0
 11
65.0
 21
-4.02
 31
0.0
1001
GRPNAME
1000
PASTMD0V
  0
LINE
  5
BCC
330
B87
100
AcDbEntity
  8
240
  6
CONTINUOUS
100
AcDbLine
 10
65.0
 20
-4.02
 30
0.0
 11
64.4
 21
-3.80161786
 31
0.0
1001
GRPNAME
1000
PASTMD0V
  0
LINE
  5
BCD
330
B87
100
AcDbEntity
  8
240
  6
CONTINUOUS
100
AcDbLine
 10
64.4
 20
1.77218521
 30
0.0
 11
64.39105095
 21
1.77376317
 31
0.0
1001
GRPNAME
1000
PASTMD0V
  0
LWPOLYLINE
  5
BCE
330
B87
100
AcDbEntity
  8
241
  6
CONTINUOUS
100
AcDbPolyline
 90
       70
 70
     0
 43
0.0
 10
58.23076055
 20
10.74318694
 10
58.21487884
 20
10.64267332
 10
58.20260208
 20
10.54173818
 10
58.19395572
 20
10.44059072
 10
58.18895768
 20
10.3394406
 10
58.18761832
 20
10.23849745
 10
58.18994042
 20
10.13797051
 10
58.19591916
 20
10.03806812
 10
58.20554215
 20
9.93899735
 10
58.21878946
 20
9.84096354
 10
58.23563361
 20
9.74416987
 10
58.25603969
 20
9.64881698
 10
58.27996543
 20
9.55510249
 10
58.30736121
 20
9.46322064
 10
58.33817027
 20
9.37336187
 10
58.37232874
 20
9.28571242
 10
58.40976582
 20
9.20045397
 10
58.45040393
 20
9.11776322
 10
58.49415883
 20
9.03781156
 10
58.54093984
 20
8.9607647
 10
58.59064999
 20
8.88678234
 10
58.64318625
 20
8.81601782
 10
58.69843974
 20
8.7486178
 10
58.75629593
 20
8.68472199
 10
58.8166349
 20
8.62446281
 10
58.87933159
 20
8.56796516
 10
58.94425606
 20
8.51534614
 10
59.01127374
 20
8.46671482
 10
59.08024573
 20
8.42217199
 10
59.15102906
 20
8.38180997
 10
59.22347704
 20
8.34571242
 10
59.2974395
 20
8.31395415
 10
59.37276314
 20
8.286601
 10
59.44929184
 20
8.26370964
 10
59.52686699
 20
8.24532754
 10
59.6053278
 20
8.23149278
 10
59.68451164
 20
8.22223405
 10
59.76425441
 20
8.21757052
 10
59.84439081
 20
8.21751188
 10
59.92475475
 20
8.22205824
 10
60.00517967
 20
8.23120018
 10
60.08549887
 20
8.24491874
 10
60.16554588
 20
8.2631855
 10
60.24515479
 20
8.2859626
 10
60.3241606
 20
8.31320282
 10
60.40239955
 20
8.34484971
 10
60.47970949
 20
8.38083767
 10
60.55593018
 20
8.42109212
 10
60.63090364
 20
8.46552961
 10
60.70447447
 20
8.51405806
 10
60.77649019
 20
8.56657686
 10
60.84680153
 20
8.62297717
 10
60.91526277
 20
8.6831421
 10
60.981732
 20
8.74694694
 10
61.04607146
 20
8.81425944
 10
61.1081478
 20
8.88494009
 10
61.16783235
 20
8.9588424
 10
61.22500141
 20
9.03581319
 10
61.27953649
 20
9.11569292
 10
61.33132455
 20
9.19831604
 10
61.38025826
 20
9.28351129
 10
61.42623619
 20
9.37110209
 10
61.46916304
 20
9.46090691
 10
61.50894985
 20
9.55273959
 10
61.54551415
 20
9.64640982
 10
61.57878016
 20
9.74172343
 10
61.60867892
 20
9.83848289
 10
61.63514846
 20
9.93648764
 10
61.65813393
 20
10.03553454
 10
61.67758769
 20
10.13541832
1001
GRPNAME
1000
PASTMD0V
  0
LINE
  5
BCF
330
B87
100
AcDbEntity
  8
240
  6
CONTINUOUS
100
AcDbLine
 10
64.4
 20
15.3
 30
0.0
 11
53.10000003
 21
15.6
 31
0.0
1001
GRPNAME
1000
PASTMD0V
  0
LINE
  5
BD0
330
B87
100
AcDbEntity
  8
246
100
AcDbLine
 10
65.0
 20
16.0
 30
0.0
 11
54.0
 21
16.0
 31
0.0
  0
LINE
  5
BD1
330
B87
100
AcDbEntity
  8
240
  6
CONTINUOUS
100
AcDbLine
 10
52.35358982
 20
15.4
 30
0.0
 11
53.10000003
 21
15.6
 31
0.0
1001
GRPNAME
1000
PASTMD0V
  0
ENDBLK
  5
B89
330
B87
100
AcDbEntity
  8
0
100
AcDbBlockEnd
  0
ENDSEC
  0
SECTION
  2
ENTITIES
  0
INSERT
  5
6E6
330
1A
100
AcDbEntity
  8
245
100
AcDbBlockReference
  2
矢印なし
 10
175.62382697
 20
90.55123572
 30
0.0
  0
TEXT
  5
8A3
330
1A
100
AcDbEntity
  8
241
100
AcDbText
 10
-48.4
 20
56.0
 30
0.0
 40
5.0
  1
BBT30-FCM32113-65
  7
YOKO
 11
-48.4
 21
56.0
 31
0.0
100
AcDbText
 73
     1
  0
DIMENSION
  5
987
330
1A
100
AcDbEntity
  8
250
  6
CONTINUOUS
100
AcDbDimension
  2
*D2
 10
77.0
 20
16.0
 30
0.0
 11
74.6
 21
0.0
 31
0.0
 70
    32
  1
{\H2.8;\U+2205}<>
  3
BIGT
100
AcDbAlignedDimension
 13
65.0
 23
-16.0
 33
0.0
 14
65.0
 24
16.0
 34
0.0
 50
90.0
100
AcDbRotatedDimension
  0
DIMENSION
  5
996
330
1A
100
AcDbEntity
  8
250
  6
CONTINUOUS
100
AcDbDimension
  2
*D3
 10
65.0
 20
28.0
 30
0.0
 11
59.5
 21
30.4
 31
0.0
 70
    32
  3
BIGT
100
AcDbAlignedDimension
 13
54.0
 23
16.0
 33
0.0
 14
65.0
 24
16.0
 34
0.0
100
AcDbRotatedDimension
  0
DIMENSION
  5
9A5
330
1A
100
AcDbEntity
  8
250
  6
CONTINUOUS
100
AcDbDimension
  2
*D4
 10
65.0
 20
42.0
 30
0.0
 11
32.5
 21
44.4
 31
0.0
 70
    32
  3
BIGT
100
AcDbAlignedDimension
 13
0.0
 23
15.875
 33
0.0
 14
65.0
 24
16.0
 34
0.0
100
AcDbRotatedDimension
  0
DIMENSION
  5
9B4
330
1A
100
AcDbEntity
  8
250
  6
CONTINUOUS
100
AcDbDimension
  2
*D5
 10
65.0
 20
35.0
 30
0.0
 11
46.0
 21
37.4
 31
0.0
 70
    32
  3
BIGT
100
AcDbAlignedDimension
 13
27.0
 23
15.4
 33
0.0
 14
65.0
 24
16.0
 34
0.0
100
AcDbRotatedDimension
  0
MTEXT
  5
B46
330
1A
100
AcDbEntity
  8
251
  6
CONTINUOUS
100
AcDbMText
 10
-42.44207074
 20
-20.23884234
 30
0.0
 40
2.8
 41
0.0
 71
     7
 72
     1
  1
BBT30
  7
YOKO
1001
ITEMNAME
1000
LNSP3
1001
ACAD
1000
MTEXTBEGIN
1070
    73
1070
     1
1070
    44
1040
1.0
1070
    74
1070
     0
1000
MTEXTEND
1000
MTEXTBEGIN
1070
    73
1070
     1
1070
    44
1040
1.0
1070
    74
1070
     0
1000
MTEXTEND
1000
MTEXTBEGIN
1070
    73
1070
     1
1070
    44
1040
1.0
1070
    74
1070
     0
1000
MTEXTEND
  0
LEADER
  5
B47
330
1A
100
AcDbEntity
  8
250
  6
CONTINUOUS
100
AcDbLeader
  3
BIGT
 76
     2
 10
-22.51609141
 20
-12.5913258
 30
0.0
 10
-27.50873741
 20
-21.23884234
 30
0.0
1001
ACAD
1000
DSTYLE
1002
{
1070
     6
1000
OPEN
1070
   343
1005
594
1002
}
  0
LINE
  5
B48
330
1A
100
AcDbEntity
  8
250
  6
CONTINUOUS
100
AcDbLine
 10
-27.50873741
 20
-21.23884234
 30
0.0
 11
-45.24207074
 21
-21.23884234
 31
0.0
1001
ITEMNAME
1000
LNSP2
  0
INSERT
  5
BD2
330
1A
100
AcDbEntity
  8
245
100
AcDbBlockReference
  2
1
 10
0.0
 20
0.0
 30
0.0
  0
VIEWPORT
  5
22
330
17
100
AcDbEntity
 67
     1
  8
0
100
AcDbViewport
 10
261.51769912
 20
148.5
 30
0.0
 40
523.03539823
 41
297.0
 68
     1
 69
     1
1001
ACAD
1000
MVIEW
1002
{
1070
    16
1010
0.0
1020
0.0
1030
0.0
1010
0.0
1020
0.0
1030
1.0
1040
0.0
1040
297.0
1040
261.51769912
1040
148.5
1040
50.0
1040
0.0
1040
0.0
1070
     0
1070
   100
1070
     1
1070
     1
1070
     0
1070
     0
1070
     0
1070
     0
1040
0.0
1040
0.0
1040
0.0
1040
1.0
1040
1.0
1040
10.0
1040
10.0
1070
     0
1002
{
1002
}
1002
}
  0
ENDSEC
  0
SECTION
  2
OBJECTS
  0
DICTIONARY
  5
C
330
0
100
AcDbDictionary
  3
ACAD_GROUP
350
D
  3
ACAD_LAYOUT
350
565
  3
ACAD_MLINESTYLE
350
E
  3
ACAD_PLOTSETTINGS
350
566
  3
ACAD_PLOTSTYLENAME
350
563
  3
ACDBHEADERROUNDTRIPXREC
350
BD4
  3
GRADE_DWG
350
540
  0
DICTIONARY
  5
AA7
330
1A
100
AcDbDictionary
280
     1
  3
ACAD_LAYOUTSELFREF
360
BF6
  0
DICTIONARY
  5
AA5
330
17
100
AcDbDictionary
280
     1
  3
ACAD_LAYOUTSELFREF
360
BF5
  0
DICTIONARY
  5
D
102
{ACAD_REACTORS
330
C
102
}
330
C
100
AcDbDictionary
  3
*A1
350
6C7
  3
*A2
350
6C8
  3
*A3
350
6D4
  3
*A4
350
6D5
  3
DREC-1
350
5FC
  3
DREC-2
350
654
  3
DREC-3
350
673
  0
DICTIONARY
  5
565
102
{ACAD_REACTORS
330
C
102
}
330
C
100
AcDbDictionary
  0
DICTIONARY
  5
E
102
{ACAD_REACTORS
330
C
102
}
330
C
100
AcDbDictionary
  3
STANDARD
350
13
  0
DICTIONARY
  5
566
102
{ACAD_REACTORS
330
C
102
}
330
C
100
AcDbDictionary
  3
A3_0_5倍_
350
758
  3
A3_1倍_
350
757
  3
A3_1倍__2000_
350
707
  3
A3_2倍_
350
759
  3
A4_0_5倍_
350
755
  3
A4_1倍_
350
754
  3
A4_1倍__2000_
350
708
  3
A4_2倍_
350
756
  0
ACDBDICTIONARYWDFLT
  5
563
102
{ACAD_REACTORS
330
C
102
}
330
C
100
AcDbDictionary
281
     1
  3
Normal
350
564
100
AcDbDictionaryWithDefault
340
564
  0
DICTIONARY
  5
BD4
102
{ACAD_REACTORS
330
C
102
}
330
C
100
AcDbDictionary
  3
CEPSNTYPE
350
BDE
  3
DIMSTYLEDATA
350
BE2
  3
FINGERPRINTGUID
350
BDF
  3
HYPERLINKBASE
350
BD7
  3
INSUNITS
350
BDD
  3
LAYOUTDICT
350
BD9
  3
LWETCUNION
350
BDC
  3
PLOTSETDICT
350
BDA
  3
PLOTSTYLNAMDICT
350
BDB
  3
PSVPSCALE
350
BE1
  3
PUCSBASE
350
BE5
  3
PUCSORGBACK
350
BEB
  3
PUCSORGBOTTOM
350
BE7
  3
PUCSORGFRONT
350
BEA
  3
PUCSORGLEFT
350
BE8
  3
PUCSORGRIGHT
350
BE9
  3
PUCSORGTOP
350
BE6
  3
PUCSORTHOREF
350
BE3
  3
PUCSORTHOVIEW
350
BE4
  3
STYLESHEET
350
BD8
  3
TSTACKALIGN
350
BD5
  3
TSTACKSIZE
350
BD6
  3
UCSBASE
350
BEE
  3
UCSORGBACK
350
BF4
  3
UCSORGBOTTOM
350
BF0
  3
UCSORGFRONT
350
BF3
  3
UCSORGLEFT
350
BF1
  3
UCSORGRIGHT
350
BF2
  3
UCSORGTOP
350
BEF
  3
UCSORTHOREF
350
BEC
  3
UCSORTHOVIEW
350
BED
  3
VERSIONGUID
350
BE0
  0
DICTIONARY
  5
540
102
{ACAD_REACTORS
330
C
102
}
330
C
100
AcDbDictionary
  3
VERSION
350
560
  0
XRECORD
  5
BF6
102
{ACAD_REACTORS
330
AA7
102
}
330
AA7
100
AcDbXrecord
340
1A
  0
XRECORD
  5
BF5
102
{ACAD_REACTORS
330
AA5
102
}
330
AA5
100
AcDbXrecord
340
17
  0
GROUP
  5
6C7
102
{ACAD_REACTORS
330
D
102
}
330
D
100
AcDbGroup
300

 70
     0
 71
     1
1001
GRPNAME
1000
DMA00
  0
GROUP
  5
6C8
102
{ACAD_REACTORS
330
D
102
}
330
D
100
AcDbGroup
300

 70
     0
 71
     1
1001
GRPNAME
1000
DMA00
  0
GROUP
  5
6D4
102
{ACAD_REACTORS
330
D
102
}
330
D
100
AcDbGroup
300

 70
     0
 71
     1
1001
GRPNAME
1000
DMA00
  0
GROUP
  5
6D5
102
{ACAD_REACTORS
330
D
102
}
330
D
100
AcDbGroup
300

 70
     0
 71
     1
1001
GRPNAME
1000
DMA00
  0
GROUP
  5
5FC
102
{ACAD_REACTORS
330
D
102
}
330
D
100
AcDbGroup
300

 70
     0
 71
     1
1001
GRPNAME
1000
DREC-
1001
GPARA
1000
xsiz
1000
44.182
1000
ysiz
1000
40.677
1000
angl
1000
0
1000
ctyp
1000
0
1000
csiz
1000
5
1000
lfnt
1000
cont
1000
hcnt
1000
hoff
1000
vcnt
1000
voff
1000
opnt
1000
4
1000
dxpt
1000
0
1000
dypt
1000
0
  0
GROUP
  5
654
102
{ACAD_REACTORS
330
D
102
}
330
D
100
AcDbGroup
300

 70
     0
 71
     1
1001
GRPNAME
1000
DREC-
1001
GPARA
1000
xsiz
1000
54.592
1000
ysiz
1000
53.036
1000
angl
1000
0
1000
ctyp
1000
0
1000
csiz
1000
5
1000
lfnt
1000
cont
1000
hcnt
1000
hoff
1000
vcnt
1000
voff
1000
opnt
1000
4
1000
dxpt
1000
0
1000
dypt
1000
0
  0
GROUP
  5
673
102
{ACAD_REACTORS
330
D
102
}
330
D
100
AcDbGroup
300

 70
     0
 71
     1
1001
GRPNAME
1000
DREC-
1001
GPARA
1000
xsiz
1000
30.363
1000
ysiz
1000
36.175
1000
angl
1000
0
1000
ctyp
1000
0
1000
csiz
1000
5
1000
lfnt
1000
cont
1000
hcnt
1000
hoff
1000
vcnt
1000
voff
1000
opnt
1000
4
1000
dxpt
1000
0
1000
dypt
1000
0
  0
MLINESTYLE
  5
13
102
{ACAD_REACTORS
330
E
102
}
330
E
100
AcDbMlineStyle
  2
STANDARD
 70
     0
  3

 62
     0
 51
90.0
 52
90.0
 71
     2
 49
0.5
 62
   256
  6
BYLAYER
 49
-0.5
 62
   256
  6
BYLAYER
  0
PLOTSETTINGS
  5
758
102
{ACAD_REACTORS
330
566
102
}
330
566
100
AcDbPlotSettings
  1
A3(0.5倍)
  2
\\AWTECPC05\HP DeskJet 1120C
  4
A3
  6

 40
5.95841646
 41
13.49375153
 42
6.04309082
 43
3.67242432
 44
296.92599487
 45
419.94665527
 46
89.96
 47
127.14
 48
0.0
 49
0.0
140
0.0
141
0.0
142
1.0
143
2.0
 70
  1716
 72
     1
 73
     1
 74
     2
  7
big.ctb
 75
    17
147
0.5
148
0.0
149
0.0
  0
PLOTSETTINGS
  5
757
102
{ACAD_REACTORS
330
566
102
}
330
566
100
AcDbPlotSettings
  1
A3(1倍)
  2
\\AWTECPC05\HP DeskJet 1120C
  4
A3
  6

 40
5.95841646
 41
13.49375153
 42
6.04309082
 43
3.67242432
 44
296.92599487
 45
419.94665527
 46
37.46
 47
52.89
 48
0.0
 49
0.0
140
0.0
141
0.0
142
1.0
143
1.0
 70
  1716
 72
     1
 73
     1
 74
     2
  7
big.ctb
 75
    16
147
1.0
148
0.0
149
0.0
  0
PLOTSETTINGS
  5
707
102
{ACAD_REACTORS
330
566
102
}
330
566
100
AcDbPlotSettings
  1
A3(1倍)(2000)
  2
SII LS-1300 (D-SCAN)
  4
User258
  6

 40
3.17499995
 41
3.17499995
 42
3.17498779
 43
3.17498779
 44
419.98898315
 45
296.98950195
 46
58.32
 47
40.32
 48
0.0
 49
0.0
140
0.0
141
0.0
142
1.0
143
1.0
 70
  1716
 72
     1
 73
     0
 74
     2
  7
big.ctb
 75
    16
147
1.0
148
0.0
149
0.0
  0
PLOTSETTINGS
  5
759
102
{ACAD_REACTORS
330
566
102
}
330
566
100
AcDbPlotSettings
  1
A3(2倍)
  2
\\AWTECPC05\HP DeskJet 1120C
  4
A3
  6

 40
5.95841646
 41
13.49375153
 42
6.04309082
 43
3.67242432
 44
296.92599487
 45
419.94665527
 46
-67.54
 47
-95.61
 48
0.0
 49
0.0
140
0.0
141
0.0
142
1.0
143
0.5
 70
  1716
 72
     1
 73
     1
 74
     2
  7
big.ctb
 75
    27
147
2.0
148
0.0
149
0.0
  0
PLOTSETTINGS
  5
755
102
{ACAD_REACTORS
330
566
102
}
330
566
100
AcDbPlotSettings
  1
A4(0.5倍)
  2
\\AWTECPC05\HP DeskJet 1120C
  4
A4
  6

 40
4.18041658
 41
13.49374962
 42
4.18040466
 43
3.92642212
 44
209.97332764
 45
296.92599487
 46
48.31
 47
65.5
 48
0.0
 49
0.0
140
0.0
141
0.0
142
1.0
143
2.0
 70
  1716
 72
     1
 73
     1
 74
     2
  7
big.ctb
 75
    17
147
0.5
148
0.0
149
0.0
  0
PLOTSETTINGS
  5
754
102
{ACAD_REACTORS
330
566
102
}
330
566
100
AcDbPlotSettings
  1
A4(1倍)
  2
\\AWTECPC05\HP DeskJet 1120C
  4
A4
  6

 40
4.18041658
 41
13.49374962
 42
4.18040466
 43
3.92642212
 44
209.97332764
 45
296.92599487
 46
-4.19
 47
-8.75
 48
0.0
 49
0.0
140
0.0
141
0.0
142
1.0
143
1.0
 70
  1716
 72
     1
 73
     1
 74
     2
  7
big.ctb
 75
    16
147
1.0
148
0.0
149
0.0
  0
PLOTSETTINGS
  5
708
102
{ACAD_REACTORS
330
566
102
}
330
566
100
AcDbPlotSettings
  1
A4(1倍)(2000)
  2
SII LS-1300 (D-SCAN)
  4
User259
  6

 40
3.17499995
 41
3.17499995
 42
3.17498779
 43
3.17500305
 44
296.98950195
 45
209.99449158
 46
-3.18
 47
-3.18
 48
0.0
 49
0.0
140
0.0
141
0.0
142
1.0
143
1.0
 70
  1716
 72
     1
 73
     0
 74
     2
  7
big.ctb
 75
    16
147
1.0
148
0.0
149
0.0
  0
PLOTSETTINGS
  5
756
102
{ACAD_REACTORS
330
566
102
}
330
566
100
AcDbPlotSettings
  1
A4(2倍)
  2
\\AWTECPC05\HP DeskJet 1120C
  4
A4
  6

 40
4.18041658
 41
13.49374962
 42
4.18040466
 43
3.92642212
 44
209.97332764
 45
296.92599487
 46
-109.19
 47
-157.25
 48
0.0
 49
0.0
140
0.0
141
0.0
142
1.0
143
0.5
 70
  1716
 72
     1
 73
     1
 74
     2
  7
big.ctb
 75
    27
147
2.0
148
0.0
149
0.0
  0
ACDBPLACEHOLDER
  5
564
102
{ACAD_REACTORS
330
563
102
}
330
563
100
AcDbPlaceHolder
280
     0
  0
XRECORD
  5
BDE
102
{ACAD_REACTORS
330
BD4
102
}
330
BD4
100
AcDbXrecord
 90
        0
  0
XRECORD
  5
BE2
102
{ACAD_REACTORS
330
BD4
102
}
330
BD4
100
AcDbXrecord
1000
DSTYLE
1002
{
1070
    79
 70
     2
1070
   179
 70
     3
1070
   341
340
594
1070
   343
340
594
1070
   344
340
594
1070
   371
 70
    -1
1070
   372
 70
    -1
1002
}
  0
XRECORD
  5
BDF
102
{ACAD_REACTORS
330
BD4
102
}
330
BD4
100
AcDbXrecord
  1
{51294030-9CB4-11D3-8E18-00A0C925D94D}
  0
XRECORD
  5
BD7
102
{ACAD_REACTORS
330
BD4
102
}
330
BD4
100
AcDbXrecord
  1

  0
XRECORD
  5
BDD
102
{ACAD_REACTORS
330
BD4
102
}
330
BD4
100
AcDbXrecord
 90
        0
  0
XRECORD
  5
BD9
102
{ACAD_REACTORS
330
BD4
102
}
330
BD4
100
AcDbXrecord
340
565
  0
XRECORD
  5
BDC
102
{ACAD_REACTORS
330
BD4
102
}
330
BD4
100
AcDbXrecord
 90
    10781
  0
XRECORD
  5
BDA
102
{ACAD_REACTORS
330
BD4
102
}
330
BD4
100
AcDbXrecord
340
566
  0
XRECORD
  5
BDB
102
{ACAD_REACTORS
330
BD4
102
}
330
BD4
100
AcDbXrecord
340
563
  0
XRECORD
  5
BE1
102
{ACAD_REACTORS
330
BD4
102
}
330
BD4
100
AcDbXrecord
 40
0.0
  0
XRECORD
  5
BE5
102
{ACAD_REACTORS
330
BD4
102
}
330
BD4
100
AcDbXrecord
340
0
  0
XRECORD
  5
BEB
102
{ACAD_REACTORS
330
BD4
102
}
330
BD4
100
AcDbXrecord
 10
0.0
 20
0.0
 30
0.0
  0
XRECORD
  5
BE7
102
{ACAD_REACTORS
330
BD4
102
}
330
BD4
100
AcDbXrecord
 10
0.0
 20
0.0
 30
0.0
  0
XRECORD
  5
BEA
102
{ACAD_REACTORS
330
BD4
102
}
330
BD4
100
AcDbXrecord
 10
0.0
 20
0.0
 30
0.0
  0
XRECORD
  5
BE8
102
{ACAD_REACTORS
330
BD4
102
}
330
BD4
100
AcDbXrecord
 10
0.0
 20
0.0
 30
0.0
  0
XRECORD
  5
BE9
102
{ACAD_REACTORS
330
BD4
102
}
330
BD4
100
AcDbXrecord
 10
0.0
 20
0.0
 30
0.0
  0
XRECORD
  5
BE6
102
{ACAD_REACTORS
330
BD4
102
}
330
BD4
100
AcDbXrecord
 10
0.0
 20
0.0
 30
0.0
  0
XRECORD
  5
BE3
102
{ACAD_REACTORS
330
BD4
102
}
330
BD4
100
AcDbXrecord
340
0
  0
XRECORD
  5
BE4
102
{ACAD_REACTORS
330
BD4
102
}
330
BD4
100
AcDbXrecord
 70
     0
  0
XRECORD
  5
BD8
102
{ACAD_REACTORS
330
BD4
102
}
330
BD4
100
AcDbXrecord
  1
big.ctb
  0
XRECORD
  5
BD5
102
{ACAD_REACTORS
330
BD4
102
}
330
BD4
100
AcDbXrecord
 90
        1
  0
XRECORD
  5
BD6
102
{ACAD_REACTORS
330
BD4
102
}
330
BD4
100
AcDbXrecord
 90
       70
  0
XRECORD
  5
BEE
102
{ACAD_REACTORS
330
BD4
102
}
330
BD4
100
AcDbXrecord
340
0
  0
XRECORD
  5
BF4
102
{ACAD_REACTORS
330
BD4
102
}
330
BD4
100
AcDbXrecord
 10
0.0
 20
0.0
 30
0.0
  0
XRECORD
  5
BF0
102
{ACAD_REACTORS
330
BD4
102
}
330
BD4
100
AcDbXrecord
 10
0.0
 20
0.0
 30
0.0
  0
XRECORD
  5
BF3
102
{ACAD_REACTORS
330
BD4
102
}
330
BD4
100
AcDbXrecord
 10
0.0
 20
0.0
 30
0.0
  0
XRECORD
  5
BF1
102
{ACAD_REACTORS
330
BD4
102
}
330
BD4
100
AcDbXrecord
 10
0.0
 20
0.0
 30
0.0
  0
XRECORD
  5
BF2
102
{ACAD_REACTORS
330
BD4
102
}
330
BD4
100
AcDbXrecord
 10
0.0
 20
0.0
 30
0.0
  0
XRECORD
  5
BEF
102
{ACAD_REACTORS
330
BD4
102
}
330
BD4
100
AcDbXrecord
 10
0.0
 20
0.0
 30
0.0
  0
XRECORD
  5
BEC
102
{ACAD_REACTORS
330
BD4
102
}
330
BD4
100
AcDbXrecord
340
0
  0
XRECORD
  5
BED
102
{ACAD_REACTORS
330
BD4
102
}
330
BD4
100
AcDbXrecord
 70
     0
  0
XRECORD
  5
BE0
102
{ACAD_REACTORS
330
BD4
102
}
330
BD4
100
AcDbXrecord
  1
{00BDDF3E-CD4F-457D-843C-9B888D050210}
  0
XRECORD
  5
560
102
{ACAD_REACTORS
330
540
102
}
330
540
100
AcDbXrecord
  1
2.0.0
  0
ENDSEC
  0
EOF
