  0
SECTION
  2
HEADER
  9
$ACADVER
  1
AC1014
  9
$ACADMAINTVER
 70
     9
  9
$DWGCODEPAGE
  3
ANSI_932
  9
$INSBASE
 10
0.0
 20
0.0
 30
0.0
  9
$EXTMIN
 10
-49.41432386
 20
-23.00976488
 30
-0.00152582
  9
$EXTMAX
 10
99.02798229
 20
57.50781297
 30
0.00000003
  9
$LIMMIN
 10
0.0
 20
0.0
  9
$LIMMAX
 10
420.0
 20
297.0
  9
$ORTHOMODE
 70
     0
  9
$REGENMODE
 70
     1
  9
$FILLMODE
 70
     1
  9
$QTEXTMODE
 70
     0
  9
$MIRRTEXT
 70
     1
  9
$DRAGMODE
 70
     2
  9
$LTSCALE
 40
10.0
  9
$OSMODE
 70
   549
  9
$ATTMODE
 70
     1
  9
$TEXTSIZE
 40
3.0
  9
$TRACEWID
 40
1.0
  9
$TEXTSTYLE
  7
YOKO
  9
$CLAYER
  8
245
  9
$CELTYPE
  6
BYLAYER
  9
$CECOLOR
 62
   256
  9
$CELTSCALE
 40
1.0
  9
$DELOBJ
 70
     1
  9
$DISPSILH
 70
     0
  9
$DIMSCALE
 40
1.0
  9
$DIMASZ
 40
2.23
  9
$DIMEXO
 40
0.5
  9
$DIMDLI
 40
2.5
  9
$DIMRND
 40
0.0
  9
$DIMDLE
 40
0.0
  9
$DIMEXE
 40
1.0
  9
$DIMTP
 40
0.0
  9
$DIMTM
 40
0.0
  9
$DIMTXT
 40
2.8
  9
$DIMCEN
 40
0.0
  9
$DIMTSZ
 40
0.0
  9
$DIMTOL
 70
     0
  9
$DIMLIM
 70
     0
  9
$DIMTIH
 70
     0
  9
$DIMTOH
 70
     0
  9
$DIMSE1
 70
     0
  9
$DIMSE2
 70
     0
  9
$DIMTAD
 70
     3
  9
$DIMZIN
 70
     8
  9
$DIMBLK
  1

  9
$DIMASO
 70
     1
  9
$DIMSHO
 70
     1
  9
$DIMPOST
  1

  9
$DIMAPOST
  1

  9
$DIMALT
 70
     0
  9
$DIMALTD
 70
     2
  9
$DIMALTF
 40
25.4
  9
$DIMLFAC
 40
1.0
  9
$DIMTOFL
 70
     1
  9
$DIMTVP
 40
0.0
  9
$DIMTIX
 70
     1
  9
$DIMSOXD
 70
     0
  9
$DIMSAH
 70
     1
  9
$DIMBLK1
  1
OPEN
  9
$DIMBLK2
  1
OPEN
  9
$DIMSTYLE
  2
BIGT
  9
$DIMCLRD
 70
   256
  9
$DIMCLRE
 70
   256
  9
$DIMCLRT
 70
    40
  9
$DIMTFAC
 40
1.0
  9
$DIMGAP
 40
1.0
  9
$DIMJUST
 70
     0
  9
$DIMSD1
 70
     0
  9
$DIMSD2
 70
     0
  9
$DIMTOLJ
 70
     1
  9
$DIMTZIN
 70
     8
  9
$DIMALTZ
 70
     0
  9
$DIMALTTZ
 70
     0
  9
$DIMFIT
 70
     3
  9
$DIMUPT
 70
     0
  9
$DIMUNIT
 70
     2
  9
$DIMDEC
 70
     3
  9
$DIMTDEC
 70
     3
  9
$DIMALTU
 70
     2
  9
$DIMALTTD
 70
     2
  9
$DIMTXSTY
  7
STANDARD
  9
$DIMAUNIT
 70
     0
  9
$LUNITS
 70
     2
  9
$LUPREC
 70
     3
  9
$SKETCHINC
 40
1.0
  9
$FILLETRAD
 40
0.0
  9
$AUNITS
 70
     0
  9
$AUPREC
 70
     3
  9
$MENU
  1
.
  9
$ELEVATION
 40
0.0
  9
$PELEVATION
 40
0.0
  9
$THICKNESS
 40
0.0
  9
$LIMCHECK
 70
     0
  9
$BLIPMODE
 70
     0
  9
$CHAMFERA
 40
10.0
  9
$CHAMFERB
 40
10.0
  9
$CHAMFERC
 40
0.0
  9
$CHAMFERD
 40
0.0
  9
$SKPOLY
 70
     0
  9
$TDCREATE
 40
2455140.566783854
  9
$TDUPDATE
 40
2455377.586574247
  9
$TDINDWG
 40
0.0239212500
  9
$TDUSRTIMER
 40
0.0239212500
  9
$USRTIMER
 70
     1
  9
$ANGBASE
 50
0.0
  9
$ANGDIR
 70
     0
  9
$PDMODE
 70
     1
  9
$PDSIZE
 40
-5.0
  9
$PLINEWID
 40
0.0
  9
$COORDS
 70
     0
  9
$SPLFRAME
 70
     0
  9
$SPLINETYPE
 70
     6
  9
$SPLINESEGS
 70
     8
  9
$ATTDIA
 70
     0
  9
$ATTREQ
 70
     1
  9
$HANDLING
 70
-16383
  9
$HANDSEED
  5
D3F
  9
$SURFTAB1
 70
     6
  9
$SURFTAB2
 70
     6
  9
$SURFTYPE
 70
     6
  9
$SURFU
 70
     6
  9
$SURFV
 70
     6
  9
$UCSNAME
  2

  9
$UCSORG
 10
0.0
 20
0.0
 30
0.0
  9
$UCSXDIR
 10
1.0
 20
0.0
 30
0.0
  9
$UCSYDIR
 10
0.0
 20
1.0
 30
0.0
  9
$PUCSNAME
  2

  9
$PUCSORG
 10
0.0
 20
0.0
 30
0.0
  9
$PUCSXDIR
 10
1.0
 20
0.0
 30
0.0
  9
$PUCSYDIR
 10
0.0
 20
1.0
 30
0.0
  9
$USERI1
 70
     1
  9
$USERI2
 70
     0
  9
$USERI3
 70
     0
  9
$USERI4
 70
     0
  9
$USERI5
 70
     0
  9
$USERR1
 40
0.0
  9
$USERR2
 40
0.0
  9
$USERR3
 40
0.0
  9
$USERR4
 40
0.0
  9
$USERR5
 40
0.0
  9
$WORLDVIEW
 70
     1
  9
$SHADEDGE
 70
     3
  9
$SHADEDIF
 70
    70
  9
$TILEMODE
 70
     1
  9
$MAXACTVP
 70
    16
  9
$PINSBASE
 10
0.0
 20
0.0
 30
0.0
  9
$PLIMCHECK
 70
     0
  9
$PEXTMIN
 10
1.00000000E+20
 20
1.00000000E+20
 30
1.00000000E+20
  9
$PEXTMAX
 10
-1.00000000E+20
 20
-1.00000000E+20
 30
-1.00000000E+20
  9
$PLIMMIN
 10
0.0
 20
0.0
  9
$PLIMMAX
 10
420.0
 20
297.0
  9
$UNITMODE
 70
     0
  9
$VISRETAIN
 70
     0
  9
$PLINEGEN
 70
     0
  9
$PSLTSCALE
 70
     1
  9
$TREEDEPTH
 70
  3020
  9
$PICKSTYLE
 70
     0
  9
$CMLSTYLE
  2
STANDARD
  9
$CMLJUST
 70
     0
  9
$CMLSCALE
 40
1.0
  9
$PROXYGRAPHICS
 70
     1
  9
$MEASUREMENT
 70
     1
  0
ENDSEC
  0
SECTION
  2
CLASSES
  0
CLASS
  1
XRECORD
  2
AcDbXrecord
  3
AutoCAD 2000
 90
        0
280
     0
281
     0
  0
CLASS
  1
ACDBDICTIONARYWDFLT
  2
AcDbDictionaryWithDefault
  3
AutoCAD 2000
 90
        0
280
     0
281
     0
  0
CLASS
  1
ACDBPLACEHOLDER
  2
AcDbPlaceHolder
  3
AutoCAD 2000
 90
        0
280
     0
281
     0
  0
CLASS
  1
LAYOUT
  2
AcDbLayout
  3
AutoCAD 2000
 90
        0
280
     0
281
     0
  0
CLASS
  1
PLOTSETTINGS
  2
AcDbPlotSettings
  3
AutoCAD 2000
 90
        0
280
     0
281
     0
  0
CLASS
  1
LONG_TRANSACTION
  2
AcDbLongTransaction
  3
AutoCAD 2000
 90
        0
280
     0
281
     0
  0
CLASS
  1
LWPOLYLINE
  2
AcDbPolyline
  3
AutoCAD 2000
 90
        0
280
     0
281
     1
  0
CLASS
  1
HATCH
  2
AcDbHatch
  3
AutoCAD 2000
 90
        0
280
     0
281
     1
  0
CLASS
  1
XRECORD
  2
AcDbXrecord
  3
AutoCAD 2000
 90
        0
280
     0
281
     0
  0
CLASS
  1
LONG_TRANSACTION
  2
AcDbLongTransaction
  3
AutoCAD 2000
 90
        0
280
     0
281
     0
  0
CLASS
  1
LWPOLYLINE
  2
AcDbPolyline
  3
AutoCAD 2000
 90
        0
280
     0
281
     1
  0
CLASS
  1
HATCH
  2
AcDbHatch
  3
AutoCAD 2000
 90
        0
280
     0
281
     1
  0
CLASS
  1
XRECORD
  2
AcDbXrecord
  3
AutoCAD 2000
 90
        0
280
     0
281
     0
  0
CLASS
  1
LONG_TRANSACTION
  2
AcDbLongTransaction
  3
AutoCAD 2000
 90
        0
280
     0
281
     0
  0
CLASS
  1
LWPOLYLINE
  2
AcDbPolyline
  3
AutoCAD 2000
 90
        0
280
     0
281
     1
  0
CLASS
  1
HATCH
  2
AcDbHatch
  3
AutoCAD 2000
 90
        0
280
     0
281
     1
  0
CLASS
  1
XRECORD
  2
AcDbXrecord
  3
AutoCAD 2000
 90
        0
280
     0
281
     0
  0
ENDSEC
  0
SECTION
  2
TABLES
  0
TABLE
  2
VPORT
  5
8
330
0
100
AcDbSymbolTable
 70
     4
  0
VPORT
  5
D1A
330
8
100
AcDbSymbolTableRecord
100
AcDbViewportTableRecord
  2
*ACTIVE
 70
     0
 10
0.0
 20
0.0
 11
1.0
 21
1.0
 12
24.80682921
 22
17.24902404
 13
0.0
 23
0.0
 14
7.0
 24
7.0
 15
7.0
 25
7.0
 16
0.0
 26
0.0
 36
1.0
 17
0.0
 27
0.0
 37
0.0
 40
102.49857579
 41
1.45595855
 42
50.0
 43
0.0
 44
0.0
 50
0.0
 51
0.0
 71
     0
 72
  2000
 73
     1
 74
     0
 75
     0
 76
     0
 77
     0
 78
     0
  0
ENDTAB
  0
TABLE
  2
LTYPE
  5
5
330
0
100
AcDbSymbolTable
 70
     4
  0
LTYPE
  5
14
330
5
100
AcDbSymbolTableRecord
100
AcDbLinetypeTableRecord
  2
BYBLOCK
 70
     0
  3

 72
    65
 73
     0
 40
0.0
  0
LTYPE
  5
15
330
5
100
AcDbSymbolTableRecord
100
AcDbLinetypeTableRecord
  2
BYLAYER
 70
     0
  3

 72
    65
 73
     0
 40
0.0
  0
LTYPE
  5
16
330
5
100
AcDbSymbolTableRecord
100
AcDbLinetypeTableRecord
  2
CONTINUOUS
 70
     0
  3
Solid line
 72
    65
 73
     0
 40
0.0
  0
LTYPE
  5
258
330
5
100
AcDbSymbolTableRecord
100
AcDbLinetypeTableRecord
  2
CENTER2
 70
     0
  3
___ _ ___ _ ___ _ ___ _ ___ _ ___ _ ___ _ ___ _
 72
    65
 73
     4
 40
1.125
 49
0.75
 74
     0
 49
-0.125
 74
     0
 49
0.125
 74
     0
 49
-0.125
 74
     0
  0
LTYPE
  5
25C
330
5
100
AcDbSymbolTableRecord
100
AcDbLinetypeTableRecord
  2
HIDDEN2
 70
     0
  3
_ _ _ _ _ _ _ _ _ _ _ _ _ _ _ _ _ _ _ _ _ _ _ _
 72
    65
 73
     2
 40
0.1875
 49
0.125
 74
     0
 49
-0.0625
 74
     0
  0
LTYPE
  5
25D
330
5
100
AcDbSymbolTableRecord
100
AcDbLinetypeTableRecord
  2
PHANTOM2
 70
     0
  3
___ _ _ ___ _ _ ___ _ _ ___ _ _ ___ _ _ ___ _ _
 72
    65
 73
     6
 40
1.25
 49
0.625
 74
     0
 49
-0.125
 74
     0
 49
0.125
 74
     0
 49
-0.125
 74
     0
 49
0.125
 74
     0
 49
-0.125
 74
     0
  0
ENDTAB
  0
TABLE
  2
LAYER
  5
2
330
0
100
AcDbSymbolTable
 70
    11
  0
LAYER
  5
F
330
2
100
AcDbSymbolTableRecord
100
AcDbLayerTableRecord
  2
0
 70
     0
 62
     7
  6
CONTINUOUS
  0
LAYER
  5
1AA
330
2
100
AcDbSymbolTableRecord
100
AcDbLayerTableRecord
  2
240
 70
     0
 62
     4
  6
CONTINUOUS
  0
LAYER
  5
1AB
330
2
100
AcDbSymbolTableRecord
100
AcDbLayerTableRecord
  2
241
 70
     0
 62
   211
  6
CONTINUOUS
  0
LAYER
  5
1AD
330
2
100
AcDbSymbolTableRecord
100
AcDbLayerTableRecord
  2
243
 70
     0
 62
   211
  6
HIDDEN2
  0
LAYER
  5
1AF
330
2
100
AcDbSymbolTableRecord
100
AcDbLayerTableRecord
  2
245
 70
     0
 62
     2
  6
CENTER2
  0
LAYER
  5
21A
330
2
100
AcDbSymbolTableRecord
100
AcDbLayerTableRecord
  2
246
 70
     0
 62
     3
  6
PHANTOM2
  0
LAYER
  5
21E
330
2
100
AcDbSymbolTableRecord
100
AcDbLayerTableRecord
  2
250
 70
     0
 62
     3
  6
CONTINUOUS
  0
LAYER
  5
21F
330
2
100
AcDbSymbolTableRecord
100
AcDbLayerTableRecord
  2
251
 70
     0
 62
    40
  6
CONTINUOUS
  0
LAYER
  5
5C4
330
2
100
AcDbSymbolTableRecord
100
AcDbLayerTableRecord
  2
DEFPOINTS
 70
     0
 62
     7
  6
CONTINUOUS
  0
ENDTAB
  0
TABLE
  2
STYLE
  5
3
330
0
100
AcDbSymbolTable
 70
     2
  0
STYLE
  5
10
330
3
100
AcDbSymbolTableRecord
100
AcDbTextStyleTableRecord
  2
STANDARD
 70
     0
 40
0.0
 41
1.0
 50
0.0
 71
     0
 42
3.0
  3
romans.shx
  4
BIGFONT.SHX
  0
STYLE
  5
339
330
3
100
AcDbSymbolTableRecord
100
AcDbTextStyleTableRecord
  2
YOKO
 70
     0
 40
0.0
 41
1.0
 50
0.0
 71
     0
 42
3.0
  3
romans.shx
  4
extfont.shx
  0
ENDTAB
  0
TABLE
  2
VIEW
  5
6
330
0
100
AcDbSymbolTable
 70
     1
  0
VIEW
  5
D18
330
6
100
AcDbSymbolTableRecord
100
AcDbViewTableRecord
  2
OLE1
 70
     0
 40
102.49857579
 10
24.80682921
 20
17.24902404
 41
149.2336777
 11
0.0
 21
0.0
 31
1.0
 12
0.0
 22
0.0
 32
0.0
 42
50.0
 43
0.0
 44
0.0
 50
0.0
 71
     0
  0
ENDTAB
  0
TABLE
  2
UCS
  5
7
330
0
100
AcDbSymbolTable
 70
     0
  0
ENDTAB
  0
TABLE
  2
APPID
  5
9
330
0
100
AcDbSymbolTable
 70
    12
  0
APPID
  5
11
330
9
100
AcDbSymbolTableRecord
100
AcDbRegAppTableRecord
  2
ACAD
 70
     0
  0
APPID
  5
1B1
330
9
100
AcDbSymbolTableRecord
100
AcDbRegAppTableRecord
  2
GLOBAL
 70
     0
  0
APPID
  5
2A4
330
9
100
AcDbSymbolTableRecord
100
AcDbRegAppTableRecord
  2
DETAIL
 70
     0
  0
APPID
  5
5FD
330
9
100
AcDbSymbolTableRecord
100
AcDbRegAppTableRecord
  2
GRPNAME
 70
     0
  0
APPID
  5
5FE
330
9
100
AcDbSymbolTableRecord
100
AcDbRegAppTableRecord
  2
GPARA
 70
     0
  0
APPID
  5
6C4
330
9
100
AcDbSymbolTableRecord
100
AcDbRegAppTableRecord
  2
DCO15
 70
     0
  0
APPID
  5
6C5
330
9
100
AcDbSymbolTableRecord
100
AcDbRegAppTableRecord
  2
ITEMNAME
 70
     0
  0
APPID
  5
6C6
330
9
100
AcDbSymbolTableRecord
100
AcDbRegAppTableRecord
  2
GRADE_0
 70
     0
  0
APPID
  5
856
330
9
100
AcDbSymbolTableRecord
100
AcDbRegAppTableRecord
  2
HATCH_TYPE
 70
     0
  0
APPID
  5
857
330
9
100
AcDbSymbolTableRecord
100
AcDbRegAppTableRecord
  2
HATCH_DISPLAY
 70
     0
  0
APPID
  5
858
330
9
100
AcDbSymbolTableRecord
100
AcDbRegAppTableRecord
  2
HATCH_DISTANCE
 70
     0
  0
APPID
  5
ACE
330
9
100
AcDbSymbolTableRecord
100
AcDbRegAppTableRecord
  2
CONTENTBLOCKICON
 70
     0
  0
ENDTAB
  0
TABLE
  2
DIMSTYLE
  5
A
330
0
100
AcDbSymbolTable
 70
     4
  0
DIMSTYLE
105
725
102
{ACAD_REACTORS
330
987
330
996
330
9A5
330
9B4
102
}
330
A
100
AcDbSymbolTableRecord
100
AcDbDimStyleTableRecord
  2
BIGT
 70
     0
  3

  4

  5

  6
OPEN
  7
OPEN
 40
1.0
 41
2.23
 42
0.5
 43
2.5
 44
1.0
 45
0.0
 46
0.0
 47
0.0
 48
0.0
140
2.8
141
0.0
142
0.0
143
25.4
144
1.0
145
0.0
146
1.0
147
1.0
 71
     0
 72
     0
 73
     0
 74
     0
 75
     0
 76
     0
 77
     3
 78
     8
170
     0
171
     2
172
     1
173
     1
174
     1
175
     0
176
   256
177
   256
178
    40
270
     2
271
     3
272
     3
273
     2
274
     2
340
10
275
     0
280
     0
281
     0
282
     0
283
     1
284
     8
285
     0
286
     0
287
     3
288
     0
  0
ENDTAB
  0
TABLE
  2
BLOCK_RECORD
  5
1
330
0
100
AcDbSymbolTable
 70
     9
  0
BLOCK_RECORD
  5
1A
102
{ACAD_XDICTIONARY
360
ACC
102
}
330
1
100
AcDbSymbolTableRecord
100
AcDbBlockTableRecord
  2
*MODEL_SPACE
  0
BLOCK_RECORD
  5
17
102
{ACAD_XDICTIONARY
360
ACA
102
}
330
1
100
AcDbSymbolTableRecord
100
AcDbBlockTableRecord
  2
*PAPER_SPACE
  0
BLOCK_RECORD
  5
594
330
1
100
AcDbSymbolTableRecord
100
AcDbBlockTableRecord
  2
_OPEN
  0
BLOCK_RECORD
  5
6E3
330
1
100
AcDbSymbolTableRecord
100
AcDbBlockTableRecord
  2
矢印なし
  0
BLOCK_RECORD
  5
988
330
1
100
AcDbSymbolTableRecord
100
AcDbBlockTableRecord
  2
*D2
  0
BLOCK_RECORD
  5
997
330
1
100
AcDbSymbolTableRecord
100
AcDbBlockTableRecord
  2
*D3
  0
BLOCK_RECORD
  5
9A6
330
1
100
AcDbSymbolTableRecord
100
AcDbBlockTableRecord
  2
*D4
  0
BLOCK_RECORD
  5
9B5
330
1
100
AcDbSymbolTableRecord
100
AcDbBlockTableRecord
  2
*D5
  0
BLOCK_RECORD
  5
A20
330
1
100
AcDbSymbolTableRecord
100
AcDbBlockTableRecord
  2
1
1001
CONTENTBLOCKICON
1071
        0
1004
2800000020000000200000000100080000000000000400000000000000000000000000000000000000000000000080000080000000808000800000008000800080800000C0C0C000C0DCC000F0CAA6000020400000206000002080000020A0000020C0000020E00000400000004020000040400000406000004080000040A0
1004
000040C0000040E00000600000006020000060400000606000006080000060A0000060C0000060E00000800000008020000080400000806000008080000080A0000080C0000080E00000A0000000A0200000A0400000A0600000A0800000A0A00000A0C00000A0E00000C0000000C0200000C0400000C0600000C0800000C0
1004
A00000C0C00000C0E00000E0000000E0200000E0400000E0600000E0800000E0A00000E0C00000E0E00040000000400020004000400040006000400080004000A0004000C0004000E00040200000402020004020400040206000402080004020A0004020C0004020E000404000004040200040404000404060004040800040
1004
40A0004040C0004040E00040600000406020004060400040606000406080004060A0004060C0004060E00040800000408020004080400040806000408080004080A0004080C0004080E00040A0000040A0200040A0400040A0600040A0800040A0A00040A0C00040A0E00040C0000040C0200040C0400040C0600040C08000
1004
40C0A00040C0C00040C0E00040E0000040E0200040E0400040E0600040E0800040E0A00040E0C00040E0E00080000000800020008000400080006000800080008000A0008000C0008000E00080200000802020008020400080206000802080008020A0008020C0008020E00080400000804020008040400080406000804080
1004
008040A0008040C0008040E00080600000806020008060400080606000806080008060A0008060C0008060E00080800000808020008080400080806000808080008080A0008080C0008080E00080A0000080A0200080A0400080A0600080A0800080A0A00080A0C00080A0E00080C0000080C0200080C0400080C0600080C0
1004
800080C0A00080C0C00080C0E00080E0000080E0200080E0400080E0600080E0800080E0A00080E0C00080E0E000C0000000C0002000C0004000C0006000C0008000C000A000C000C000C000E000C0200000C0202000C0204000C0206000C0208000C020A000C020C000C020E000C0400000C0402000C0404000C0406000C0
1004
408000C040A000C040C000C040E000C0600000C0602000C0604000C0606000C0608000C060A000C060C000C060E000C0800000C0802000C0804000C0806000C0808000C080A000C080C000C080E000C0A00000C0A02000C0A04000C0A06000C0A08000C0A0A000C0A0C000C0A0E000C0C00000C0C02000C0C04000C0C06000
1004
C0C08000C0C0A000F0FBFF00A4A0A000808080000000FF0000FF000000FFFF00FF000000FF00FF00FFFF0000FFFFFF0000000000000000000000000000000000000000000000000000000000000000000000000000000000000000000000000000000000000000000000000000000000000000000000000000000000000000
1004
00000000000000000000000000000000000000000000000000000000000000000000000000000000000000000000000000000000000000000000000000000000000000000000000000000000000000000000000000000000000000000000000000000000000000000000000000000000000000000000000000000000000000
1004
00000000000000000000000000000000000000000000000000000000000000000000000000000000000000000000000000000000000000000000000000000000000000000000000000000000000000000000000000000000000000000000000000000000000000000000000000000000000000000000000000000000000000
1004
00000000000000000000000000000000000000000000000000000000000000FEFEFEFEFE00000000000000000000000000000000000000000000000000FEFEFEE7FEFEE7FE00000000000000000000000000000000000000FEFEFEFEFE0000E700E7FBE700FEE7FEFEFEFEFEFEFEFEFAFE00000000FEFEFE00000000000000
1004
E700E7FBE70000E7000000000000E7E700FE00000000FE000000000000000000E700E7E7E70000E70000000000E7000000FE000000FBFEFBFBFBFBFBFBFBFBFBE7FBE7E7E7FBFBE7FBFBFBFBFBE7E7E7E7FEFB000000FEFEFE00000000000000E700E7E7E70000E70000000000000000E7FE00000000000000FEFEFEFEFE00
1004
00E700E7E7E700FEE7FEFEFEFEFEFEFEFEFAFA000000000000000000000000FEFEFEE7FEFEE7FE0000000000000000000000000000000000000000000000000000FEFEFEFEFE000000000000000000000000000000000000000000000000000000000000000000000000000000000000000000000000000000000000000000
1004
00000000000000000000000000000000000000000000000000000000000000000000000000000000000000000000000000000000000000000000000000000000000000000000000000000000000000000000000000000000000000000000000000000000000000000000000000000000000000000000000000000000000000
1004
00000000000000000000000000000000000000000000000000000000000000000000000000000000000000000000000000000000000000000000000000000000000000000000000000000000000000000000000000000000000000000000000000000000000000000000000000000000000000000000000000000000000000
1004
0000000000000000000000000000000000000000000000000000000000000000000000000000000000000000000000000000000000000000
  0
ENDTAB
  0
ENDSEC
  0
SECTION
  2
BLOCKS
  0
BLOCK
  5
1B
330
1A
100
AcDbEntity
  8
0
100
AcDbBlockBegin
  2
*MODEL_SPACE
 70
     0
 10
0.0
 20
0.0
 30
0.0
  3
*MODEL_SPACE
  1

  0
ENDBLK
  5
1C
330
1A
100
AcDbEntity
  8
0
100
AcDbBlockEnd
  0
BLOCK
  5
18
330
17
100
AcDbEntity
 67
     1
  8
0
100
AcDbBlockBegin
  2
*PAPER_SPACE
 70
     0
 10
0.0
 20
0.0
 30
0.0
  3
*PAPER_SPACE
  1

  0
ENDBLK
  5
19
330
17
100
AcDbEntity
 67
     1
  8
0
100
AcDbBlockEnd
  0
BLOCK
  5
598
330
594
100
AcDbEntity
  8
0
100
AcDbBlockBegin
  2
_OPEN
 70
     0
 10
0.0
 20
0.0
 30
0.0
  3
_OPEN
  1

  0
LINE
  5
595
330
594
100
AcDbEntity
  8
0
  6
BYBLOCK
 62
     0
100
AcDbLine
 10
-1.0
 20
0.16666667
 30
0.0
 11
0.0
 21
0.0
 31
0.0
  0
LINE
  5
596
330
594
100
AcDbEntity
  8
0
  6
BYBLOCK
 62
     0
100
AcDbLine
 10
-1.0
 20
-0.16666667
 30
0.0
 11
0.0
 21
0.0
 31
0.0
  0
LINE
  5
597
330
594
100
AcDbEntity
  8
0
  6
BYBLOCK
 62
     0
100
AcDbLine
 10
0.0
 20
0.0
 30
0.0
 11
-1.0
 21
0.0
 31
0.0
  0
ENDBLK
  5
599
330
594
100
AcDbEntity
  8
0
100
AcDbBlockEnd
  0
BLOCK
  5
6E4
330
6E3
100
AcDbEntity
  8
0
100
AcDbBlockBegin
  2
矢印なし
 70
     0
 10
0.0
 20
0.0
 30
0.0
  3
矢印なし
  1

  0
ENDBLK
  5
6E5
330
6E3
100
AcDbEntity
  8
0
100
AcDbBlockEnd
  0
BLOCK
  5
992
330
988
100
AcDbEntity
  8
0
100
AcDbBlockBegin
  2
*D2
 70
     1
 10
0.0
 20
0.0
 30
0.0
  3
*D2
  1

  0
LINE
  5
A0E
330
988
100
AcDbEntity
  8
250
  6
CONTINUOUS
100
AcDbLine
 10
85.5
 20
-12.5
 30
0.0
 11
99.0
 21
-12.5
 31
0.0
  0
LINE
  5
A0F
330
988
100
AcDbEntity
  8
250
  6
CONTINUOUS
100
AcDbLine
 10
85.5
 20
12.5
 30
0.0
 11
99.0
 21
12.5
 31
0.0
  0
LINE
  5
A10
330
988
100
AcDbEntity
  8
250
  6
CONTINUOUS
100
AcDbLine
 10
98.0
 20
-10.27
 30
0.0
 11
98.0
 21
10.27
 31
0.0
  0
INSERT
  5
A11
330
988
100
AcDbEntity
  8
250
  6
CONTINUOUS
100
AcDbBlockReference
  2
_OPEN
 10
98.0
 20
-12.5
 30
0.0
 41
2.23
 42
2.23
 43
2.23
 50
270.0
  0
INSERT
  5
A12
330
988
100
AcDbEntity
  8
250
  6
CONTINUOUS
100
AcDbBlockReference
  2
_OPEN
 10
98.0
 20
12.5
 30
0.0
 41
2.23
 42
2.23
 43
2.23
 50
90.0
  0
MTEXT
  5
A13
330
988
100
AcDbEntity
  8
250
  6
CONTINUOUS
 62
    40
100
AcDbMText
 10
95.6
 20
0.0
 30
0.0
 40
2.8
 41
0.0
 71
     5
 72
     1
  1
\A1;{\H2.8;\U+2205}25
 11
0.0
 21
1.0
 31
0.0
1001
ACAD
1000
MTEXTBEGIN
1070
    73
1070
     1
1070
    44
1040
1.0
1070
    74
1070
     0
1000
MTEXTEND
1000
MTEXTBEGIN
1070
    73
1070
     1
1070
    44
1040
1.0
1070
    74
1070
     0
1000
MTEXTEND
1000
MTEXTBEGIN
1070
    73
1070
     1
1070
    44
1040
1.0
1070
    74
1070
     0
1000
MTEXTEND
  0
POINT
  5
A14
330
988
100
AcDbEntity
  8
DEFPOINTS
  6
CONTINUOUS
 62
     0
100
AcDbPoint
 10
85.0
 20
-12.5
 30
0.0
  0
POINT
  5
A15
330
988
100
AcDbEntity
  8
DEFPOINTS
  6
CONTINUOUS
 62
     0
100
AcDbPoint
 10
85.0
 20
12.5
 30
0.0
  0
POINT
  5
A16
330
988
100
AcDbEntity
  8
DEFPOINTS
  6
CONTINUOUS
 62
     0
100
AcDbPoint
 10
98.0
 20
12.5
 30
0.0
  0
ENDBLK
  5
993
330
988
100
AcDbEntity
  8
0
100
AcDbBlockEnd
  0
BLOCK
  5
9A1
330
997
100
AcDbEntity
  8
0
100
AcDbBlockBegin
  2
*D3
 70
     1
 10
0.0
 20
0.0
 30
0.0
  3
*D3
  1

  0
LINE
  5
A17
330
997
100
AcDbEntity
  8
250
  6
CONTINUOUS
100
AcDbLine
 10
76.0
 20
13.0
 30
0.0
 11
76.0
 21
25.5
 31
0.0
  0
LINE
  5
A18
330
997
100
AcDbEntity
  8
250
  6
CONTINUOUS
100
AcDbLine
 10
85.0
 20
13.0
 30
0.0
 11
85.0
 21
25.5
 31
0.0
  0
LINE
  5
A19
330
997
100
AcDbEntity
  8
250
  6
CONTINUOUS
100
AcDbLine
 10
78.23
 20
24.5
 30
0.0
 11
82.77
 21
24.5
 31
0.0
  0
INSERT
  5
A1A
330
997
100
AcDbEntity
  8
250
  6
CONTINUOUS
100
AcDbBlockReference
  2
_OPEN
 10
76.0
 20
24.5
 30
0.0
 41
2.23
 42
2.23
 43
2.23
 50
180.0
  0
INSERT
  5
A1B
330
997
100
AcDbEntity
  8
250
  6
CONTINUOUS
100
AcDbBlockReference
  2
_OPEN
 10
85.0
 20
24.5
 30
0.0
 41
2.23
 42
2.23
 43
2.23
  0
MTEXT
  5
A1C
330
997
100
AcDbEntity
  8
250
  6
CONTINUOUS
 62
    40
100
AcDbMText
 10
80.5
 20
26.9
 30
0.0
 40
2.8
 41
0.0
 71
     5
 72
     1
  1
\A1;9
1001
ACAD
1000
MTEXTBEGIN
1070
    73
1070
     1
1070
    44
1040
1.0
1070
    74
1070
     0
1000
MTEXTEND
1000
MTEXTBEGIN
1070
    73
1070
     1
1070
    44
1040
1.0
1070
    74
1070
     0
1000
MTEXTEND
1000
MTEXTBEGIN
1070
    73
1070
     1
1070
    44
1040
1.0
1070
    74
1070
     0
1000
MTEXTEND
  0
POINT
  5
A1D
330
997
100
AcDbEntity
  8
DEFPOINTS
  6
CONTINUOUS
 62
     0
100
AcDbPoint
 10
76.0
 20
12.5
 30
0.0
  0
POINT
  5
A1E
330
997
100
AcDbEntity
  8
DEFPOINTS
  6
CONTINUOUS
 62
     0
100
AcDbPoint
 10
85.0
 20
12.5
 30
0.0
  0
POINT
  5
A1F
330
997
100
AcDbEntity
  8
DEFPOINTS
  6
CONTINUOUS
 62
     0
100
AcDbPoint
 10
85.0
 20
24.5
 30
0.0
  0
ENDBLK
  5
9A2
330
997
100
AcDbEntity
  8
0
100
AcDbBlockEnd
  0
BLOCK
  5
9B0
330
9A6
100
AcDbEntity
  8
0
100
AcDbBlockBegin
  2
*D4
 70
     1
 10
0.0
 20
0.0
 30
0.0
  3
*D4
  1

  0
LINE
  5
BA4
330
9A6
100
AcDbEntity
  8
250
  6
CONTINUOUS
100
AcDbLine
 10
35.0
 20
12.45730822
 30
0.0
 11
35.0
 21
32.5
 31
0.0
  0
LINE
  5
BA5
330
9A6
100
AcDbEntity
  8
250
  6
CONTINUOUS
100
AcDbLine
 10
85.0
 20
13.0
 30
0.0
 11
85.0
 21
32.5
 31
0.0
  0
LINE
  5
BA6
330
9A6
100
AcDbEntity
  8
250
  6
CONTINUOUS
100
AcDbLine
 10
37.23
 20
31.5
 30
0.0
 11
82.77
 21
31.5
 31
0.0
  0
INSERT
  5
BA7
330
9A6
100
AcDbEntity
  8
250
  6
CONTINUOUS
100
AcDbBlockReference
  2
_OPEN
 10
35.0
 20
31.5
 30
0.0
 41
2.23
 42
2.23
 43
2.23
 50
180.0
  0
INSERT
  5
BA8
330
9A6
100
AcDbEntity
  8
250
  6
CONTINUOUS
100
AcDbBlockReference
  2
_OPEN
 10
85.0
 20
31.5
 30
0.0
 41
2.23
 42
2.23
 43
2.23
  0
MTEXT
  5
BA9
330
9A6
100
AcDbEntity
  8
250
  6
CONTINUOUS
 62
    40
100
AcDbMText
 10
60.0
 20
33.9
 30
0.0
 40
2.8
 41
0.0
 71
     5
 72
     1
  1
\A1;50
1001
ACAD
1000
MTEXTBEGIN
1070
    73
1070
     1
1070
    44
1040
1.0
1070
    74
1070
     0
1000
MTEXTEND
1000
MTEXTBEGIN
1070
    73
1070
     1
1070
    44
1040
1.0
1070
    74
1070
     0
1000
MTEXTEND
  0
POINT
  5
BAA
330
9A6
100
AcDbEntity
  8
DEFPOINTS
  6
CONTINUOUS
 62
     0
100
AcDbPoint
 10
35.0
 20
11.95730822
 30
0.0
  0
POINT
  5
BAB
330
9A6
100
AcDbEntity
  8
DEFPOINTS
  6
CONTINUOUS
 62
     0
100
AcDbPoint
 10
85.0
 20
12.5
 30
0.0
  0
POINT
  5
BAC
330
9A6
100
AcDbEntity
  8
DEFPOINTS
  6
CONTINUOUS
 62
     0
100
AcDbPoint
 10
85.0
 20
31.5
 30
0.0
  0
ENDBLK
  5
9B1
330
9A6
100
AcDbEntity
  8
0
100
AcDbBlockEnd
  0
BLOCK
  5
9BF
330
9B5
100
AcDbEntity
  8
0
100
AcDbBlockBegin
  2
*D5
 70
     1
 10
0.0
 20
0.0
 30
0.0
  3
*D5
  1

  0
LINE
  5
9FC
330
9B5
100
AcDbEntity
  8
250
  6
CONTINUOUS
100
AcDbLine
 10
0.0
 20
16.375
 30
0.0
 11
0.0
 21
39.5
 31
0.0
  0
LINE
  5
9FD
330
9B5
100
AcDbEntity
  8
250
  6
CONTINUOUS
100
AcDbLine
 10
85.0
 20
13.0
 30
0.0
 11
85.0
 21
39.5
 31
0.0
  0
LINE
  5
9FE
330
9B5
100
AcDbEntity
  8
250
  6
CONTINUOUS
100
AcDbLine
 10
2.23
 20
38.5
 30
0.0
 11
82.77
 21
38.5
 31
0.0
  0
INSERT
  5
9FF
330
9B5
100
AcDbEntity
  8
250
  6
CONTINUOUS
100
AcDbBlockReference
  2
_OPEN
 10
0.0
 20
38.5
 30
0.0
 41
2.23
 42
2.23
 43
2.23
 50
180.0
  0
INSERT
  5
A00
330
9B5
100
AcDbEntity
  8
250
  6
CONTINUOUS
100
AcDbBlockReference
  2
_OPEN
 10
85.0
 20
38.5
 30
0.0
 41
2.23
 42
2.23
 43
2.23
  0
MTEXT
  5
A01
330
9B5
100
AcDbEntity
  8
250
  6
CONTINUOUS
 62
    40
100
AcDbMText
 10
42.5
 20
40.9
 30
0.0
 40
2.8
 41
0.0
 71
     5
 72
     1
  1
\A1;85
1001
ACAD
1000
MTEXTBEGIN
1070
    73
1070
     1
1070
    44
1040
1.0
1070
    74
1070
     0
1000
MTEXTEND
1000
MTEXTBEGIN
1070
    73
1070
     1
1070
    44
1040
1.0
1070
    74
1070
     0
1000
MTEXTEND
1000
MTEXTBEGIN
1070
    73
1070
     1
1070
    44
1040
1.0
1070
    74
1070
     0
1000
MTEXTEND
  0
POINT
  5
A02
330
9B5
100
AcDbEntity
  8
DEFPOINTS
  6
CONTINUOUS
 62
     0
100
AcDbPoint
 10
0.0
 20
15.875
 30
0.0
  0
POINT
  5
A03
330
9B5
100
AcDbEntity
  8
DEFPOINTS
  6
CONTINUOUS
 62
     0
100
AcDbPoint
 10
85.0
 20
12.5
 30
0.0
  0
POINT
  5
A04
330
9B5
100
AcDbEntity
  8
DEFPOINTS
  6
CONTINUOUS
 62
     0
100
AcDbPoint
 10
85.0
 20
38.5
 30
0.0
  0
ENDBLK
  5
9C0
330
9B5
100
AcDbEntity
  8
0
100
AcDbBlockEnd
  0
BLOCK
  5
A21
330
A20
100
AcDbEntity
  8
0
100
AcDbBlockBegin
  2
1
 70
     0
 10
0.0
 20
0.0
 30
0.0
  3
1
  1

  0
LINE
  5
CAA
330
A20
100
AcDbEntity
  8
240
  6
CONTINUOUS
100
AcDbLine
 10
74.45050452
 20
11.9
 30
0.0
 11
36.06905573
 21
11.9
 31
0.0
1001
GRPNAME
1000
PASTMD06
  0
LINE
  5
CAB
330
A20
100
AcDbEntity
  8
240
  6
CONTINUOUS
100
AcDbLine
 10
74.45050452
 20
-11.9
 30
0.0
 11
36.06905573
 21
-11.9
 31
0.0
1001
GRPNAME
1000
PASTMD06
  0
LINE
  5
CAC
330
A20
100
AcDbEntity
  8
245
  6
CENTER2
100
AcDbLine
 10
-49.4
 20
0.0
 30
0.0
 11
86.0
 21
0.0
 31
0.0
1001
GRPNAME
1000
PASTMD0D
  0
LINE
  5
CAD
330
A20
100
AcDbEntity
  8
240
  6
CONTINUOUS
100
AcDbLine
 10
-47.54431023
 20
-8.94129104
 30
0.0
 11
0.0
 21
-15.875
 31
0.0
  0
LINE
  5
CAE
330
A20
100
AcDbEntity
  8
240
  6
CONTINUOUS
100
AcDbLine
 10
-47.54431023
 20
8.94129104
 30
0.0
 11
0.0
 21
15.875
 31
0.0
  0
LINE
  5
CAF
330
A20
100
AcDbEntity
  8
240
  6
CONTINUOUS
100
AcDbLine
 10
-48.4
 20
-7.95175854
 30
0.0
 11
-48.4
 21
0.0
 31
0.0
  0
ARC
  5
CB0
330
A20
100
AcDbEntity
  8
240
  6
CONTINUOUS
100
AcDbCircle
 10
-47.4
 20
-7.95175854
 30
0.0
 40
1.0
100
AcDbArc
 50
180.0
 51
261.70266184
  0
LINE
  5
CB1
330
A20
100
AcDbEntity
  8
240
  6
CONTINUOUS
100
AcDbLine
 10
-48.4
 20
7.95175854
 30
0.0
 11
-48.4
 21
0.0
 31
0.0
  0
ARC
  5
CB2
330
A20
100
AcDbEntity
  8
240
  6
CONTINUOUS
100
AcDbCircle
 10
-47.4
 20
7.95175854
 30
0.0
 40
1.0
100
AcDbArc
 50
98.29733816
 51
180.0
  0
LINE
  5
CB3
330
A20
100
AcDbEntity
  8
241
  6
CONTINUOUS
100
AcDbLine
 10
22.0
 20
-20.0
 30
0.0
 11
22.0
 21
0.0
 31
0.0
  0
ARC
  5
CB4
330
A20
100
AcDbEntity
  8
240
100
AcDbCircle
 10
36.06905573
 20
-21.9
 30
0.0
 40
10.0
100
AcDbArc
 50
90.0
 51
118.81604046
1001
GRPNAME
1000
PASTMD06
  0
LINE
  5
CB5
330
A20
100
AcDbEntity
  8
241
  6
CONTINUOUS
100
AcDbLine
 10
9.6
 20
-23.0
 30
0.0
 11
9.6
 21
0.0
 31
0.0
  0
LINE
  5
CB6
330
A20
100
AcDbEntity
  8
241
  6
CONTINUOUS
100
AcDbLine
 10
11.90940108
 20
-19.0
 30
0.0
 11
11.90940108
 21
0.04377196
 31
0.0
  0
LINE
  5
CB7
330
A20
100
AcDbEntity
  8
241
  6
CONTINUOUS
100
AcDbLine
 10
17.6
 20
0.0
 30
0.0
 11
17.6
 21
-23.0
 31
0.0
  0
LINE
  5
CB8
330
A20
100
AcDbEntity
  8
241
  6
CONTINUOUS
100
AcDbLine
 10
15.29059892
 20
-19.0
 30
0.0
 11
15.29059892
 21
0.04377196
 31
0.0
  0
LINE
  5
CB9
330
A20
100
AcDbEntity
  8
245
  6
CENTER2
100
AcDbLine
 10
13.6
 20
-23.0
 30
0.0
 11
13.6
 21
23.0
 31
0.0
  0
LINE
  5
CBA
330
A20
100
AcDbEntity
  8
241
100
AcDbLine
 10
1.0
 20
0.0
 30
0.0
 11
1.0
 21
-15.875
 31
0.0
  0
LINE
  5
CBB
330
A20
100
AcDbEntity
  8
241
100
AcDbLine
 10
0.0
 20
-15.875
 30
0.0
 11
0.0
 21
0.0
 31
0.0
  0
LINE
  5
CBC
330
A20
100
AcDbEntity
  8
240
  6
CONTINUOUS
100
AcDbLine
 10
9.6
 20
-23.0
 30
0.0
 11
1.0
 21
-23.0
 31
0.0
  0
LINE
  5
CBD
330
A20
100
AcDbEntity
  8
243
  6
HIDDEN2
100
AcDbLine
 10
19.0
 20
-16.3
 30
0.0
 11
1.0
 21
-16.3
 31
0.0
  0
LINE
  5
CBE
330
A20
100
AcDbEntity
  8
240
  6
CONTINUOUS
100
AcDbLine
 10
1.0
 20
-15.875
 30
0.0
 11
1.0
 21
-23.0
 31
0.0
  0
LINE
  5
CBF
330
A20
100
AcDbEntity
  8
240
100
AcDbLine
 10
0.0
 20
-15.875
 30
0.0
 11
1.0
 21
-15.875
 31
0.0
  0
LINE
  5
CC0
330
A20
100
AcDbEntity
  8
240
  6
CONTINUOUS
100
AcDbLine
 10
17.6
 20
-23.0
 30
0.0
 11
22.0
 21
-23.0
 31
0.0
  0
LINE
  5
CC1
330
A20
100
AcDbEntity
  8
240
  6
CONTINUOUS
100
AcDbLine
 10
11.90940108
 20
-19.0
 30
0.0
 11
9.6
 21
-23.0
 31
0.0
  0
LINE
  5
CC2
330
A20
100
AcDbEntity
  8
243
  6
HIDDEN2
100
AcDbLine
 10
19.0
 20
-16.3
 30
0.0
 11
19.0
 21
-23.0
 31
0.0
  0
LINE
  5
CC3
330
A20
100
AcDbEntity
  8
240
  6
CONTINUOUS
100
AcDbLine
 10
15.29059892
 20
-19.0
 30
0.0
 11
17.6
 21
-23.0
 31
0.0
  0
LINE
  5
CC4
330
A20
100
AcDbEntity
  8
240
  6
CONTINUOUS
100
AcDbLine
 10
11.90940108
 20
-19.0
 30
0.0
 11
15.29059892
 21
-19.0
 31
0.0
  0
LINE
  5
CC5
330
A20
100
AcDbEntity
  8
240
100
AcDbLine
 10
31.24906588
 20
-13.13828226
 30
0.0
 11
23.55400304
 21
-17.37148468
 31
0.0
  0
ARC
  5
CC6
330
A20
100
AcDbEntity
  8
240
100
AcDbCircle
 10
25.0
 20
-20.0
 30
0.0
 40
3.0
100
AcDbArc
 50
118.81605806
 51
180.0
  0
LINE
  5
CC7
330
A20
100
AcDbEntity
  8
240
  6
CONTINUOUS
100
AcDbLine
 10
22.0
 20
-23.0
 30
0.0
 11
22.0
 21
-20.0
 31
0.0
  0
LINE
  5
CC8
330
A20
100
AcDbEntity
  8
241
  6
HIDDEN2
100
AcDbLine
 10
19.0
 20
16.3
 30
0.0
 11
1.0
 21
16.3
 31
0.0
  0
LINE
  5
CC9
330
A20
100
AcDbEntity
  8
240
  6
CONTINUOUS
100
AcDbLine
 10
9.6
 20
23.0
 30
0.0
 11
1.0
 21
23.0
 31
0.0
  0
LINE
  5
CCA
330
A20
100
AcDbEntity
  8
241
100
AcDbLine
 10
1.0
 20
0.0
 30
0.0
 11
1.0
 21
15.875
 31
0.0
  0
LINE
  5
CCB
330
A20
100
AcDbEntity
  8
241
100
AcDbLine
 10
0.0
 20
15.875
 30
0.0
 11
0.0
 21
0.0
 31
0.0
  0
LINE
  5
CCC
330
A20
100
AcDbEntity
  8
240
  6
CONTINUOUS
100
AcDbLine
 10
1.0
 20
15.875
 30
0.0
 11
1.0
 21
23.0
 31
0.0
  0
LINE
  5
CCD
330
A20
100
AcDbEntity
  8
240
100
AcDbLine
 10
0.0
 20
15.875
 30
0.0
 11
1.0
 21
15.875
 31
0.0
  0
ARC
  5
CCE
330
A20
100
AcDbEntity
  8
240
100
AcDbCircle
 10
36.06905573
 20
21.9
 30
0.0
 40
10.0
100
AcDbArc
 50
241.18395954
 51
270.0
1001
GRPNAME
1000
PASTMD06
  0
LINE
  5
CCF
330
A20
100
AcDbEntity
  8
241
  6
CONTINUOUS
100
AcDbLine
 10
9.6
 20
23.0
 30
0.0
 11
9.6
 21
0.0
 31
0.0
  0
LINE
  5
CD0
330
A20
100
AcDbEntity
  8
241
  6
CONTINUOUS
100
AcDbLine
 10
17.6
 20
0.0
 30
0.0
 11
17.6
 21
23.0
 31
0.0
  0
LINE
  5
CD1
330
A20
100
AcDbEntity
  8
241
  6
CONTINUOUS
100
AcDbLine
 10
15.29059892
 20
19.0
 30
0.0
 11
15.29059892
 21
-0.04377196
 31
0.0
  0
LINE
  5
CD2
330
A20
100
AcDbEntity
  8
241
  6
CONTINUOUS
100
AcDbLine
 10
11.90940108
 20
19.0
 30
0.0
 11
11.90940108
 21
-0.04377196
 31
0.0
  0
LINE
  5
CD3
330
A20
100
AcDbEntity
  8
241
  6
CONTINUOUS
100
AcDbLine
 10
22.0
 20
20.0
 30
0.0
 11
22.0
 21
0.0
 31
0.0
  0
LINE
  5
CD4
330
A20
100
AcDbEntity
  8
241
  6
CONTINUOUS
100
AcDbLine
 10
33.5
 20
0.0
 30
0.0
 11
33.5
 21
-11.9
 31
0.0
1001
GRPNAME
1000
PASTMD0G
  0
LINE
  5
CD5
330
A20
100
AcDbEntity
  8
241
  6
CONTINUOUS
100
AcDbLine
 10
33.5
 20
0.0
 30
0.0
 11
33.5
 21
11.9
 31
0.0
1001
GRPNAME
1000
PASTMD0G
  0
LINE
  5
CD6
330
A20
100
AcDbEntity
  8
240
  6
CONTINUOUS
100
AcDbLine
 10
17.6
 20
23.0
 30
0.0
 11
22.0
 21
23.0
 31
0.0
  0
LINE
  5
CD7
330
A20
100
AcDbEntity
  8
240
  6
CONTINUOUS
100
AcDbLine
 10
11.90940108
 20
19.0
 30
0.0
 11
9.6
 21
23.0
 31
0.0
  0
LINE
  5
CD8
330
A20
100
AcDbEntity
  8
241
  6
HIDDEN2
100
AcDbLine
 10
19.0
 20
16.3
 30
0.0
 11
19.0
 21
23.0
 31
0.0
  0
LINE
  5
CD9
330
A20
100
AcDbEntity
  8
240
  6
CONTINUOUS
100
AcDbLine
 10
15.29059892
 20
19.0
 30
0.0
 11
17.6
 21
23.0
 31
0.0
  0
LINE
  5
CDA
330
A20
100
AcDbEntity
  8
240
  6
CONTINUOUS
100
AcDbLine
 10
11.90940108
 20
19.0
 30
0.0
 11
15.29059892
 21
19.0
 31
0.0
  0
LINE
  5
CDB
330
A20
100
AcDbEntity
  8
240
100
AcDbLine
 10
31.24906588
 20
13.13828226
 30
0.0
 11
23.55400304
 21
17.37148468
 31
0.0
  0
ARC
  5
CDC
330
A20
100
AcDbEntity
  8
240
100
AcDbCircle
 10
25.0
 20
20.0
 30
0.0
 40
3.0
100
AcDbArc
 50
180.0
 51
241.18394194
  0
LINE
  5
CDD
330
A20
100
AcDbEntity
  8
240
  6
CONTINUOUS
100
AcDbLine
 10
22.0
 20
23.0
 30
0.0
 11
22.0
 21
20.0
 31
0.0
  0
LINE
  5
CDE
330
A20
100
AcDbEntity
  8
240
  6
CONTINUOUS
100
AcDbLine
 10
84.5
 20
-11.8
 30
0.0
 11
74.99999999
 21
-12.05
 31
0.0
1001
GRPNAME
1000
PASTMD06
  0
LINE
  5
CDF
330
A20
100
AcDbEntity
  8
241
  6
CONTINUOUS
100
AcDbLine
 10
66.77939208
 20
-4.90544291
 30
0.0
 11
84.5
 21
-10.69795326
 31
0.0
1001
GRPNAME
1000
PASTMD06
  0
LINE
  5
CE0
330
A20
100
AcDbEntity
  8
240
  6
CONTINUOUS
100
AcDbLine
 10
84.5
 20
11.8
 30
0.0
 11
74.99999999
 21
12.05
 31
0.0
1001
GRPNAME
1000
PASTMD06
  0
LINE
  5
CE1
330
A20
100
AcDbEntity
  8
241
100
AcDbLine
 10
73.89946266
 20
0.64026518
 30
0.0
 11
84.5
 21
-3.21801488
 31
0.0
1001
GRPNAME
1000
PASTMD06
  0
LINE
  5
CE2
330
A20
100
AcDbEntity
  8
241
100
AcDbLine
 10
74.97055901
 20
2.83633814
 30
0.0
 11
84.5
 21
1.15604058
 31
0.0
1001
GRPNAME
1000
PASTMD06
  0
LINE
  5
CE3
330
A20
100
AcDbEntity
  8
240
  6
CONTINUOUS
100
AcDbLine
 10
74.45050452
 20
11.9
 30
0.0
 11
74.99999999
 21
12.05
 31
0.0
1001
GRPNAME
1000
PASTMD06
  0
ARC
  5
CE4
330
A20
100
AcDbEntity
  8
241
  6
CONTINUOUS
100
AcDbCircle
 10
67.80683002
 20
-1.76227634
 30
0.0
 40
3.306830020297971
100
AcDbArc
 50
79.99999998
 51
251.89845495
1001
GRPNAME
1000
PASTMD06
  0
LINE
  5
CE5
330
A20
100
AcDbEntity
  8
240
  6
CONTINUOUS
100
AcDbLine
 10
74.45050452
 20
-11.9
 30
0.0
 11
74.99999999
 21
-12.05
 31
0.0
1001
GRPNAME
1000
PASTMD06
  0
LINE
  5
CE6
330
A20
100
AcDbEntity
  8
241
  6
CONTINUOUS
100
AcDbLine
 10
68.38105503
 20
1.4943155
 30
0.0
 11
73.84602145
 21
0.53069447
 31
0.0
1001
GRPNAME
1000
PASTMD06
  0
LINE
  5
CE7
330
A20
100
AcDbEntity
  8
241
100
AcDbLine
 10
74.97055901
 20
2.83633814
 30
0.0
 11
73.84602145
 21
0.53069447
 31
0.0
1001
GRPNAME
1000
PASTMD06
  0
LINE
  5
CE8
330
A20
100
AcDbEntity
  8
246
100
AcDbLine
 10
85.0
 20
-12.5
 30
0.0
 11
85.0
 21
12.5
 31
0.0
  0
LINE
  5
CE9
330
A20
100
AcDbEntity
  8
240
100
AcDbLine
 10
84.52154003
 20
1.15224249
 30
0.0
 11
85.0
 21
-3.4
 31
0.0
1001
GRPNAME
1000
PASTMD06
  0
LINE
  5
CEA
330
A20
100
AcDbEntity
  8
246
100
AcDbLine
 10
85.0
 20
-12.5
 30
0.0
 11
76.0
 21
-12.5
 31
0.0
1001
GRPNAME
1000
PASTMD0D
  0
LINE
  5
CEB
330
A20
100
AcDbEntity
  8
240
  6
CONTINUOUS
100
AcDbLine
 10
84.5
 20
-3.21801488
 30
0.0
 11
84.5
 21
-11.8
 31
0.0
1001
GRPNAME
1000
PASTMD06
  0
LINE
  5
CEC
330
A20
100
AcDbEntity
  8
240
100
AcDbLine
 10
85.0
 20
-3.4
 30
0.0
 11
84.5
 21
-3.21801488
 31
0.0
1001
GRPNAME
1000
PASTMD06
  0
LWPOLYLINE
  5
CED
330
A20
100
AcDbEntity
  8
241
  6
CONTINUOUS
100
AcDbPolyline
 90
       70
 70
     0
 43
0.0
 10
78.93306905
 20
7.95977473
 10
78.91661898
 20
7.85749977
 10
78.90326452
 20
7.75489732
 10
78.89303332
 20
7.65218002
 10
78.8859466
 20
7.54956075
 10
78.88201904
 20
7.44725217
 10
78.88125879
 20
7.34546632
 10
78.88366741
 20
7.24441413
 10
78.88923992
 20
7.14430505
 10
78.89796477
 20
7.04534653
 10
78.90982388
 20
6.94774367
 10
78.92479266
 20
6.85169874
 10
78.9428401
 20
6.75741078
 10
78.96392879
 20
6.66507521
 10
78.98801504
 20
6.57488338
 10
79.01504891
 20
6.48702222
 10
79.04497439
 20
6.40167381
 10
79.07772946
 20
6.31901502
 10
79.11324623
 20
6.23921717
 10
79.15145109
 20
6.16244564
 10
79.19226488
 20
6.08885952
 10
79.235603
 20
6.01861132
 10
79.28137564
 20
5.95184662
 10
79.32948794
 20
5.8887038
 10
79.37984019
 20
5.82931371
 10
79.43232803
 20
5.77379943
 10
79.48684269
 20
5.72227602
 10
79.54327119
 20
5.67485025
 10
79.60149659
 20
5.63162042
 10
79.66139821
 20
5.59267611
 10
79.72285191
 20
5.55809803
 10
79.78573033
 20
5.52795784
 10
79.84990316
 20
5.50231801
 10
79.91523741
 20
5.48123168
 10
79.98159768
 20
5.46474254
 10
80.04884643
 20
5.45288477
 10
80.1168443
 20
5.44568295
 10
80.18545036
 20
5.44315199
 10
80.25452243
 20
5.44529714
 10
80.32391738
 20
5.45211397
 10
80.39349136
 20
5.46358833
 10
80.46310021
 20
5.47969645
 10
80.53259966
 20
5.50040495
 10
80.60184567
 20
5.52567091
 10
80.67069474
 20
5.55544197
 10
80.73900418
 20
5.58965643
 10
80.80663242
 20
5.62824337
 10
80.87343931
 20
5.67112284
 10
80.93928639
 20
5.71820597
 10
81.00403721
 20
5.76939517
 10
81.06755756
 20
5.82458437
 10
81.1297158
 20
5.88365918
 10
81.19038312
 20
5.94649718
 10
81.24943378
 20
6.01296814
 10
81.30674541
 20
6.08293429
 10
81.36219923
 20
6.15625065
 10
81.41568032
 20
6.23276527
 10
81.46707783
 20
6.31231956
 10
81.51628526
 20
6.39474867
 10
81.56320062
 20
6.47988176
 10
81.60772668
 20
6.5675424
 10
81.64977116
 20
6.65754891
 10
81.68924693
 20
6.74971477
 10
81.72607217
 20
6.84384896
 10
81.76017058
 20
6.9397564
 10
81.79147148
 20
7.03723832
 10
81.81991
 20
7.13609269
 10
81.84542721
 20
7.23611466
 10
81.86797022
 20
7.33709692
 10
81.88749231
 20
7.4388302
1001
GRPNAME
1000
PASTMD06
  0
LWPOLYLINE
  5
CEE
330
A20
100
AcDbEntity
  8
241
  6
CONTINUOUS
100
AcDbPolyline
 90
       70
 70
     0
 43
0.0
 10
81.88749231
 20
7.4388302
 10
81.89781979
 20
7.50637395
 10
81.90506431
 20
7.57431737
 10
81.90921086
 20
7.64251965
 10
81.91025085
 20
7.71083944
 10
81.9081821
 20
7.77913514
 10
81.90300893
 20
7.84726522
 10
81.89474204
 20
7.91508846
 10
81.88339857
 20
7.98246432
 10
81.86900203
 20
8.04925315
 10
81.85158225
 20
8.11531653
 10
81.83117535
 20
8.18051754
 10
81.8078236
 20
8.24472106
 10
81.78157541
 20
8.30779403
 10
81.75248518
 20
8.36960572
 10
81.7206132
 20
8.43002803
 10
81.68602552
 20
8.48893574
 10
81.64879383
 20
8.54620675
 10
81.60899528
 20
8.60172238
 10
81.56671236
 20
8.65536757
 10
81.5220327
 20
8.70703113
 10
81.47504891
 20
8.756606
 10
81.42585835
 20
8.80398943
 10
81.37456297
 20
8.84908322
 10
81.32126908
 20
8.89179392
 10
81.26608714
 20
8.93203299
 10
81.2091315
 20
8.96971706
 10
81.15052021
 20
9.00476801
 10
81.09037475
 20
9.03711321
 10
81.02881976
 20
9.06668562
 10
80.96598281
 20
9.09342395
 10
80.90199414
 20
9.11727279
 10
80.83698636
 20
9.1381827
 10
80.7710942
 20
9.15611035
 10
80.70445422
 20
9.1710186
 10
80.63720454
 20
9.18287653
 10
80.56948452
 20
9.19165958
 10
80.50143453
 20
9.19734954
 10
80.43319558
 20
9.19993462
 10
80.36490912
 20
9.19940946
 10
80.29671666
 20
9.19577515
 10
80.22875952
 20
9.18903922
 10
80.16117856
 20
9.17921564
 10
80.09411384
 20
9.16632476
 10
80.02770434
 20
9.15039329
 10
79.9620877
 20
9.13145427
 10
79.89739991
 20
9.10954693
 10
79.83377503
 20
9.08471668
 10
79.77134494
 20
9.05701498
 10
79.71023901
 20
9.02649924
 10
79.65058389
 20
8.99323271
 10
79.59250321
 20
8.95728434
 10
79.53611734
 20
8.91872862
 10
79.48154315
 20
8.87764546
 10
79.42889374
 20
8.83412
 10
79.37827822
 20
8.78824246
 10
79.32980151
 20
8.74010792
 10
79.28356405
 20
8.68981613
 10
79.23966169
 20
8.63747132
 10
79.19818541
 20
8.58318198
 10
79.15922117
 20
8.52706062
 10
79.12284973
 20
8.46922356
 10
79.08914645
 20
8.40979066
 10
79.0581812
 20
8.3488851
 10
79.03001815
 20
8.2866331
 10
79.00471566
 20
8.22316369
 10
78.98232618
 20
8.15860839
 10
78.96289611
 20
8.09310101
 10
78.94646571
 20
8.0267773
 10
78.93306905
 20
7.95977473
1001
GRPNAME
1000
PASTMD06
  0
LINE
  5
CEF
330
A20
100
AcDbEntity
  8
240
  6
CONTINUOUS
100
AcDbLine
 10
84.5
 20
11.8
 30
0.0
 11
84.5
 21
1.15604058
 31
0.0
1001
GRPNAME
1000
PASTMD06
  0
LINE
  5
CF0
330
A20
100
AcDbEntity
  8
240
100
AcDbLine
 10
84.52154003
 20
1.15224249
 30
0.0
 11
84.5
 21
1.15604058
 31
0.0
1001
GRPNAME
1000
PASTMD06
  0
LINE
  5
CF1
330
A20
100
AcDbEntity
  8
246
100
AcDbLine
 10
85.0
 20
12.5
 30
0.0
 11
76.0
 21
12.5
 31
0.0
1001
GRPNAME
1000
PASTMD0D
  0
ENDBLK
  5
A22
330
A20
100
AcDbEntity
  8
0
100
AcDbBlockEnd
  0
ENDSEC
  0
SECTION
  2
ENTITIES
  0
INSERT
  5
6E6
330
1A
100
AcDbEntity
  8
245
100
AcDbBlockReference
  2
矢印なし
 10
175.62382697
 20
90.55123572
 30
0.0
  0
TEXT
  5
8A2
330
1A
100
AcDbEntity
  8
241
100
AcDbText
 10
-48.4
 20
52.5
 30
0.0
 40
5.0
  1
BBT30-FCM25092L-85
  7
YOKO
 11
-48.4
 21
52.5
 31
0.0
100
AcDbText
 73
     1
  0
DIMENSION
  5
987
330
1A
100
AcDbEntity
  8
250
  6
CONTINUOUS
100
AcDbDimension
  2
*D2
 10
98.0
 20
12.5
 30
0.0
 11
95.6
 21
0.0
 31
0.0
 70
    32
  1
{\H2.8;\U+2205}<>
  3
BIGT
100
AcDbAlignedDimension
 13
85.0
 23
-12.5
 33
0.0
 14
85.0
 24
12.5
 34
0.0
 50
90.0
100
AcDbRotatedDimension
  0
DIMENSION
  5
996
330
1A
100
AcDbEntity
  8
250
  6
CONTINUOUS
100
AcDbDimension
  2
*D3
 10
85.0
 20
24.5
 30
0.0
 11
80.5
 21
26.9
 31
0.0
 70
    32
  3
BIGT
100
AcDbAlignedDimension
 13
76.0
 23
12.5
 33
0.0
 14
85.0
 24
12.5
 34
0.0
100
AcDbRotatedDimension
  0
DIMENSION
  5
9A5
330
1A
100
AcDbEntity
  8
250
  6
CONTINUOUS
100
AcDbDimension
  2
*D4
 10
85.0
 20
31.5
 30
0.0
 11
60.0
 21
33.9
 31
0.0
 70
    32
  3
BIGT
100
AcDbAlignedDimension
 13
35.0
 23
11.95730822
 33
0.0
 14
85.0
 24
12.5
 34
0.0
100
AcDbRotatedDimension
  0
DIMENSION
  5
9B4
330
1A
100
AcDbEntity
  8
250
  6
CONTINUOUS
100
AcDbDimension
  2
*D5
 10
85.0
 20
38.5
 30
0.0
 11
42.5
 21
40.9
 31
0.0
 70
    32
  3
BIGT
100
AcDbAlignedDimension
 13
0.0
 23
15.875
 33
0.0
 14
85.0
 24
12.5
 34
0.0
100
AcDbRotatedDimension
  0
MTEXT
  5
B6C
330
1A
100
AcDbEntity
  8
251
  6
CONTINUOUS
100
AcDbMText
 10
-42.44207074
 20
-20.23884234
 30
0.0
 40
2.8
 41
0.0
 71
     7
 72
     1
  1
BBT30
  7
YOKO
1001
ITEMNAME
1000
LNSP3
1001
ACAD
1000
MTEXTBEGIN
1070
    73
1070
     1
1070
    44
1040
1.0
1070
    74
1070
     0
1000
MTEXTEND
1000
MTEXTBEGIN
1070
    73
1070
     1
1070
    44
1040
1.0
1070
    74
1070
     0
1000
MTEXTEND
1000
MTEXTBEGIN
1070
    73
1070
     1
1070
    44
1040
1.0
1070
    74
1070
     0
1000
MTEXTEND
1000
MTEXTBEGIN
1070
    73
1070
     1
1070
    44
1040
1.0
1070
    74
1070
     0
1000
MTEXTEND
  0
LEADER
  5
B6D
330
1A
100
AcDbEntity
  8
250
  6
CONTINUOUS
100
AcDbLeader
  3
BIGT
 76
     2
 10
-22.51609141
 20
-12.5913258
 30
0.0
 10
-27.50873741
 20
-21.23884234
 30
0.0
1001
ACAD
1000
DSTYLE
1002
{
1070
     6
1000
OPEN
1070
   343
1005
594
1002
}
  0
LINE
  5
B6E
330
1A
100
AcDbEntity
  8
250
  6
CONTINUOUS
100
AcDbLine
 10
-27.50873741
 20
-21.23884234
 30
0.0
 11
-45.24207074
 21
-21.23884234
 31
0.0
1001
ITEMNAME
1000
LNSP2
  0
INSERT
  5
CF2
330
1A
100
AcDbEntity
  8
245
100
AcDbBlockReference
  2
1
 10
0.0
 20
0.0
 30
0.0
  0
VIEWPORT
  5
22
330
17
100
AcDbEntity
 67
     1
  8
0
100
AcDbViewport
 10
261.51769912
 20
148.5
 30
0.0
 40
523.03539823
 41
297.0
 68
     1
 69
     1
1001
ACAD
1000
MVIEW
1002
{
1070
    16
1010
0.0
1020
0.0
1030
0.0
1010
0.0
1020
0.0
1030
1.0
1040
0.0
1040
9.0
1040
6.55181347
1040
4.5
1040
50.0
1040
0.0
1040
0.0
1070
     0
1070
   100
1070
     1
1070
     3
1070
     0
1070
     0
1070
     0
1070
     0
1040
0.0
1040
0.0
1040
0.0
1040
1.0
1040
1.0
1040
0.0
1040
0.0
1070
     0
1002
{
1002
}
1002
}
  0
ENDSEC
  0
SECTION
  2
OBJECTS
  0
DICTIONARY
  5
C
330
0
100
AcDbDictionary
  3
ACAD_GROUP
350
D
  3
ACAD_LAYOUT
350
565
  3
ACAD_MLINESTYLE
350
E
  3
ACAD_PLOTSETTINGS
350
566
  3
ACAD_PLOTSTYLENAME
350
563
  3
ACDBHEADERROUNDTRIPXREC
350
D1B
  3
GRADE_DWG
350
540
  0
DICTIONARY
  5
ACC
330
1A
100
AcDbDictionary
280
     1
  3
ACAD_LAYOUTSELFREF
360
D3D
  0
DICTIONARY
  5
ACA
330
17
100
AcDbDictionary
280
     1
  3
ACAD_LAYOUTSELFREF
360
D3C
  0
DICTIONARY
  5
D
102
{ACAD_REACTORS
330
C
102
}
330
C
100
AcDbDictionary
  3
*A1
350
6C7
  3
*A2
350
6C8
  3
*A3
350
6D4
  3
*A4
350
6D5
  3
DREC-1
350
5FC
  3
DREC-2
350
654
  3
DREC-3
350
673
  0
DICTIONARY
  5
565
102
{ACAD_REACTORS
330
C
102
}
330
C
100
AcDbDictionary
  0
DICTIONARY
  5
E
102
{ACAD_REACTORS
330
C
102
}
330
C
100
AcDbDictionary
  3
STANDARD
350
13
  0
DICTIONARY
  5
566
102
{ACAD_REACTORS
330
C
102
}
330
C
100
AcDbDictionary
  3
A3_0_5倍_
350
758
  3
A3_1倍_
350
757
  3
A3_1倍__2000_
350
707
  3
A3_2倍_
350
759
  3
A4_0_5倍_
350
755
  3
A4_1倍_
350
754
  3
A4_1倍__2000_
350
708
  3
A4_2倍_
350
756
  0
ACDBDICTIONARYWDFLT
  5
563
102
{ACAD_REACTORS
330
C
102
}
330
C
100
AcDbDictionary
281
     1
  3
Normal
350
564
100
AcDbDictionaryWithDefault
340
564
  0
DICTIONARY
  5
D1B
102
{ACAD_REACTORS
330
C
102
}
330
C
100
AcDbDictionary
  3
CEPSNTYPE
350
D25
  3
DIMSTYLEDATA
350
D29
  3
FINGERPRINTGUID
350
D26
  3
HYPERLINKBASE
350
D1E
  3
INSUNITS
350
D24
  3
LAYOUTDICT
350
D20
  3
LWETCUNION
350
D23
  3
PLOTSETDICT
350
D21
  3
PLOTSTYLNAMDICT
350
D22
  3
PSVPSCALE
350
D28
  3
PUCSBASE
350
D2C
  3
PUCSORGBACK
350
D32
  3
PUCSORGBOTTOM
350
D2E
  3
PUCSORGFRONT
350
D31
  3
PUCSORGLEFT
350
D2F
  3
PUCSORGRIGHT
350
D30
  3
PUCSORGTOP
350
D2D
  3
PUCSORTHOREF
350
D2A
  3
PUCSORTHOVIEW
350
D2B
  3
STYLESHEET
350
D1F
  3
TSTACKALIGN
350
D1C
  3
TSTACKSIZE
350
D1D
  3
UCSBASE
350
D35
  3
UCSORGBACK
350
D3B
  3
UCSORGBOTTOM
350
D37
  3
UCSORGFRONT
350
D3A
  3
UCSORGLEFT
350
D38
  3
UCSORGRIGHT
350
D39
  3
UCSORGTOP
350
D36
  3
UCSORTHOREF
350
D33
  3
UCSORTHOVIEW
350
D34
  3
VERSIONGUID
350
D27
  0
DICTIONARY
  5
540
102
{ACAD_REACTORS
330
C
102
}
330
C
100
AcDbDictionary
  3
VERSION
350
560
  0
XRECORD
  5
D3D
102
{ACAD_REACTORS
330
ACC
102
}
330
ACC
100
AcDbXrecord
340
1A
  0
XRECORD
  5
D3C
102
{ACAD_REACTORS
330
ACA
102
}
330
ACA
100
AcDbXrecord
340
17
  0
GROUP
  5
6C7
102
{ACAD_REACTORS
330
D
102
}
330
D
100
AcDbGroup
300

 70
     0
 71
     1
1001
GRPNAME
1000
DMA00
  0
GROUP
  5
6C8
102
{ACAD_REACTORS
330
D
102
}
330
D
100
AcDbGroup
300

 70
     0
 71
     1
1001
GRPNAME
1000
DMA00
  0
GROUP
  5
6D4
102
{ACAD_REACTORS
330
D
102
}
330
D
100
AcDbGroup
300

 70
     0
 71
     1
1001
GRPNAME
1000
DMA00
  0
GROUP
  5
6D5
102
{ACAD_REACTORS
330
D
102
}
330
D
100
AcDbGroup
300

 70
     0
 71
     1
1001
GRPNAME
1000
DMA00
  0
GROUP
  5
5FC
102
{ACAD_REACTORS
330
D
102
}
330
D
100
AcDbGroup
300

 70
     0
 71
     1
1001
GRPNAME
1000
DREC-
1001
GPARA
1000
xsiz
1000
44.182
1000
ysiz
1000
40.677
1000
angl
1000
0
1000
ctyp
1000
0
1000
csiz
1000
5
1000
lfnt
1000
cont
1000
hcnt
1000
hoff
1000
vcnt
1000
voff
1000
opnt
1000
4
1000
dxpt
1000
0
1000
dypt
1000
0
  0
GROUP
  5
654
102
{ACAD_REACTORS
330
D
102
}
330
D
100
AcDbGroup
300

 70
     0
 71
     1
1001
GRPNAME
1000
DREC-
1001
GPARA
1000
xsiz
1000
54.592
1000
ysiz
1000
53.036
1000
angl
1000
0
1000
ctyp
1000
0
1000
csiz
1000
5
1000
lfnt
1000
cont
1000
hcnt
1000
hoff
1000
vcnt
1000
voff
1000
opnt
1000
4
1000
dxpt
1000
0
1000
dypt
1000
0
  0
GROUP
  5
673
102
{ACAD_REACTORS
330
D
102
}
330
D
100
AcDbGroup
300

 70
     0
 71
     1
1001
GRPNAME
1000
DREC-
1001
GPARA
1000
xsiz
1000
30.363
1000
ysiz
1000
36.175
1000
angl
1000
0
1000
ctyp
1000
0
1000
csiz
1000
5
1000
lfnt
1000
cont
1000
hcnt
1000
hoff
1000
vcnt
1000
voff
1000
opnt
1000
4
1000
dxpt
1000
0
1000
dypt
1000
0
  0
MLINESTYLE
  5
13
102
{ACAD_REACTORS
330
E
102
}
330
E
100
AcDbMlineStyle
  2
STANDARD
 70
     0
  3

 62
     0
 51
90.0
 52
90.0
 71
     2
 49
0.5
 62
   256
  6
BYLAYER
 49
-0.5
 62
   256
  6
BYLAYER
  0
PLOTSETTINGS
  5
758
102
{ACAD_REACTORS
330
566
102
}
330
566
100
AcDbPlotSettings
  1
A3(0.5倍)
  2
\\AWTECPC05\HP DeskJet 1120C
  4
A3
  6

 40
5.95841646
 41
13.49375153
 42
6.04309082
 43
3.67242432
 44
296.92599487
 45
419.94665527
 46
89.96
 47
127.14
 48
0.0
 49
0.0
140
0.0
141
0.0
142
1.0
143
2.0
 70
  1716
 72
     1
 73
     1
 74
     2
  7
big.ctb
 75
    17
147
0.5
148
0.0
149
0.0
  0
PLOTSETTINGS
  5
757
102
{ACAD_REACTORS
330
566
102
}
330
566
100
AcDbPlotSettings
  1
A3(1倍)
  2
\\AWTECPC05\HP DeskJet 1120C
  4
A3
  6

 40
5.95841646
 41
13.49375153
 42
6.04309082
 43
3.67242432
 44
296.92599487
 45
419.94665527
 46
37.46
 47
52.89
 48
0.0
 49
0.0
140
0.0
141
0.0
142
1.0
143
1.0
 70
  1716
 72
     1
 73
     1
 74
     2
  7
big.ctb
 75
    16
147
1.0
148
0.0
149
0.0
  0
PLOTSETTINGS
  5
707
102
{ACAD_REACTORS
330
566
102
}
330
566
100
AcDbPlotSettings
  1
A3(1倍)(2000)
  2
SII LS-1300 (D-SCAN)
  4
User258
  6

 40
3.17499995
 41
3.17499995
 42
3.17498779
 43
3.17498779
 44
419.98898315
 45
296.98950195
 46
58.32
 47
40.32
 48
0.0
 49
0.0
140
0.0
141
0.0
142
1.0
143
1.0
 70
  1716
 72
     1
 73
     0
 74
     2
  7
big.ctb
 75
    16
147
1.0
148
0.0
149
0.0
  0
PLOTSETTINGS
  5
759
102
{ACAD_REACTORS
330
566
102
}
330
566
100
AcDbPlotSettings
  1
A3(2倍)
  2
\\AWTECPC05\HP DeskJet 1120C
  4
A3
  6

 40
5.95841646
 41
13.49375153
 42
6.04309082
 43
3.67242432
 44
296.92599487
 45
419.94665527
 46
-67.54
 47
-95.61
 48
0.0
 49
0.0
140
0.0
141
0.0
142
1.0
143
0.5
 70
  1716
 72
     1
 73
     1
 74
     2
  7
big.ctb
 75
    27
147
2.0
148
0.0
149
0.0
  0
PLOTSETTINGS
  5
755
102
{ACAD_REACTORS
330
566
102
}
330
566
100
AcDbPlotSettings
  1
A4(0.5倍)
  2
\\AWTECPC05\HP DeskJet 1120C
  4
A4
  6

 40
4.18041658
 41
13.49374962
 42
4.18040466
 43
3.92642212
 44
209.97332764
 45
296.92599487
 46
48.31
 47
65.5
 48
0.0
 49
0.0
140
0.0
141
0.0
142
1.0
143
2.0
 70
  1716
 72
     1
 73
     1
 74
     2
  7
big.ctb
 75
    17
147
0.5
148
0.0
149
0.0
  0
PLOTSETTINGS
  5
754
102
{ACAD_REACTORS
330
566
102
}
330
566
100
AcDbPlotSettings
  1
A4(1倍)
  2
\\AWTECPC05\HP DeskJet 1120C
  4
A4
  6

 40
4.18041658
 41
13.49374962
 42
4.18040466
 43
3.92642212
 44
209.97332764
 45
296.92599487
 46
-4.19
 47
-8.75
 48
0.0
 49
0.0
140
0.0
141
0.0
142
1.0
143
1.0
 70
  1716
 72
     1
 73
     1
 74
     2
  7
big.ctb
 75
    16
147
1.0
148
0.0
149
0.0
  0
PLOTSETTINGS
  5
708
102
{ACAD_REACTORS
330
566
102
}
330
566
100
AcDbPlotSettings
  1
A4(1倍)(2000)
  2
SII LS-1300 (D-SCAN)
  4
User259
  6

 40
3.17499995
 41
3.17499995
 42
3.17498779
 43
3.17500305
 44
296.98950195
 45
209.99449158
 46
-3.18
 47
-3.18
 48
0.0
 49
0.0
140
0.0
141
0.0
142
1.0
143
1.0
 70
  1716
 72
     1
 73
     0
 74
     2
  7
big.ctb
 75
    16
147
1.0
148
0.0
149
0.0
  0
PLOTSETTINGS
  5
756
102
{ACAD_REACTORS
330
566
102
}
330
566
100
AcDbPlotSettings
  1
A4(2倍)
  2
\\AWTECPC05\HP DeskJet 1120C
  4
A4
  6

 40
4.18041658
 41
13.49374962
 42
4.18040466
 43
3.92642212
 44
209.97332764
 45
296.92599487
 46
-109.19
 47
-157.25
 48
0.0
 49
0.0
140
0.0
141
0.0
142
1.0
143
0.5
 70
  1716
 72
     1
 73
     1
 74
     2
  7
big.ctb
 75
    27
147
2.0
148
0.0
149
0.0
  0
ACDBPLACEHOLDER
  5
564
102
{ACAD_REACTORS
330
563
102
}
330
563
100
AcDbPlaceHolder
280
     0
  0
XRECORD
  5
D25
102
{ACAD_REACTORS
330
D1B
102
}
330
D1B
100
AcDbXrecord
 90
        0
  0
XRECORD
  5
D29
102
{ACAD_REACTORS
330
D1B
102
}
330
D1B
100
AcDbXrecord
1000
DSTYLE
1002
{
1070
    79
 70
     2
1070
   179
 70
     3
1070
   341
340
594
1070
   343
340
594
1070
   344
340
594
1070
   371
 70
    -1
1070
   372
 70
    -1
1002
}
  0
XRECORD
  5
D26
102
{ACAD_REACTORS
330
D1B
102
}
330
D1B
100
AcDbXrecord
  1
{51294030-9CB4-11D3-8E18-00A0C925D94D}
  0
XRECORD
  5
D1E
102
{ACAD_REACTORS
330
D1B
102
}
330
D1B
100
AcDbXrecord
  1

  0
XRECORD
  5
D24
102
{ACAD_REACTORS
330
D1B
102
}
330
D1B
100
AcDbXrecord
 90
        0
  0
XRECORD
  5
D20
102
{ACAD_REACTORS
330
D1B
102
}
330
D1B
100
AcDbXrecord
340
565
  0
XRECORD
  5
D23
102
{ACAD_REACTORS
330
D1B
102
}
330
D1B
100
AcDbXrecord
 90
    10781
  0
XRECORD
  5
D21
102
{ACAD_REACTORS
330
D1B
102
}
330
D1B
100
AcDbXrecord
340
566
  0
XRECORD
  5
D22
102
{ACAD_REACTORS
330
D1B
102
}
330
D1B
100
AcDbXrecord
340
563
  0
XRECORD
  5
D28
102
{ACAD_REACTORS
330
D1B
102
}
330
D1B
100
AcDbXrecord
 40
0.0
  0
XRECORD
  5
D2C
102
{ACAD_REACTORS
330
D1B
102
}
330
D1B
100
AcDbXrecord
340
0
  0
XRECORD
  5
D32
102
{ACAD_REACTORS
330
D1B
102
}
330
D1B
100
AcDbXrecord
 10
0.0
 20
0.0
 30
0.0
  0
XRECORD
  5
D2E
102
{ACAD_REACTORS
330
D1B
102
}
330
D1B
100
AcDbXrecord
 10
0.0
 20
0.0
 30
0.0
  0
XRECORD
  5
D31
102
{ACAD_REACTORS
330
D1B
102
}
330
D1B
100
AcDbXrecord
 10
0.0
 20
0.0
 30
0.0
  0
XRECORD
  5
D2F
102
{ACAD_REACTORS
330
D1B
102
}
330
D1B
100
AcDbXrecord
 10
0.0
 20
0.0
 30
0.0
  0
XRECORD
  5
D30
102
{ACAD_REACTORS
330
D1B
102
}
330
D1B
100
AcDbXrecord
 10
0.0
 20
0.0
 30
0.0
  0
XRECORD
  5
D2D
102
{ACAD_REACTORS
330
D1B
102
}
330
D1B
100
AcDbXrecord
 10
0.0
 20
0.0
 30
0.0
  0
XRECORD
  5
D2A
102
{ACAD_REACTORS
330
D1B
102
}
330
D1B
100
AcDbXrecord
340
0
  0
XRECORD
  5
D2B
102
{ACAD_REACTORS
330
D1B
102
}
330
D1B
100
AcDbXrecord
 70
     0
  0
XRECORD
  5
D1F
102
{ACAD_REACTORS
330
D1B
102
}
330
D1B
100
AcDbXrecord
  1
big.ctb
  0
XRECORD
  5
D1C
102
{ACAD_REACTORS
330
D1B
102
}
330
D1B
100
AcDbXrecord
 90
        1
  0
XRECORD
  5
D1D
102
{ACAD_REACTORS
330
D1B
102
}
330
D1B
100
AcDbXrecord
 90
       70
  0
XRECORD
  5
D35
102
{ACAD_REACTORS
330
D1B
102
}
330
D1B
100
AcDbXrecord
340
0
  0
XRECORD
  5
D3B
102
{ACAD_REACTORS
330
D1B
102
}
330
D1B
100
AcDbXrecord
 10
0.0
 20
0.0
 30
0.0
  0
XRECORD
  5
D37
102
{ACAD_REACTORS
330
D1B
102
}
330
D1B
100
AcDbXrecord
 10
0.0
 20
0.0
 30
0.0
  0
XRECORD
  5
D3A
102
{ACAD_REACTORS
330
D1B
102
}
330
D1B
100
AcDbXrecord
 10
0.0
 20
0.0
 30
0.0
  0
XRECORD
  5
D38
102
{ACAD_REACTORS
330
D1B
102
}
330
D1B
100
AcDbXrecord
 10
0.0
 20
0.0
 30
0.0
  0
XRECORD
  5
D39
102
{ACAD_REACTORS
330
D1B
102
}
330
D1B
100
AcDbXrecord
 10
0.0
 20
0.0
 30
0.0
  0
XRECORD
  5
D36
102
{ACAD_REACTORS
330
D1B
102
}
330
D1B
100
AcDbXrecord
 10
0.0
 20
0.0
 30
0.0
  0
XRECORD
  5
D33
102
{ACAD_REACTORS
330
D1B
102
}
330
D1B
100
AcDbXrecord
340
0
  0
XRECORD
  5
D34
102
{ACAD_REACTORS
330
D1B
102
}
330
D1B
100
AcDbXrecord
 70
     0
  0
XRECORD
  5
D27
102
{ACAD_REACTORS
330
D1B
102
}
330
D1B
100
AcDbXrecord
  1
{6CEEA427-C4DC-450B-95E9-287C7F57523C}
  0
XRECORD
  5
560
102
{ACAD_REACTORS
330
540
102
}
330
540
100
AcDbXrecord
  1
2.0.0
  0
ENDSEC
  0
EOF
